Скачать через торрент Лавалантула 2 Lavalantula 2 Фильм бесплатно в хорошем качестве torrent

Скачивайте на UnionPeer.org фильмы через торрент без регистрации. Новинки кино в хорошем качестве через торрент. На UnionPeer.org можно скачать через торрент фильмы 2014 и 2015 годов. Самые новые фильмы.

Скачать торрент Лавалантула 2 Lavalantula 2 бесплатно через .torrent фильм мультфильм сериал

Статистика раздачи
Размер:  1.45 GB   |    Зарегистрирован:  6 лет 11 месяцев   |    .torrent скачан:  74 раза   |   
Раздают:  1  
 

Скачать Лавалантула 2 / Lavalantula 2 / 2 Lava 2 Lantula! (Ник Саймон / Nick Simon) [2016, США, ужасы, фантастика, триллер, HDRip] MVO (ТВ3) + Original Eng через torrent

 
 
Автор Сообщение

Galfimbul

avatar Galfimbul


Лавалантула 2 / Lavalantula 2 / 2 Lava 2 Lantula!

Страна: США
Жанр: ужасы, фантастика, триллер
Год выпуска: 2016
Продолжительность: 01:24:50

Перевод: Профессиональный (многоголосый закадровый) ТВ3
Субтитры: нет
Оригинальная аудиодорожка: английский

Режиссер: Ник Саймон / Nick Simon

В ролях: Стив Гуттенберг, Майкл Уинслоу, Мишель Уивер, Джимми Беллинджер, Лорен Йорк, Эррон Джей, АрДжей Уокер, Мартин Коув, Эрик Этебари, Мэрион Рэмси

Описание: Телевизионный фильм «Лавалантула 2» - продолжение фантастической комедии ужасов о гигантских огнедышащих пауках, угрожающих Америке.
Несколько лет назад паукообразные монстры, появившиеся после небывалого землетрясения, атаковали Лос-Анджелес. Извергающие пламя мутанты убивали и сеяли огненный хаос, однако их апокалиптическое нашествие остановил незаметный герой - актер Колтон Уэст. После этого безработный киношник стал признанным спасителем Америки, а пауки исчезли.
Годы спустя кошмар повторяется. Теперь полчища тарантулов нападают на Флориду, угрожая сжечь дотла самый солнечный штат. Пауки-убийцы появляются на флоридском пляже, где проводит каникулы падчерица героя, Райя, и ее подружки. Ради спасения девчонок Колтон оставляет съемки в многомиллионном блокбастере и отправляется уничтожать лавалантулов. Вдвоем с другом Марти он намеревается очистить Флориду от адских доисторических тварей, пробужденных извержением вулкана, и главного восьминогого чудовища – кровожадного и беспощадного арахнида Гаргантулантулы.

Сэмпл: http://multi-up.com/1157552

Качество видео: HDRip
Формат видео: AVI

Видео: MPEG4, XviD, 720x400 (16:9), 23.976 fps, 1 800 Kbps (0.261 bit/pixel)
Аудио: AC-3, 48.0 KHz, 2 ch, 192 Kbps, CBR - русский
Аудио 2: AC-3, 48.0 KHz, 6 ch, 448 Kbps, CBR
Общее
Полное имя : M:\Лавалантула 2.avi
Формат : AVI
Формат/Информация : Audio Video Interleave
Размер файла : 1,45 Гбайт
Продолжительность : 1 ч. 24 м.
Общий поток : 2454 Кбит/сек
Название фильма : Лавалантула 2 / Lavalantula 2 / 2 Lava 2 Lantula! (2016)
Программа кодирования : VirtualDubMod 1.5.10.2 (build 2540/release)
Библиотека кодирования : VirtualDubMod build 2540/release
Авторское право : miha2154

Видео
Идентификатор : 0
Формат : MPEG-4 Visual
Профиль формата : Advanced Simple@L5
Параметр BVOP формата : 1
Параметр QPel формата : Нет
Параметр GMC формата : Без точки перехода
Параметр матрицы формата : Выборочная
Идентификатор кодека : XVID
Идентификатор кодека/Подсказка : XviD
Продолжительность : 1 ч. 24 м.
Битрейт : 1800 Кбит/сек
Ширина : 720 пикселей
Высота : 400 пикселей
Соотношение сторон : 16:9
Частота кадров : 23,976 (24000/1001) кадра/сек
Цветовое пространство : YUV
Субдискретизация насыщенности : 4:2:0
Битовая глубина : 8 бит
Тип развёртки : Прогрессивная
Метод сжатия : С потерями
Бит/(Пиксели*Кадры) : 0.261
Размер потока : 1,07 Гбайт (73%)
Библиотека кодирования : XviD 65

Аудио #1
Идентификатор : 1
Формат : AC-3
Формат/Информация : Audio Coding 3
Расширение режима : CM (complete main)
Параметр Endianness формата : Big
Идентификатор кодека : 2000
Продолжительность : 1 ч. 24 м.
Вид битрейта : Постоянный
Битрейт : 192 Кбит/сек
Каналы : 2 канала
Расположение каналов : Front: L R
Частота : 48,0 КГц
Частота кадров : 31,250 кадров/сек (1536 spf)
Метод сжатия : С потерями
Задержка видео : 100 мс.
Размер потока : 117 Мбайт (8%)
Выравнивание : Разделение по промежуткам
Продолжительность промежутка : 42 мс. (1,00 видеокадр)
Время предзагрузки промежутка : 500 мс.
Заголовок : Профессиональный (многоголосый закадровый) ТВ3

Аудио #2
Идентификатор : 2
Формат : AC-3
Формат/Информация : Audio Coding 3
Расширение режима : CM (complete main)
Параметр Endianness формата : Big
Идентификатор кодека : 2000
Продолжительность : 1 ч. 24 м.
Вид битрейта : Постоянный
Битрейт : 448 Кбит/сек
Каналы : 6 каналов
Расположение каналов : Front: L C R, Side: L R, LFE
Частота : 48,0 КГц
Частота кадров : 31,250 кадров/сек (1536 spf)
Метод сжатия : С потерями
Задержка видео : 100 мс.
Размер потока : 272 Мбайт (18%)
Выравнивание : Разделение по промежуткам
Продолжительность промежутка : 42 мс. (1,00 видеокадр)
Время предзагрузки промежутка : 500 мс.
Заголовок : Английский


Внимание! AdBlock блокирует показ скриншотов, все вопросы к разработчикам )))

Трекер:  [ 14-Июн-2017 16:30 ]

  

Скачать .torrent

Размер .torrent файла 15 KB


Размер: 1.45 GB
Хэш (hash) релиза: 6d0480e7b69c81df70fe42910af626bfb124b180
Подписка на обновления:

Еще никто не оставлял запись к записи скачать торрент Лавалантула 2 Lavalantula 2 . Будь первым!

!Обратная связь