A Cure for Wellness torrent

UnionPeer.org . . UnionPeer.org 2014 2015 . .

A Cure for Wellness .torrent

9.58 GB   |    :  6 8    |    .torrent :  87    |   
1  
   
 

Galfimbul

avatar Galfimbul


/ A Cure for Wellness

: ,
: , , , , ,
: 2016
: 02:26:33

: ()
: , ,
: : / Gore Verbinski : , , , , , , , , , : , . , - , . , . , , , . :
: BDRip | SbR
: MKV

: 1280x720 at 23.976 fps, [email protected], ~ 6627 kbps avg
1: Russian: 48 kHz/24-bit, DTS 5.1, ~768 kbps avg ||
2: Ukrainian: 48 kHz, AC3, 3/2 (L,C,R,l,r) + LFE ch, ~448 kbps avg ||
3: English: 48 kHz/24-bit, DTS 5.1, ~1509 kbps avg
<div class="q-wrap">
<div class="q-head"><b>:</b></div>
<div class="q">

Blu-ray.

</div>
</div>
Format : Matroska
Format version : Version 4 / Version 2
File size : 9.58 GiB
Duration : 2 h 26 min
Overall bit rate : 9 356 kb/s
Encoded date : UTC 2017-06-08 23:58:50
Writing application : mkvmerge v12.0.0 ('Trust / Lust') 64bit
Writing library : libebml v1.3.4 + libmatroska v1.4.5
Cover : Yes
Attachments : cover.jpg

Video
ID : 1
Format : AVC
Format/Info : Advanced Video Codec
Format profile : [email protected]
Format settings, CABAC : Yes
Format settings, ReFrames : 9 frames
Codec ID : V_MPEG4/ISO/AVC
Duration : 2 h 26 min
Bit rate : 6 445 kb/s
Width : 1 280 pixels
Height : 720 pixels
Display aspect ratio : 16:9
Frame rate mode : Constant
Frame rate : 23.976 (23976/1000) FPS
Color space : YUV
Chroma subsampling : 4:2:0
Bit depth : 8 bits
Scan type : Progressive
Bits/(Pixel*Frame) : 0.292
Stream size : 6.60 GiB (69%)
Writing library : x264 core 150 r2833+58 090e24f t_mod_Custom [8-bit@all X86_64]
Encoding settings : cabac=1 / ref=9 / deblock=1:-3:-3 / analyse=0x3:0x133 / me=umh / subme=11 / psy=1 / fade_compensate=0.00 / psy_rd=0.90:0.10 / mixed_ref=1 / me_range=32 / chroma_me=1 / trellis=2 / 8x8dct=1 / cqm=0 / deadzone=21,11 / fast_pskip=0 / chroma_qp_offset=-3 / threads=6 / lookahead_threads=1 / sliced_threads=0 / nr=0 / decimate=1 / interlaced=0 / bluray_compat=0 / constrained_intra=0 / fgo=0 / bframes=10 / b_pyramid=2 / b_adapt=2 / b_bias=0 / direct=3 / weightb=1 / open_gop=0 / weightp=2 / keyint=250 / keyint_min=23 / scenecut=40 / intra_refresh=0 / rc_lookahead=60 / rc=crf / mbtree=0 / crf=15.0000 / qcomp=0.60 / qpmin=0:0:0 / qpmax=69:69:69 / qpstep=4 / vbv_maxrate=62500 / vbv_bufsize=78125 / crf_max=0.0 / nal_hrd=none / filler=0 / ip_ratio=1.40 / pb_ratio=1.30 / aq=1:0.75 / aq-sensitivity=10.00 / aq-factor=1.00:1.00:1.00 / aq2=1:0.60 / aq2-sensitivity=15.00 / aq2-factor=1.00:1.00:1.00 / aq3=1:[0.55:0.55]:[0.55:0.55]:[0.55:0.55]:[0.55:0.55] / aq3-sensitivity=10.00 / aq3-factor=[1.00:1.00]:[1.00:1.00]:[1.00:1.00] / aq3-boundary=192:64:24
Language : English
Default : Yes
Forced : No
Color range : Limited
Color primaries : BT.709
Transfer characteristics : BT.709
Matrix coefficients : BT.709

Audio #1
ID : 2
Format : DTS
Format/Info : Digital Theater Systems
Mode : 16
Format settings, Endianness : Big
Codec ID : A_DTS
Duration : 2 h 26 min
Bit rate mode : Constant
Bit rate : 768 kb/s
Channel(s) : 6 channels
Channel positions : Front: L C R, Side: L R, LFE
Sampling rate : 48.0 kHz
Frame rate : 93.750 FPS (512 spf)
Bit depth : 24 bits
Compression mode : Lossy
Stream size : 805 MiB (8%)
Title :
Language : Russian
Default : Yes
Forced : No

Audio #2
ID : 3
Format : AC-3
Format/Info : Audio Coding 3
Format settings, Endianness : Big
Codec ID : A_AC3
Duration : 2 h 26 min
Bit rate mode : Constant
Bit rate : 448 kb/s
Channel(s) : 6 channels
Channel positions : Front: L C R, Side: L R, LFE
Sampling rate : 48.0 kHz
Frame rate : 31.250 FPS (1536 spf)
Bit depth : 16 bits
Compression mode : Lossy
Stream size : 470 MiB (5%)
Title :
Language : Ukrainian
Service kind : Complete Main
Default : No
Forced : No

Audio #3
ID : 4
Format : DTS
Format/Info : Digital Theater Systems
Format profile : ES Matrix / Core
Mode : 16
Format settings, Endianness : Big
Codec ID : A_DTS
Duration : 2 h 26 min
Bit rate mode : Constant
Bit rate : 1 509 kb/s
Channel(s) : 7 channels / 6 channels
Channel positions : Front: L C R, Side: L R, Back: C, LFE / Front: L C R, Side: L R, LFE
Sampling rate : 48.0 kHz
Frame rate : 93.750 FPS (512 spf)
Bit depth : 24 bits
Compression mode : Lossy
Stream size : 1.54 GiB (16%)
Language : English
Default : No
Forced : No

Text #1
ID : 5
Format : UTF-8
Codec ID : S_TEXT/UTF8
Codec ID/Info : UTF-8 Plain Text
Language : Russian
Default : No
Forced : No

Text #2
ID : 6
Format : UTF-8
Codec ID : S_TEXT/UTF8
Codec ID/Info : UTF-8 Plain Text
Language : Ukrainian
Default : No
Forced : No

Text #3
ID : 7
Format : UTF-8
Codec ID : S_TEXT/UTF8
Codec ID/Info : UTF-8 Plain Text
Language : English
Default : No
Forced : No

Menu
00:00:00.000 : en:00:00:00.000
00:03:37.092 : en:00:03:37.092
00:09:18.349 : en:00:09:18.349
00:13:22.343 : en:00:13:22.343
00:16:55.681 : en:00:16:55.681
00:22:49.910 : en:00:22:49.910
00:27:42.035 : en:00:27:42.035
00:32:01.878 : en:00:32:01.878
00:38:23.843 : en:00:38:23.843
00:44:51.397 : en:00:44:51.397
00:51:22.162 : en:00:51:22.162
00:56:50.782 : en:00:56:50.782
01:01:31.062 : en:01:01:31.062
01:08:08.293 : en:01:08:08.293
01:13:12.221 : en:01:13:12.221
01:17:02.284 : en:01:17:02.284
01:21:08.447 : en:01:21:08.447
01:25:17.195 : en:01:25:17.195
01:29:20.355 : en:01:29:20.355
01:34:59.277 : en:01:34:59.277
01:40:19.513 : en:01:40:19.513
01:43:49.181 : en:01:43:49.181
01:47:46.794 : en:01:47:46.794
01:52:30.661 : en:01:52:30.661
01:56:30.775 : en:01:56:30.775
02:04:22.121 : en:02:04:22.121
02:09:17.458 : en:02:09:17.458
02:19:59.057 : en:02:19:59.057


! AdBlock , )))
 ·  , , FAQ-
:  [ 15--2017 16:01 ]

  

.torrent

.torrent 48 KB


: 9.58 GB
(hash) : f675195daa77c3575cdea86cefb914b66c3155bf
:
··
...

, A Cure for Wellness

S L
2016 ··  / A Cure for Wellness ( / Gore Verbinski) [2017, , , , , , , , , DVD5 ()] Dub + Sub Rus + Original Eng Galfimbul 46985994244.38 GB 0 0 1518277019

18:36

10--18

2016 ··  / A Cure for Wellness ( / Gore Verbinski) [2017, , , , , , , , , DVD9] Dub + Original Eng Galfimbul 80880844807.53 GB 0 0 1517834171

15:36

5--18

··  / A Cure for Wellness ( ) [2016, | | , BDRip 720p] Galfimbul 550142336525 MB 0 0 1502541297

15:34

12--17

2016 ··  / A Cure for Wellness ( / Gore Verbinski)[2016, , , , , , Blu-Ray>DVD9 (Custom)] DUB+Eng+Sub rus,eng Galfimbul 84650004487.88 GB 0 0 1499585767

10:36

9--17

2016 ··  / A Cure for Wellness ( / Gore Verbinski) [2016, , , , , , , , , BDRip 1080p] Dub + Sub Rus, Eng, Ukr + Original Eng Galfimbul 2003343548118.66 GB 0 0 1497531941

16:05

15--17

2016-2019 ( ) ··  / A Cure for Wellness ( / Gore Verbinski) [2016, , , , , , , , BDRip] Dub (EUR) + Sub Rus, Eng, Ukr + Original Eng Galfimbul 31198462642.91 GB 0 0 1497447033

16:30

14--17

2016 ··  / A Cure for Wellness ( / Gore Verbinski) [2016, , , , , , , , , Blu-ray disc 1080p] Dub + Ukr Dub + Sub Rus, Ukr, Eng + Original Eng Galfimbul 4765380807444.38 GB 0 0 1497049900

02:11

10--17

2016-2019 ( ) ··  / A Cure for Wellness ( / Gore Verbinski) [2016, , , , , , , , HDRip] Dub () Galfimbul 22050537082.05 GB 0 0 1497029456

20:30

9--17

2016-2019 ( ) ··  / A Cure for Wellness ( / Gore Verbinski) [2016, , , , , , , , BDRip] Dub Galfimbul 15686430721.46 GB 0 0 1496930477

17:01

8--17

2016-2019 ( ) ··  / A Cure for Wellness ( ) [2017, , , BDRip] Galfimbul 15583354881.45 GB 0 0 1496902250

09:10

8--17

2016-2019 ( ) ··  / A Cure for Wellness ( ) [2017, , , BDRip 720p] Galfimbul 93335993488.69 GB 0 0 1496902246

09:10

8--17

2016-2019 ( ) ··  / A Cure for Wellness ( ) [2017, , , BDRip 1080p] Galfimbul 1566815179114.59 GB 0 0 1496902242

09:10

8--17

2016-2019 ( ) ··  / A Cure for Wellness ( ) [2017, , , BDRip 720p] Galfimbul 84025287797.83 GB 0 0 1496890248

05:50

8--17

2016-2019 ( ) ··  / A Cure for Wellness ( ) [2017, , , HDRip] Galfimbul 14676582401.37 GB 0 0 1496890220

05:50

8--17

2016-2019 ( ) ··  / A Cure for Wellness ( ) [2017, , , HDRip] Galfimbul 22050529282.05 GB 0 0 1496890210

05:50

8--17

2016-2019 ( ) ··  / A Cure for Wellness ( ) [2017, , , Blu-Ray EUR 1080p] Galfimbul 4765380807444.38 GB 0 0 1496884817

04:20

8--17

2016-2019 ( ) ··  / A Cure for Wellness ( / Gore Verbinski) [2016, , , , , , , , BDRip] MVO Galfimbul 15692144641.46 GB 0 0 1496477425

11:10

3--17

2016-2019 ( ) ··  / A Cure for Wellness ( / Gore Verbinski) [2016, , , , , , BDRip-AVC] MVO (Paradox & Omskbird) + Original + Sub (eng) Galfimbul 23986378642.23 GB 0 0 1496477421

11:10

3--17

2016-2019 ( ) ··  / A Cure for Wellness ( ) [2017, , , BDRip 720p] Galfimbul 88800253088.27 GB 0 0 1496355285

01:14

2--17

A Cure for Wellness . !

!