Скачать через торрент Джон Уик 2 John Wick: Chapter Two Фильм бесплатно в хорошем качестве torrent

Скачивайте на UnionPeer.org фильмы через торрент без регистрации. Новинки кино в хорошем качестве через торрент. На UnionPeer.org можно скачать через торрент фильмы 2014 и 2015 годов. Самые новые фильмы.

Скачать торрент Джон Уик 2 John Wick: Chapter Two бесплатно через .torrent фильм мультфильм сериал

Статистика раздачи
Размер:  7.35 GB   |    Зарегистрирован:  6 лет 8 месяцев   |    .torrent скачан:  240 раз   |   
Раздают:  1  
 

Скачать Джон Уик 2 / John Wick: Chapter Two (Чад Стахелски / Chad Stahelski) [2017, США, боевик, триллер, криминал, BDRip 720p] Dub (iTunes) + Sub Rus, Eng + Original Eng через torrent

 
 
Автор Сообщение

Galfimbul

avatar Galfimbul


Джон Уик 2 / John Wick: Chapter Two

Страна: США
Студия: 87Eleven, Lionsgate, Summit Entertainment, Thunder Road
Жанр: боевик, триллер, криминал
Год выпуска: 2017
Продолжительность: 02:02:22

Перевод: Профессиональный (дублированный) iTunes
Субтитры: Rus, Eng
Оригинальная аудиодорожка: английский

Режиссер: Чад Стахелски / Chad Stahelski

В ролях: Киану Ривз (John Wick), Риккардо Скамарчо (Santino D'Antonio), Иэн МакШейн (Winston), Руби Роуз (Ares), Коммон (Cassian), Клаудия Джерини (Gianna D'Antonio), Лэнс Реддик (Charon), Лоренс Фишбёрн (Bowery King), Тобиаш Сигал (Earl), Джон Легуизамо (Aurelio), Бриджет Мойнэхэн (Helen), Томас Садоски (Jimmy)

Описание: Когда бывший коллега Джона решает взять под свой контроль таинственную гильдию убийц, Уик вынужден выйти из отставки. Ведомый кровавой клятвой Джон отправляется в Рим, где ему придется сразиться с одними из самых опасных киллеров в мире.



Тип релиза: BDRip 720p
Контейнер: MKV

Видео: MPEG-4 AVC, 7570 Кбит/с, 1280x534, 23,976 fps
Аудио: Rus, AC3, 384 kb/s (6 ch), 48 kHz
Аудио 2: Eng, AC3, 640 kb/s (6 ch), 48 kHz
Формат субтитров: softsub (SRT)
x264 [info]: frame I:1321 Avg QP:11.53 size:138225
x264 [info]: frame P:38813 Avg QP:13.23 size: 68521
x264 [info]: frame B:135907 Avg QP:14.36 size: 30210

Format : Matroska
Format version : Version 4 / Version 2
File size : 7.35 GiB
Duration : 2 h 2 min
Overall bit rate : 8 597 kb/s
Movie name : Джон Уик 2. (Tonik)
Encoded date : UTC 2017-06-08 16:05:05
Writing application : mkvmerge v7.1.0 ('Good Love') 64bit built on Jul 27 2014 13:06:55
Writing library : libebml v1.3.0 + libmatroska v1.4.1
Cover : Yes
Attachments : Cover.png

Video
ID : 1
Format : AVC
Format/Info : Advanced Video Codec
Format profile : [email protected]
Format settings, CABAC : Yes
Format settings, ReFrames : 12 frames
Codec ID : V_MPEG4/ISO/AVC
Duration : 2 h 2 min
Bit rate : 7 570 kb/s
Width : 1 280 pixels
Height : 534 pixels
Display aspect ratio : 2.40:1
Frame rate mode : Constant
Frame rate : 23.976 (24000/1001) FPS
Color space : YUV
Chroma subsampling : 4:2:0
Bit depth : 8 bits
Scan type : Progressive
Bits/(Pixel*Frame) : 0.462
Stream size : 6.47 GiB (88%)
Writing library : x264 core 150 r2833+58 090e24f t_mod_Custom [8-bit@all X86_64]
Encoding settings : cabac=1 / ref=12 / deblock=1:-3:-3 / analyse=0x3:0x133 / me=umh / subme=11 / psy=1 / fade_compensate=0.00 / psy_rd=1.05:0.00 / mixed_ref=1 / me_range=32 / chroma_me=1 / trellis=2 / 8x8dct=1 / cqm=0 / deadzone=21,11 / fast_pskip=0 / chroma_qp_offset=-2 / threads=12 / lookahead_threads=2 / sliced_threads=0 / nr=0 / decimate=0 / interlaced=0 / bluray_compat=0 / constrained_intra=0 / fgo=0 / bframes=9 / b_pyramid=2 / b_adapt=2 / b_bias=0 / direct=3 / weightb=1 / open_gop=0 / weightp=2 / keyint=250 / keyint_min=23 / scenecut=40 / intra_refresh=0 / rc_lookahead=60 / rc=crf / mbtree=0 / crf=14.8000 / qcomp=0.65 / qpmin=0:0:0 / qpmax=69:69:69 / qpstep=4 / vbv_maxrate=62500 / vbv_bufsize=78125 / crf_max=0.0 / nal_hrd=none / filler=0 / ip_ratio=1.30 / pb_ratio=1.20 / aq=3:0.80 / aq-sensitivity=10.00 / aq-factor=1.00:1.00:1.00 / aq2=0 / aq3=0 / zones=60,465,crf=12/20020,20092,crf=13/22102,22133,crf=13/22205,22294,crf=13/23309,23382,crf=12/23625,23642,crf=12/23710,23729,crf=12/36492,36549,crf=14/38310,38498,crf=13/39932,43191,crf=15/66973,67025,crf=14/67092,67136,crf=14/69220,79634,crf=14.5/81821,85446,crf=14.5/85447,85520,crf=13/85521,87566,crf=14/87567,88959,crf=14.5/112062,116948,crf=15/122577,127689,crf=15/140477,140541,crf=13/140840,141025,crf=14/141110,141340,crf=14/141688,141837,crf=14/144838,144984,crf=14.5/153972,156525,crf=14.5/156919,163831,crf=15/165930,168005,crf=12/168030,175880,crf=20/175888,175990,crf=12
Language : English
Default : Yes
Forced : No
Color range : Limited
Matrix coefficients : BT.709

Audio #1
ID : 2
Format : AC-3
Format/Info : Audio Coding 3
Format settings, Endianness : Big
Codec ID : A_AC3
Duration : 2 h 2 min
Bit rate mode : Constant
Bit rate : 384 kb/s
Channel(s) : 6 channels
Channel positions : Front: L C R, Side: L R, LFE
Sampling rate : 48.0 kHz
Frame rate : 31.250 FPS (1536 spf)
Bit depth : 16 bits
Compression mode : Lossy
Stream size : 336 MiB (4%)
Title : iTunes
Language : Russian
Service kind : Complete Main
Default : Yes
Forced : No

Audio #2
ID : 3
Format : AC-3
Format/Info : Audio Coding 3
Format settings, Endianness : Big
Codec ID : A_AC3
Duration : 2 h 2 min
Bit rate mode : Constant
Bit rate : 640 kb/s
Channel(s) : 6 channels
Channel positions : Front: L C R, Side: L R, LFE
Sampling rate : 48.0 kHz
Frame rate : 31.250 FPS (1536 spf)
Bit depth : 16 bits
Compression mode : Lossy
Stream size : 560 MiB (7%)
Language : English
Service kind : Complete Main
Default : No
Forced : No

Text #1
ID : 4
Format : UTF-8
Codec ID : S_TEXT/UTF8
Codec ID/Info : UTF-8 Plain Text
Duration : 1 h 53 min
Bit rate : 37 b/s
Count of elements : 500
Stream size : 30.9 KiB (0%)
Language : Russian
Default : No
Forced : No

Text #2
ID : 5
Format : UTF-8
Codec ID : S_TEXT/UTF8
Codec ID/Info : UTF-8 Plain Text
Duration : 1 h 49 min
Bit rate : 21 b/s
Count of elements : 658
Stream size : 17.2 KiB (0%)
Language : English
Default : No
Forced : No

Menu
00:00:00.000 : en:00:00:00.000
00:06:31.683 : en:00:06:31.683
00:16:57.934 : en:00:16:57.934
00:26:35.594 : en:00:26:35.594
00:34:38.034 : en:00:34:38.034
00:42:07.817 : en:00:42:07.817
00:48:07.051 : en:00:48:07.051
00:56:41.648 : en:00:56:41.648
01:01:42.782 : en:01:01:42.782
01:10:27.682 : en:01:10:27.682
01:17:15.923 : en:01:17:15.923
01:24:22.641 : en:01:24:22.641
01:32:11.234 : en:01:32:11.234
01:40:01.329 : en:01:40:01.329
01:46:34.763 : en:01:46:34.763
01:54:01.042 : en:01:54:01.042
Замена видео.

Внимание! AdBlock блокирует показ скриншотов, все вопросы к разработчикам )))
Трекер:  [ 15-Июн-2017 16:30 ]

  

Скачать .torrent

Размер .torrent файла 19 KB


Размер: 7.35 GB
Хэш (hash) релиза: 53d0cf5d85aeb97d0c9f9f0489af997b9ddc64db
Подписка на обновления:

Торренты, похожие на Джон Уик 2 John Wick: Chapter Two скачать торрент

Форум Название Автор Размер S L Добавлен
Зарубежные фильмы 2016-2019 (Новинки зарубежного кино) ·· Джон Уик 2 / John Wick: Chapter Two (2017) BDRip-HEVC 1080p | D, A | Лицензия Galfimbul 83804688357.8 GB 0 0 1580627412

10:10

2-Фев-20

Зарубежные фильмы 2016-2019 (Новинки зарубежного кино) ·%· Джон Уик 2 / John Wick: Chapter Two (2017) BDRip-HEVC 1080p | D | Лицензия Galfimbul 66174315736.16 GB 0 0 1578001808

00:50

3-Янв-20

Зарубежные фильмы 2016-2019 (Новинки зарубежного кино) ·· Джон Уик 2 / John Wick: Chapter Two (Чад Стахелски / Chad Stahelski) [2017, США, боевик, криминал, триллер, BDRip] AVO (Юрий Живов) + Original Eng Galfimbul 23325614082.17 GB 0 0 1512799274

09:01

9-Дек-17

Зарубежные фильмы 2016-2019 (Новинки зарубежного кино) ·· Джон Уик 2 / John Wick: Chapter Two (Чад Стахелски / Chad Stahelski) [2017, США, Гонконг, боевик, триллер, криминал, BDRip] Dub (EUR) + Original Eng + subs (Rus, Eng) Galfimbul 23438804932.18 GB 0 0 1510594225

20:30

13-Ноя-17

Зарубежные фильмы 2016-2019 (Новинки зарубежного кино) ·· Джон Уик 2 / John Wick: Chapter Two (Чад Стахелски / Chad Stahelski) [2017, США, боевик, триллер, криминал, BDRip-AVC] Dub + Sub Rus Galfimbul 781715074746 MB 0 0 1509546638

17:30

1-Ноя-17

Зарубежные фильмы 2016-2019 (Новинки зарубежного кино) ·· Джон Уик 2 / John Wick: Chapter Two (Чад Стахелски / Chad Stahelski) [2017, США, боевик, триллер, криминал, BDRip] D, A | iTunes Galfimbul 22855787692.13 GB 0 0 1504264231

14:10

1-Сен-17

Зарубежные фильмы 2016-2019 (Новинки зарубежного кино) ·· Джон Уик 2 / John Wick: Chapter Two (Чад Стахелски / Chad Stahelski) [2017, США, боевик, триллер, криминал, BDRip] iTunes Galfimbul 15685821611.46 GB 0 0 1504264217

14:10

1-Сен-17

Зарубежные фильмы 2016-2019 (Новинки зарубежного кино) ·· Джон Уик 2 / John Wick: Chapter Two (Чад Стахелски / Chad Stahelski) [2017, США, Боевик, триллер, криминал, BDRip-AVC] Dub + Sub Rus, Eng + Original Eng Galfimbul 35310602223.29 GB 0 0 1497330080

08:01

13-Июн-17

Зарубежные фильмы 2016-2019 (Новинки зарубежного кино) ·· Джон Уик 2 / John Wick: Chapter Two (Чад Стахелски / Chad Stahelski) [2017, США, Боевик, триллер, криминал, BDRip-AVC] Dub + Original (Eng) + Subs (Rus, Eng) Galfimbul 17193322931.6 GB 0 0 1496955702

00:01

9-Июн-17

Зарубежные фильмы 2016-2019 (Новинки зарубежного кино) ·· Джон Уик 2 / John Wick: Chapter Two (Чад Стахелски / Chad Stahelski) [2017, США, Боевик, триллер, криминал, BDRip-AVC] Dub + Original (Eng) + Subs (Rus, Eng) Galfimbul 17192154681.6 GB 0 0 1496567311

12:08

4-Июн-17

Зарубежные фильмы 2016-2019 (Новинки зарубежного кино) ·· Джон Уик 2 / John Wick: Chapter Two (Чад Стахелски / Chad Stahelski) [2017, США, Боевик, триллер, криминал, HDRip-AVC] Dub (iTunes) + Original (Eng) + Subs (Rus, Eng) Galfimbul 16248898311.51 GB 0 0 1496473820

10:10

3-Июн-17

Зарубежные фильмы 2016-2019 (Новинки зарубежного кино) ·· Джон Уик 2 / John Wick: Chapter Two (Чад Стахелски / Chad Stahelski) [2017, США, Боевик, триллер, криминал, BDRip 720p] iTunes Galfimbul 55295665595.15 GB 0 0 1496299613

09:46

1-Июн-17

Зарубежные фильмы 2016-2019 (Новинки зарубежного кино) ·· Джон Уик 2 / John Wick: Chapter Two (Чад Стахелски / Chad Stahelski) [2017, США, Боевик, триллер, криминал, BDRip 1080p] iTunes Galfimbul 88804924348.27 GB 0 0 1496279411

04:10

1-Июн-17

Зарубежные фильмы 2016-2019 (Новинки зарубежного кино) ·· Джон Уик 2 / John Wick: Chapter Two (Чад Стахелски / Chad Stahelski) [2017, США, Боевик, триллер, криминал, WEB-DLRip] Dub (iTunes) Galfimbul 15660503041.46 GB 0 0 1495528780

11:39

23-Май-17

Зарубежные фильмы 2016-2019 (Новинки зарубежного кино) ·· Джон Уик 2 / John Wick: Chapter Two (Чад Стахелски / Chad Stahelski) [2017, США, боевик, триллер, криминал, WEB-DLRip] Dub (iTunes) Galfimbul 781205504745 MB 0 0 1495528774

11:39

23-Май-17

Зарубежные фильмы 2016-2019 (Новинки зарубежного кино) ·· Джон Уик 2 / John Wick: Chapter Two (Чад Стахелски / Chad Stahelski) [2017, США, боевик, триллер, криминал, WEB-DLRip-AVC] Dub Galfimbul 14912480061.39 GB 0 0 1495511806

06:56

23-Май-17

Зарубежные фильмы 2016-2019 (Новинки зарубежного кино) ·· Джон Уик 2 / John Wick: Chapter Two (Чад Стахелски) [2017 г., боевик, триллер, криминал, WEB-DL 720р] iTunes Galfimbul 38887929763.62 GB 0 0 1495510867

06:41

23-Май-17

Зарубежные фильмы 2016-2019 (Новинки зарубежного кино) ·· Джон Уик 2 / John Wick: Chapter Two (Чад Стахелски) [2017 г., боевик, триллер, криминал, WEB-DLRip] iTunes Galfimbul 15681658881.46 GB 0 0 1495485727

23:42

22-Май-17

Зарубежные фильмы 2016-2019 (Новинки зарубежного кино) ·· Джон Уик 2 / John Wick: Chapter Two (Чад Стахелски) [2017 г., боевик, триллер, криминал, WEB-DL 1080p] iTunes Galfimbul 43574532124.06 GB 0 0 1495481980

22:39

22-Май-17

Еще никто не оставлял запись к записи скачать торрент Джон Уик 2 John Wick: Chapter Two . Будь первым!

!Обратная связь