Скачать через торрент Темный странник The Dark Stranger Фильм бесплатно в хорошем качестве torrent

Скачивайте на UnionPeer.org фильмы через торрент без регистрации. Новинки кино в хорошем качестве через торрент. На UnionPeer.org можно скачать через торрент фильмы 2014 и 2015 годов. Самые новые фильмы.

Скачать торрент Темный странник The Dark Stranger бесплатно через .torrent фильм мультфильм сериал

Статистика раздачи
Размер:  3.57 GB   |    Зарегистрирован:  6 лет 8 месяцев   |    .torrent скачан:  68 раз   |   
Раздают:  1  
 

Скачать Темный странник / The Dark Stranger (Крис Требилкок) [2015, мультфильм, ужасы, триллер, драма, WEB-DL 1080p] через torrent

 
 
Автор Сообщение

Galfimbul

avatar Galfimbul


Темный странник /The Dark Stranger

Год выхода: 2015
Жанр: мультфильм, ужасы, триллер, драма
Режиссер: Крис Требилкок
В ролях: Кэти Финдлей, Стивен МакХэтти, Энрико Колантони, Дженнифер Дэйл, Марк О’Брайэн, Алекс Озеров, Эмма Кэмпбелл

О фильме:
Преследуемая страшным духом из ее графического романа, молодая художница изо всех сил пытается преодолеть свой психоз, прежде чем он разрушит ее.



Страна: Канада
Студия: Devonshire Productions, Prodigy Pictures, Viddywell Films, Vigilante Productions
Продолжительность: 01:29:44
Перевод: Любительский (одноголосый закадровый) [Хихикающий доктор]

Файл
Кодек: h264
Качество: WEB-DL 1080p
Видео: 1916x1036 (1.85:1), 5006 kbps, 23,976 fps
Звук: Russian: MP3, 2 ch, 44.1 KHz, 192 kbps
English: AC3, 6 ch, 48 kHz, 384 kbps
Субтитры: английские (UTF-8)

Семпл
General
Unique ID : 227603292037771957438487683156853062610 (0xAB3ACCAFCFA9DAB0BA0060B95B62FBD2)
Complete name : H:Темный странник.2015.WEB-DL.1080p.VO.mkv
Format : Matroska
Format version : Version 4 / Version 2
File size : 3.57 GiB
Duration : 1h 29mn
Overall bit rate : 5 695 Kbps
Movie name : The.Dark.Stranger.2015.1080p.WEB-DL.DD5.1.H264-FGT
Encoded date : UTC 2017-06-19 00:13:03
Writing application : mkvmerge v6.8.0 ('Theme for Great Cities') 32bit built on Mar 2 2014 21:27:07
Writing library : libebml v1.3.0 + libmatroska v1.4.1
Attachment : Yes / Yes / Yes / Yes

Video
ID : 1
Format : AVC
Format/Info : Advanced Video Codec
Format profile : [email protected]
Format settings, CABAC : Yes
Format settings, ReFrames : 4 frames
Codec ID : V_MPEG4/ISO/AVC
Duration : 1h 29mn
Bit rate : 5 006 Kbps
Width : 1 916 pixels
Height : 1 036 pixels
Display aspect ratio : 1.85:1
Frame rate mode : Constant
Frame rate : 23.976 fps
Color space : YUV
Chroma subsampling : 4:2:0
Bit depth : 8 bits
Scan type : Progressive
Bits/(Pixel*Frame) : 0.105
Stream size : 3.14 GiB (88%)
Language : English
Default : Yes
Forced : No
Color primaries : BT.709
Transfer characteristics : BT.709
Matrix coefficients : BT.709

Audio #1
ID : 2
Format : MPEG Audio
Format version : Version 1
Format profile : Layer 3
Codec ID : A_MPEG/L3
Codec ID/Hint : MP3
Duration : 1h 29mn
Bit rate mode : Constant
Bit rate : 192 Kbps
Channel(s) : 2 channels
Sampling rate : 44.1 KHz
Compression mode : Lossy
Stream size : 123 MiB (3%)
Title : VO (Xixidok)
Language : Russian
Default : Yes
Forced : No

Audio #2
ID : 3
Format : AC-3
Format/Info : Audio Coding 3
Mode extension : CM (complete main)
Format settings, Endianness : Big
Codec ID : A_AC3
Duration : 1h 29mn
Bit rate mode : Constant
Bit rate : 384 Kbps
Channel(s) : 6 channels
Channel positions : Front: L C R, Side: L R, LFE
Sampling rate : 48.0 KHz
Bit depth : 16 bits
Compression mode : Lossy
Stream size : 246 MiB (7%)
Language : English
Default : No
Forced : No

Text
ID : 4
Format : UTF-8
Codec ID : S_TEXT/UTF8
Codec ID/Info : UTF-8 Plain Text
Language : English
Default : No
Forced : No

Menu
00:00:00.000 : en:Chapter 01
00:07:27.238 : en:Chapter 02
00:15:46.779 : en:Chapter 03
00:23:58.896 : en:Chapter 04
00:32:59.811 : en:Chapter 05
00:41:38.204 : en:Chapter 06
00:49:41.145 : en:Chapter 07
00:55:17.397 : en:Chapter 08
01:01:10.792 : en:Chapter 09
01:11:18.941 : en:Chapter 10
01:22:21.561 : en:Chapter 11
01:26:55.960 : en:Chapter 12


Внимание! AdBlock блокирует показ скриншотов, все вопросы к разработчикам )))
Трекер:  [ 20-Июн-2017 05:30 ]

  

Скачать .torrent

Размер .torrent файла 18 KB


Размер: 3.57 GB
Хэш (hash) релиза: b2d745c244d3c372651804fa3f9e7d88c21bd88a
Подписка на обновления:

Еще никто не оставлял запись к записи скачать торрент Темный странник The Dark Stranger . Будь первым!

!Обратная связь