Скачать через торрент Поляндия PolandJa Фильм бесплатно в хорошем качестве torrent

Скачивайте на UnionPeer.org фильмы через торрент без регистрации. Новинки кино в хорошем качестве через торрент. На UnionPeer.org можно скачать через торрент фильмы 2014 и 2015 годов. Самые новые фильмы.

Скачать торрент Поляндия PolandJa бесплатно через .torrent фильм мультфильм сериал

Статистика раздачи
Размер:  699 MB   |    Зарегистрирован:  6 лет 11 месяцев   |    .torrent скачан:  66 раз   |   
Раздают:  1  
 

Скачать Поляндия / PolandJa (Киприан Оленцкий / Cyprian T. Olencki) [2017, Польша, драма, комедия, WEB-DLRip] Sub Rus (Professor) + Original Pol через torrent

 
 
Автор Сообщение

Galfimbul

avatar Galfimbul


Поляндия / PolandJa

Страна: Польша
Жанр: драма, комедия
Год выпуска: 2017
Продолжительность: 01:39:28Перевод: Субтитры Professor при помощи Bohdk
Субтитры: русские
Оригинальная аудиодорожка: польскийРежиссер: Киприан Оленцкий / Cyprian T. OlenckiВ ролях: Изабела Куна, Гжегош Малецкий, Якуб Гершал, Павел Домогала, Марек Буковский, Михал ЖуравскийОписание: Несколько не особо связанных между собой историй, происходящих с героями фильма в течение 24 часов.Доп. информация: ВНИМАНИЕ. НЕНОРМАТИВНАЯ ЛЕКСИКА.
Сэмпл: http://multi-up.com/1158912

Качество видео: WEB-DLRip
Формат видео: AVI

Видео: Xvid, 720x304, 2.35:1, 25.000 FPS, 837 kb/s
Аудио: MP3, 48.0 kHz, 128 kb/s, 2 channels
Формат субтитров: softsub (SRT)
General
Complete name : PolandJa.2017.VODRip.Xvid.avi
Format : AVI
Format/Info : Audio Video Interleave
File size : 699 MiB
Duration : 1 h 39 min
Overall bit rate : 983 kb/s

Video
ID : 0
Format : MPEG-4 Visual
Format profile : Advanced Simple@L5
Format settings, BVOP : 2
Format settings, QPel : No
Format settings, GMC : No warppoints
Format settings, Matrix : Default (H.263)
Codec ID : XVID
Codec ID/Hint : XviD
Duration : 1 h 39 min
Bit rate : 837 kb/s
Width : 720 pixels
Height : 304 pixels
Display aspect ratio : 2.35:1
Frame rate : 25.000 FPS
Color space : YUV
Chroma subsampling : 4:2:0
Bit depth : 8 bits
Scan type : Progressive
Compression mode : Lossy
Bits/(Pixel*Frame) : 0.153
Stream size : 596 MiB (85%)
Writing library : XviD 64

Audio
ID : 1
Format : MPEG Audio
Format version : Version 1
Format profile : Layer 3
Codec ID : 55
Codec ID/Hint : MP3
Duration : 1 h 39 min
Source duration : 1 h 39 min
Bit rate mode : Constant
Bit rate : 128 kb/s
Channel(s) : 2 channels
Sampling rate : 48.0 kHz
Compression mode : Lossy
Stream size : 91.1 MiB (13%)
Alignment : Split accross interleaves
Interleave, duration : 24 ms (0.60 video frame)
Writing library : LAME
70
00:07:37,600 --> 00:07:41,630
Артур, Артур!
Деточка, вставай, змея!

71
00:07:41,630 --> 00:07:43,800
- Змея! Жуткая, гадина!
- Что?

72
00:07:43,800 --> 00:07:47,100
- Быстрее! Она может сейчас сюда придти.
- Как это придти?

73
00:07:47,100 --> 00:07:49,630
- Змея?
- Как... не знаю, как.

74
00:07:49,630 --> 00:07:51,970
Обычно. Привлечет что-нибудь.

75
00:07:51,970 --> 00:07:53,970
Какая змея, мама?

76
00:07:53,970 --> 00:07:56,330
Ядовитая, дикая, огромная, сынок.

77
00:07:56,410 --> 00:07:58,240
Надо как-то избавиться от нее.

78
00:07:58,240 --> 00:07:59,700
Хоть раз в жизни
меня послушай.

79
00:07:59,700 --> 00:08:02,040
Откуда змее взяться?

80
00:08:02,040 --> 00:08:04,040
- Из стиральной машины вылезла.
- Из стиральной машины?

81
00:08:04,140 --> 00:08:05,770
Из стиралки, говорю же.

82
00:08:05,770 --> 00:08:08,370
Я ее включила, потому что хотела
постирать, открыла дверку...

83
00:08:08,370 --> 00:08:10,660
Слышу - шипение.
Смотрю - змея!

84
00:08:10,660 --> 00:08:14,050
Глазюки страшные,
вытаращенные, выпученные...

85
00:08:14,050 --> 00:08:17,690
...язык вот так болтается,
и сразу на меня пошла, а я - назад.

86
00:08:17,690 --> 00:08:19,690
Змеи не ходят, мама.


Внимание! AdBlock блокирует показ скриншотов, все вопросы к разработчикам )))

Трекер:  [ 25-Июн-2017 12:30 ]

  

Скачать .torrent

Размер .torrent файла 28 KB


Размер: 699 MB
Хэш (hash) релиза: e6c20f7911c0d929e13b02e47cac64dc51be83cd
Подписка на обновления:

Торренты, похожие на Поляндия PolandJa скачать торрент

Форум Название Автор Размер S L Добавлен
Зарубежные фильмы 2016-2019 (Новинки зарубежного кино) ·· Поляндия / PolandJa (Киприан Оленцкий / Cyprian T. Olencki) [2017, Польша, драма, комедия, HDTVRip 720p] Galfimbul 27950236642.6 GB 0 0 1518067868

08:31

8-Фев-18

Еще никто не оставлял запись к записи скачать торрент Поляндия PolandJa . Будь первым!

!Обратная связь