Beauty and the Beast torrent

UnionPeer.org . . UnionPeer.org 2014 2015 . .

Beauty and the Beast .torrent

11.24 GB   |    :  6 8    |    .torrent :  95    |   
1  
   
 

Galfimbul

avatar Galfimbul


/ Beauty and the Beast

:
: , , ,
: 2017
: 02:09:16

: ()
: ,
: : / Bill Condon : , , , , , , , , , : , , . , , . , , , . . , . , . . : BDRip
: MKV

: 1920x804, 23.976 fps, 10300 /
1: Dolby Digital Audio Russian 640 kbps 5.1 / 48 kHz / 640 kbps
2: English: 48 kHz, DTS, 3/2 (L,C,R,l,r) + LFE ch, ~1509.00 kbps avg
<div class="q-wrap">
<div class="q-head"><b>:</b></div>
<div class="q">

Blu-ray.

</div>
</div>
Format : Matroska
Format version : Version 4 / Version 2
File size : 11.2 GiB
Duration : 2 h 9 min
Overall bit rate : 12.5 Mb/s
Movie name : Beauty.and.the.Beast.(2017).BDRip.1080p.(qqss44)
Encoded date : UTC 2017-06-25 14:46:56
Writing application : mkvmerge v8.0.0 ('Til The Day That I Die') 64bit
Writing library : libebml v1.3.1 + libmatroska v1.4.2

Video
ID : 1
Format : AVC
Format/Info : Advanced Video Codec
Format profile : [email protected]
Format settings, CABAC : Yes
Format settings, ReFrames : 5 frames
Codec ID : V_MPEG4/ISO/AVC
Duration : 2 h 9 min
Bit rate : 10.3 Mb/s
Width : 1 920 pixels
Height : 804 pixels
Display aspect ratio : 2.40:1
Frame rate mode : Constant
Frame rate : 23.976 (24000/1001) FPS
Color space : YUV
Chroma subsampling : 4:2:0
Bit depth : 8 bits
Scan type : Progressive
Bits/(Pixel*Frame) : 0.278
Stream size : 9.30 GiB (83%)
Writing library : x264 core 148 r2744kMod b97ae06
Encoding settings : cabac=1 / ref=5 / deblock=1:-3:-3 / analyse=0x3:0x113 / me=umh / subme=11 / psy=1 / fade_compensate=0.00 / psy_rd=1.00:0.00 / mixed_ref=1 / me_range=32 / chroma_me=1 / trellis=2 / 8x8dct=1 / cqm=0 / deadzone=21,11 / fast_pskip=0 / chroma_qp_offset=-2 / threads=12 / lookahead_threads=2 / sliced_threads=0 / nr=0 / decimate=0 / interlaced=0 / bluray_compat=0 / constrained_intra=0 / bframes=9 / b_pyramid=2 / b_adapt=2 / b_bias=0 / direct=3 / weightb=1 / open_gop=0 / weightp=2 / keyint=240 / keyint_min=23 / scenecut=40 / intra_refresh=0 / rc=2pass / mbtree=0 / bitrate=10300 / ratetol=1.0 / qcomp=0.69 / qpmin=0 / qpmax=69 / qpstep=4 / cplxblur=20.0 / qblur=0.5 / ip_ratio=1.40 / pb_ratio=1.30 / aq=3:0.80
Language : English
Default : Yes
Forced : No

Audio #1
ID : 2
Format : AC-3
Format/Info : Audio Coding 3
Format settings, Endianness : Big
Codec ID : A_AC3
Duration : 2 h 9 min
Bit rate mode : Constant
Bit rate : 640 kb/s
Channel(s) : 6 channels
Channel positions : Front: L C R, Side: L R, LFE
Sampling rate : 48.0 kHz
Frame rate : 31.250 FPS (1536 spf)
Bit depth : 16 bits
Compression mode : Lossy
Stream size : 592 MiB (5%)
Title : Dub bLicenseB
Language : Russian
Service kind : Complete Main
Default : Yes
Forced : No

Audio #2
ID : 3
Format : DTS
Format/Info : Digital Theater Systems
Mode : 16
Format settings, Endianness : Big
Codec ID : A_DTS
Duration : 2 h 9 min
Bit rate mode : Constant
Bit rate : 1 509 kb/s
Channel(s) : 6 channels
Channel positions : Front: L C R, Side: L R, LFE
Sampling rate : 48.0 kHz
Frame rate : 93.750 FPS (512 spf)
Bit depth : 24 bits
Compression mode : Lossy
Stream size : 1.36 GiB (12%)
Language : English
Default : No
Forced : No

Text #1
ID : 4
Format : UTF-8
Codec ID : S_TEXT/UTF8
Codec ID/Info : UTF-8 Plain Text
Duration : 2 h 1 min
Bit rate : 77 b/s
Count of elements : 1596
Stream size : 69.4 KiB (0%)
Title : Full
Language : Russian
Default : No
Forced : No

Text #2
ID : 5
Format : UTF-8
Codec ID : S_TEXT/UTF8
Codec ID/Info : UTF-8 Plain Text
Duration : 2 h 8 min
Bit rate : 47 b/s
Count of elements : 1776
Stream size : 44.5 KiB (0%)
Title : Full
Language : English
Default : No
Forced : No

Text #3
ID : 6
Format : UTF-8
Codec ID : S_TEXT/UTF8
Codec ID/Info : UTF-8 Plain Text
Duration : 2 h 8 min
Bit rate : 48 b/s
Count of elements : 1778
Stream size : 45.0 KiB (0%)
Title : SDH
Language : English
Default : No
Forced : No

Menu
00:00:00.000 : en:Chapter 01
00:04:36.276 : en:Chapter 02
00:08:06.527 : en:Chapter 03
00:11:18.260 : en:Chapter 04
00:15:21.545 : en:Chapter 05
00:18:57.386 : en:Chapter 06
00:25:05.921 : en:Chapter 07
00:31:41.566 : en:Chapter 08
00:36:08.708 : en:Chapter 09
00:42:32.258 : en:Chapter 10
00:47:01.318 : en:Chapter 11
00:54:44.990 : en:Chapter 12
01:00:43.556 : en:Chapter 13
01:07:40.931 : en:Chapter 14
01:14:38.223 : en:Chapter 15
01:19:43.695 : en:Chapter 16
01:22:02.751 : en:Chapter 17
01:28:53.369 : en:Chapter 18
01:34:01.302 : en:Chapter 19
01:38:10.175 : en:Chapter 20
01:45:23.692 : en:Chapter 21
01:49:13.964 : en:Chapter 22
01:55:54.197 : en:Chapter 23
01:58:49.497 : en:Chapter 24


! AdBlock , )))
 ·  , , FAQ-
:  [ 27--2017 16:30 ]

  

.torrent

.torrent 56 KB


: 11.24 GB
(hash) : 8222cbe9833854ef3c2eb08178375de64d487682
:
··
...

, Beauty and the Beast

S L
2016 ··  / Beauty And The Beast ( /Gary Trousdale, /Kirk Wise) [1991 ., ////, DVD9] : ., , Alex0181 79992033287.45 GB 0 0 1293315603

01:20

26--10

2016-2019 ( ) ··  / Beauty and the Beast (2017) UHD BDRemux 2160p | 4K | HDR | D, A Galfimbul 6258619381258.29 GB 0 0 1582960809

10:20

29--20

2016-2019 ( ) ··  / Beauty and the Beast (2017) UHD BDRemux 2160p | 4K | HDR | Galfimbul 5352816495349.85 GB 0 0 1582924258

00:10

29--20

2016-2019 ( ) ·%·  / Beauty and the Beast (2017) WEBRip 1080p | D | Open Matte | Galfimbul 56441490915.26 GB 2 0 1571159408

20:10

15--19

2016-2019 ( ) ·%·  / Beauty and the Beast (2017) BDRip-HEVC 1080p | Galfimbul 87947636108.19 GB 0 0 1552795207

07:00

17--19

2016 ·%·  / Beauty and the Beast ( / Bill Condon) [2017, , , , , , DVD5 ()] . R5, Dub + Sub Rus + Original Eng Galfimbul 46933422084.37 GB 0 0 1531252913

23:01

10--18

2016 ··  / Beauty and the Beast ( / Bill Condon) [2017, , , , , , DVD9] R5 Dub + Sub Rus + Original Eng Galfimbul 71863336966.69 GB 0 0 1524753040

17:30

26--18

2016 ··  / Beauty And The Beast ( / Gary Trousdale, / Kirk Wise) [1991, , , , , , DVD9] , , Galfimbul 68908994566.42 GB 0 0 1507522011

07:06

9--17

··  / Beauty and the Beast ( ) [2017, | | | , BDRip 720p] Galfimbul 25777464972.4 GB 0 0 1504510662

10:37

4--17

2016-2019 ( ) ··  / Beauty and the Beast ( / Bill Condon) [2017, , , , , , BDRip] AVO () Galfimbul 23504199682.19 GB 0 0 1503849726

19:02

27--17

2016-2019 ( ) ··  / Beauty and the Beast ( / Bill Condon) [2017, , , , , BDRip-AVC] Dub + Original (eng) + Sub (rus, eng) Galfimbul 31816690402.96 GB 0 0 1498410075

20:01

25--17

2016 ··  / Beauty and the Beast ( / Bill Condon) [2017, , , , , , Blu-ray disc 1080p] [EUR] Dub + Sub Rus, Eng + Original Eng Galfimbul 4496913584041.88 GB 0 0 1498405174

18:39

25--17

2016-2019 ( ) ··  / Beauty and the Beast ( / Bill Condon) [2017, , , , , BDRip-AVC] Dub Galfimbul 16026179371.49 GB 0 0 1498401037

17:30

25--17

2016-2019 ( ) ··  / Beauty and the Beast ( / Bill Condon) [2017, , , , , BDRip-AVC] Dub Galfimbul 782287988746 MB 0 0 1498401030

17:30

25--17

2016-2019 ( ) ··  / Beauty and the Beast ( / Bill Condon) [2017, , , , , , BDRip] Dub + Sub Rus, Eng + Original Eng Galfimbul 23489765242.19 GB 0 0 1497447028

16:30

14--17

2016-2019 ( ) ··  / Beauty and the Beast ( ) [2017 ., , , , , HDRip] iTunes Galfimbul 15533137921.45 GB 0 0 1497344430

12:00

13--17

2016-2019 ( ) ··  / Beauty and the Beast ( ) [2017 ., , , , , HDRip] iTunes Galfimbul 834490368796 MB 0 0 1497344422

12:00

13--17

2016-2019 ( ) ··  / Beauty and the Beast ( ) [2017, , , , , BDRip 1080p] [iTunes] Galfimbul 87515480988.15 GB 0 0 1497269488

15:11

12--17

··  / Beauty and the Beast / : 1 / : 1-14 (?) ( ) [2012, , , , WEB-DLRip] DVO (NewStudio) Galfimbul 80741191687.52 GB 0 0 1496945735

21:15

8--17

Beauty and the Beast . !

!