Скачать через торрент Ночная смена The Night Shift Фильм бесплатно в хорошем качестве torrent

Скачивайте на UnionPeer.org фильмы через торрент без регистрации. Новинки кино в хорошем качестве через торрент. На UnionPeer.org можно скачать через торрент фильмы 2014 и 2015 годов. Самые новые фильмы.

Скачать торрент Ночная смена The Night Shift бесплатно через .torrent фильм мультфильм сериал

Статистика раздачи
Размер:  530 MB   |    Зарегистрирован:  2 года 1 месяц   |    .torrent скачан:  47 раз   |   
Раздают:  1  
   
загрузка...
 
Автор Сообщение

Galfimbul

avatar Galfimbul


Ночная смена / The Night Shift

Год выпуска: 2017
Страна: США
Жанр: драма
Продолжительность: 00:42:00

Перевод: Профессиональный (двухголосый закадровый) [Gears Media]

Создатель: Джефф Джуда, Гейб Сакс / Jeff Judah, Gabe Sachs

В ролях: Оуэн Мэкен, Фредди Родригес, Джилл Флинт, Кен Люн, Роберт Бэйли мл., Брендан Фер, Джинэнн Гуссен, ДжейАр Лемон и др.

Описание: Бывшие армейские врачи работают в отделении экстренной помощи города Сан Антонио. На спасение пациентов порой отпущены считанные секунды, и за это время докторам предстоит применить все свои полученные на поле боя навыки, чтобы сразиться с последним врагом - смертью.

Ссылка на предыдущие и альтернативные раздачи:

Сэмпл: http://multi-up.com/1159553

Качество: HDTVRip
Формат: AVI
Видео: XviD, 720x400 at 23.976 fps, ~1500 kbps avg
Аудио1: Russian, MP3, 48 kHz, 2 ch, 128 kbps
Аудио2: English, MP3, 48 kHz, 2 ch, 128 kbps
Субтитры: нет
Реклама: аудио (два раза, в начале и конце, по 12 сек.)
Format : AVI
Format/Info : Audio Video Interleave
File size : 530 MiB
Duration : 41 min 45 s
Overall bit rate : 1 775 kb/s
Writing application : Lavf56.30.100

Video
ID : 0
Format : xvid
Codec ID : xvid
Duration : 41 min 45 s
Bit rate : 1 499 kb/s
Width : 720 pixels
Height : 400 pixels
Display aspect ratio : 16:9
Frame rate : 23.976 (24000/1001) FPS
Scan type : Progressive
Bits/(Pixel*Frame) : 0.217
Stream size : 448 MiB (84%)

Audio #1
ID : 1
Format : MPEG Audio
Format version : Version 1
Format profile : Layer 3
Mode : Joint stereo
Mode extension : MS Stereo
Codec ID : 55
Codec ID/Hint : MP3
Duration : 41 min 45 s
Bit rate mode : Constant
Bit rate : 128 kb/s
Channel(s) : 2 channels
Sampling rate : 48.0 kHz
Compression mode : Lossy
Stream size : 38.2 MiB (7%)
Alignment : Aligned on interleaves
Interleave, duration : 24 ms (0.58 video frame)
Interleave, preload duratio : 24 ms
Title : Gears Media

Audio #2
ID : 2
Format : MPEG Audio
Format version : Version 1
Format profile : Layer 3
Mode : Joint stereo
Mode extension : MS Stereo
Codec ID : 55
Codec ID/Hint : MP3
Duration : 41 min 45 s
Bit rate mode : Constant
Bit rate : 128 kb/s
Channel(s) : 2 channels
Sampling rate : 48.0 kHz
Compression mode : Lossy
Stream size : 38.2 MiB (7%)
Alignment : Aligned on interleaves
Interleave, duration : 24 ms (0.58 video frame)
Interleave, preload duratio : 24 ms
Внимание! Раздача ведётся путём добавления новых серий; при каждом добавлении создётся новый торрент. Чтобы начать докачку новой серии, пользователям необходимо сделать следующее:
(1) остановить скачивание,
(2) удалить старый торрент у себя из клиента (старые серии удалять не надо),
(3) скачать новый торрент и запустить его у себя в клиенте вместо старого, при этом указать клиенту путь в старую папку куда и должно происходить скачивание новых серий.

Ваш клиент при этом должен произвести хеширование (проверку) старой папки (если не производит сам - помогите ему сделать это), и будет докачивать только те серии которых у вас ещё нет. Старые серии при этом не удаляются, а продолжают раздаваться!

Eсли вы уже удалили старые серии, то предотвратить повторную закачку старых серий можно, отжав галочку в соответсвующих местах при запуске нового торрента. По возможности, желательно не удалять старые серии как можно дольше чтобы релизёр не столько продолжал раздавать старые серии, а смог сконцентрироваться на новых.


Трекер:  [ 28-Июн-2017 23:48 ]

  

Скачать .torrent

Размер .torrent файла 11 KB


Размер: 530 MB
Хэш (hash) релиза: c24e80bda8b00e9d519a3f4fb6bc46e19cc3589a
Подписка на обновления:

Торренты, похожие на Ночная смена The Night Shift скачать торрент

Форум Название Автор Размер S L Добавлен
Зарубежные сериалы ·· Ночная смена / The Night Shift / Сезон: 4 / Серии: 1 из 10 (Джефф Джуда, Гейб Сакс / Jeff Judah, Gabe Sachs) [2017, США, драма, HDTV 720p] DVO (Gears Media) + Original Galfimbul 10545600321006 MB 0 0 1498647290

13:54

28-Июн-17

Еще никто не оставлял запись к записи скачать торрент Ночная смена The Night Shift . Будь первым!

!Обратная связь