Скачать через торрент Окча Okja Фильм бесплатно в хорошем качестве torrent

Скачивайте на UnionPeer.org фильмы через торрент без регистрации. Новинки кино в хорошем качестве через торрент. На UnionPeer.org можно скачать через торрент фильмы 2014 и 2015 годов. Самые новые фильмы.

Скачать торрент Окча Okja бесплатно через .torrent фильм мультфильм сериал

Статистика раздачи
Размер:  1.78 GB   |    Зарегистрирован:  6 лет 7 месяцев   |    .torrent скачан:  109 раз   |   
Раздают:  1  
 

Скачать Окча / Okja (Пон Джун-хо / Bong Joon-ho) [2017, США, Фантастика, боевик, драма, приключения, WEBRip] VO (BadBajo) + Original (Eng) + Subs (Rus, Eng) через torrent

 
 
Автор Сообщение

Galfimbul

avatar Galfimbul


Окча / Okja
Год выхода: 2017
Выпущено: США, Корея Южная / Plan B Entertainment
Жанр: фантастика, боевик, драма, приключения
Продолжительность: 02:01:20
Перевод: Одноголосый закадровый BadBajo
Субтитры: Русские (полные - Сергей Довгаль), Английские (внешние .srt*)
Оригинальная аудиодорожка: АнглийскаяРежиссер:
Пон Джун-хо / Bong Joon-hoВ ролях:
Тильда Суинтон, Джейк Джилленхол, Пол Дано, Джанкарло Эспозито, Лили Коллинз, Ан Со-хён, Юн Джэ-мун, Стивен Юн, Дэниэл Хеншэлл, Девон БостикО фильме:
Корпорация «Мирандо» создала необычных поросят и раздала их фермерам по всему миру. На протяжении десяти лет гигантская экспериментальная свинья Окча была лучшим другом девочки Ми-джа, они мирно жили в южнокорейских горах и заботились друг о друге. Но в один ужасный день идиллическая жизнь друзей прервалась — корпорация забрала свою собственнсть. У стервозной генеральной директрисы Люси Мирандо свои, не самые гуманные, планы на необычного зверя. Конечно же, храбрая девочка не бросит друга в беде, и Ми-джа отправляется спасать Окчу, но мир оказывается намного безумней, чем она могла себе представить.Релиз групп | | IMDB | КиноПоиск | Сэмпл |Качество: WEBRip [Okja.2017.1080p.WEBRip.x264-STRiFE]
Формат: AVI

Видео: 720x304 (2.37:1), 24.000 fps, XviD build 67 ~1325 kbps avg, 0.25 bit/pixel
Аудио #1: 48 kHz, AC3 Dolby Digital, 3/2 (L,C,R,l,r) + LFE ch, ~384 kbps avg (RUS)
Аудио #2: 48 kHz, AC3 Dolby Digital, 3/2 (L,C,R,l,r) + LFE ch, ~384 kbps avg (ENG) отдельно
Общее
Полное имя                               : D:\Okja_2017_WEBRip_VO_by_Dalemake.avi
Формат                                   : AVI
Формат/Информация                        : Audio Video Interleave
Размер файла                             : 1,46 Гбайт
Продолжительность                        : 2 ч. 1 м.
Общий поток                              : 1719 Кбит/сек
Программа кодирования                    : VirtualDubMod 1.5.10.3 | www.virtualdub-fr.org || (build 2550/release)
Библиотека кодирования                   : VirtualDubMod build 2550/release

Видео
Идентификатор                            : 0
Формат                                   : MPEG-4 Visual
Профиль формата                          : Advanced Simple@L5
Параметр BVOP формата                    : 1
Параметр QPel формата                    : Нет
Параметр GMC формата                     : Без точки перехода
Параметр матрицы формата                 : Выборочная
Идентификатор кодека                     : XVID
Идентификатор кодека/Подсказка           : XviD
Продолжительность                        : 2 ч. 1 м.
Битрейт                                  : 1326 Кбит/сек
Ширина                                   : 720 пикселей
Высота                                   : 304 пикселя
Соотношение сторон                       : 2,35:1
Частота кадров                           : 24,000 кадра/сек
Цветовое пространство                    : YUV
Субдискретизация насыщенности            : 4:2:0
Битовая глубина                          : 8 бит
Тип развёртки                            : Прогрессивная
Метод сжатия                             : С потерями
Бит/(Пиксели*Кадры)                      : 0.252
Размер потока                            : 1,12 Гбайт (77%)
Библиотека кодирования                   : XviD 67

Аудио
Идентификатор                            : 1
Формат                                   : AC-3
Формат/Информация                        : Audio Coding 3
Расширение режима                        : CM (complete main)
Параметр Endianness формата              : Big
Идентификатор кодека                     : 2000
Продолжительность                        : 2 ч. 1 м.
Вид битрейта                             : Постоянный
Битрейт                                  : 384 Кбит/сек
Каналы                                   : 6 каналов
Расположение каналов                     : Front: L C R, Side: L R, LFE
Частота                                  : 48,0 КГц
Битовая глубина                          : 16 бит
Метод сжатия                             : С потерями
Размер потока                            : 333 Мбайт (22%)
Выравнивание                             : Разделение по промежуткам
Продолжительность промежутка             : 42  мс. (1,00 видеокадр)
Время предзагрузки промежутка            : 500  мс.
При появлении проф. перевода рип будет перезалит!

Внимание! AdBlock блокирует показ скриншотов, все вопросы к разработчикам )))
Трекер:  [ 29-Июн-2017 23:30 ]

  

Скачать .torrent

Размер .torrent файла 18 KB


Размер: 1.78 GB
Хэш (hash) релиза: 5daa8a298933eb8da3094a04af0db200063e8859
Подписка на обновления:

Торренты, похожие на Окча Okja скачать торрент

Форум Название Автор Размер S L Добавлен
Зарубежные фильмы 2016-2019 (Новинки зарубежного кино) ·· Окча / Okja (2017) WEBRip от Generalfilm | КПК Galfimbul 483815801461 MB 0 0 1583175008

21:50

2-Мар-20

Зарубежные фильмы 2016-2019 (Новинки зарубежного кино) ·· Окча / Okja (Пон Джун-хо / Bong Joon-ho) [2017, США, Корея Южная, боевик, драма, приключения, WEBPip] MVO (AlexFilm) Galfimbul 15594127361.45 GB 0 0 1500296488

16:01

17-Июл-17

Зарубежные фильмы 2016-2019 (Новинки зарубежного кино) ·· Окча / Okja (Пон Чжун-о / Bong Joon-ho) [2017, США, Южная Корея, Драма, WEBRip 1080p] Galfimbul 70669743276.58 GB 0 0 1499935216

11:40

13-Июл-17

Зарубежные фильмы 2016-2019 (Новинки зарубежного кино) ·· Окча / Okja (Пон Чжун-о / Bong Joon-ho) [2017, США, Южная Корея, Драма, WEB-DLRip] DVO (Колобок) Galfimbul 26557296972.47 GB 0 0 1499328072

11:01

6-Июл-17

Зарубежные фильмы 2016-2019 (Новинки зарубежного кино) ·· Окча / Okja (Пон Джун-хо) [2017, фантастика, боевик, драма, приключения, WEBRip] Galfimbul 23337623242.17 GB 0 0 1498886432

08:20

1-Июл-17

Зарубежные фильмы 2016-2019 (Новинки зарубежного кино) ·· Окча / Okja (Пон Джун-хо) [2017, фантастика, боевик, драма, приключения, WEBRip 720p] Sub Galfimbul 28307012352.64 GB 0 0 1498722650

10:50

29-Июн-17

Еще никто не оставлял запись к записи скачать торрент Окча Okja . Будь первым!

!Обратная связь