Скачать через торрент Вымогательство Extortion Фильм бесплатно в хорошем качестве torrent

Скачивайте на UnionPeer.org фильмы через торрент без регистрации. Новинки кино в хорошем качестве через торрент. На UnionPeer.org можно скачать через торрент фильмы 2014 и 2015 годов. Самые новые фильмы.

Скачать торрент Вымогательство Extortion бесплатно через .torrent фильм мультфильм сериал

Статистика раздачи
Размер:  6.1 GB   |    Зарегистрирован:  6 лет 7 месяцев   |    .torrent скачан:  28 раз   |   
Раздают:  1  
 

Скачать Вымогательство / Extortion (Филипп Волкен / Phil Volken) [2017, США, Пуэрто-Рико, боевик, триллер, BDRip 720p] MVO ("Paradox" & Omskbird records) + Sub Rus, Eng + Original Eng через torrent

 
 
Автор Сообщение

Galfimbul

avatar Galfimbul


Вымогательство / Extortion

Страна: США, Пуэрто-Рико
Студия: Filmmuse Productions, Producer Capital Fund
Жанр: Боевик, триллер
Год выпуска: 2017
Продолжительность: 01:49:32

Перевод: Любительский (многоголосый закадровый) "Paradox" & Omskbird records
Субтитры: Rus, Eng
Оригинальная аудиодорожка: английский

Режиссер: Филипп Волкен / Phil Volken

В ролях: Эйон Бэйли, Бетани Джой Ленц, Баркхад Абди, Дэнни Гловер, Тим Гриффин, Джек Уоллес, Элид Барриос

Описание: Счастливая семья отправляется отдыхать на Карибы, но вскоре их поездка превращается в сущий кошмар. После несчастного случая главному герою придётся бежать наперегонки со временем, чтобы спасти своих жену и сына.



Тип релиза: BDRip 720p
Контейнер: MKV

Видео: MPEG-4 AVC, 6945 Кбит/с, 1280x536, 23,976 fps
Аудио: Rus, AC3, 384 kb/s (6 ch), 48 kHz
Аудио 2: Eng, AC3, 640 kb/s (6 ch), 48 kHz
Формат субтитров: softsub (SRT)
Format : Matroska
Format version : Version 4 / Version 2
File size : 6.10 GiB
Duration : 1 h 49 min
Overall bit rate : 7 966 kb/s
Movie name : Вымогательство. (Tonik)
Encoded date : UTC 2017-07-02 14:31:24
Writing application : mkvmerge v7.1.0 ('Good Love') 64bit built on Jul 27 2014 13:06:55
Writing library : libebml v1.3.0 + libmatroska v1.4.1

Video
ID : 1
Format : AVC
Format/Info : Advanced Video Codec
Format profile : [email protected]
Format settings, CABAC : Yes
Format settings, ReFrames : 12 frames
Codec ID : V_MPEG4/ISO/AVC
Duration : 1 h 49 min
Bit rate : 6 945 kb/s
Width : 1 280 pixels
Height : 536 pixels
Display aspect ratio : 2.40:1
Frame rate mode : Constant
Frame rate : 23.976 (24000/1001) FPS
Color space : YUV
Chroma subsampling : 4:2:0
Bit depth : 8 bits
Scan type : Progressive
Bits/(Pixel*Frame) : 0.422
Stream size : 5.31 GiB (87%)
Writing library : x264 core 148 r2744kMod b97ae06
Encoding settings : cabac=1 / ref=12 / deblock=1:-3:-3 / analyse=0x3:0x133 / me=umh / subme=10 / psy=1 / fade_compensate=0.00 / psy_rd=0.96:0.00 / mixed_ref=1 / me_range=32 / chroma_me=1 / trellis=2 / 8x8dct=1 / cqm=0 / deadzone=21,11 / fast_pskip=1 / chroma_qp_offset=-2 / threads=6 / lookahead_threads=1 / sliced_threads=0 / nr=0 / decimate=1 / interlaced=0 / bluray_compat=0 / constrained_intra=0 / bframes=7 / b_pyramid=2 / b_adapt=2 / b_bias=0 / direct=3 / weightb=1 / open_gop=0 / weightp=2 / keyint=250 / keyint_min=23 / scenecut=40 / intra_refresh=0 / rc=crf / mbtree=0 / crf=16.3000 / qcomp=0.74 / qpmin=0 / qpmax=69 / qpstep=4 / ip_ratio=1.25 / pb_ratio=1.24 / aq=3:0.73 / zones=10,154,crf=12.0/66737,67181,crf=12.0/71101,71216,crf=12.0/80044,80112,crf=12.0
Language : English
Default : Yes
Forced : No

Audio #1
ID : 2
Format : AC-3
Format/Info : Audio Coding 3
Format settings, Endianness : Big
Codec ID : A_AC3
Duration : 1 h 49 min
Bit rate mode : Constant
Bit rate : 384 kb/s
Channel(s) : 6 channels
Channel positions : Front: L C R, Side: L R, LFE
Sampling rate : 48.0 kHz
Frame rate : 31.250 FPS (1536 spf)
Bit depth : 16 bits
Compression mode : Lossy
Stream size : 301 MiB (5%)
Title : "Paradox" & Omskbird records
Language : Russian
Service kind : Complete Main
Default : Yes
Forced : No

Audio #2
ID : 3
Format : AC-3
Format/Info : Audio Coding 3
Format settings, Endianness : Big
Codec ID : A_AC3
Duration : 1 h 49 min
Bit rate mode : Constant
Bit rate : 640 kb/s
Channel(s) : 6 channels
Channel positions : Front: L C R, Side: L R, LFE
Sampling rate : 48.0 kHz
Frame rate : 31.250 FPS (1536 spf)
Bit depth : 16 bits
Compression mode : Lossy
Stream size : 501 MiB (8%)
Language : English
Service kind : Complete Main
Default : No
Forced : No

Text #1
ID : 4
Format : UTF-8
Codec ID : S_TEXT/UTF8
Codec ID/Info : UTF-8 Plain Text
Duration : 1 h 40 min
Bit rate : 62 b/s
Count of elements : 987
Stream size : 46.2 KiB (0%)
Language : Russian
Default : No
Forced : No

Text #2
ID : 5
Format : UTF-8
Codec ID : S_TEXT/UTF8
Codec ID/Info : UTF-8 Plain Text
Duration : 1 h 40 min
Bit rate : 48 b/s
Count of elements : 883
Stream size : 35.7 KiB (0%)
Language : English
Default : No
Forced : No

Text #3
ID : 6
Format : UTF-8
Codec ID : S_TEXT/UTF8
Codec ID/Info : UTF-8 Plain Text
Duration : 1 h 43 min
Bit rate : 50 b/s
Count of elements : 976
Stream size : 38.2 KiB (0%)
Title : SDH
Language : English
Default : No
Forced : No

Menu
00:00:00.000 : en:00:00:00.000
00:15:17.792 : en:00:15:17.792
00:27:26.186 : en:00:27:26.186
00:40:35.642 : en:00:40:35.642
00:54:45.157 : en:00:54:45.157
01:07:11.277 : en:01:07:11.277
01:20:07.177 : en:01:20:07.177
01:31:49.045 : en:01:31:49.045


Внимание! AdBlock блокирует показ скриншотов, все вопросы к разработчикам )))
Трекер:  [ 03-Июл-2017 15:01 ]

  

Скачать .torrent

Размер .torrent файла 16 KB


Размер: 6.1 GB
Хэш (hash) релиза: e39eb627e2bea30a367de30ec68fd594574b16a5
Подписка на обновления:

Торренты, похожие на Вымогательство Extortion скачать торрент

Форум Название Автор Размер S L Добавлен
Зарубежные фильмы 2016-2019 (Новинки зарубежного кино) ·%· Вымогательство / Extortion (2017) BDRip 1080р | D, L | iTunes Galfimbul 98871488789.21 GB 0 0 1557692446

23:20

12-Май-19

Зарубежные фильмы 2016-2019 (Новинки зарубежного кино) ·%· Вымогательство / Extortion (2017) BDRemux 1080р | D, L | iTunes Galfimbul 2897517227526.99 GB 0 0 1557691238

23:00

12-Май-19

Зарубежные фильмы 2016-2019 (Новинки зарубежного кино) ·· Вымогательство / Extortion (Филипп Волкен / Phil Volken) [2017, США, Пуэрто-Рико, боевик, триллер, BDRip-AVC] MVO Galfimbul 779778599744 MB 0 0 1500402696

21:31

18-Июл-17

Зарубежные фильмы 2016-2019 (Новинки зарубежного кино) ·· Вымогательство / Extortion (Филипп Волкен) [2017, боевик, триллер, драма, криминал, приключения, НDRip] Galfimbul 22061285042.05 GB 0 0 1498813294

12:01

30-Июн-17

Зарубежные фильмы 2016-2019 (Новинки зарубежного кино) ·· Вымогательство / Extortion (Филипп Волкен / Phil Volken) [2017, США, Пуэрто Рико, Боевик, триллер, WEB-DLRip] MVO ("Paradox" & Omskbird records) Galfimbul 15764848641.47 GB 0 0 1496596164

20:09

4-Июн-17

Зарубежные фильмы 2016-2019 (Новинки зарубежного кино) ·· Вымогательство / Extortion (Филипп Волкен) [2017, Боевик, триллер, драма, криминал, приключения, WEB-DLRip 1080p] Galfimbul 37069742693.45 GB 0 0 1496013012

02:10

29-Май-17

Зарубежные фильмы 2016-2019 (Новинки зарубежного кино) ·· Вымогательство / Extortion (Филипп Волкен) [2017, Боевик, триллер, драма, криминал, приключения, WEB-DLRip 720p] Galfimbul 31907173072.97 GB 0 0 1496013003

02:10

29-Май-17

Зарубежные фильмы 2016-2019 (Новинки зарубежного кино) ·· Вымогательство / Extortion (Филипп Волкен) [2017, Боевик, триллер, драма, криминал, приключения, WEB-DLRip] Galfimbul 15716065281.46 GB 0 0 1496012995

02:09

29-Май-17

Еще никто не оставлял запись к записи скачать торрент Вымогательство Extortion . Будь первым!

!Обратная связь