Скачать через торрент Форсаж 8 The Fate of the Furious Фильм бесплатно в хорошем качестве torrent

Скачивайте на UnionPeer.org фильмы через торрент без регистрации. Новинки кино в хорошем качестве через торрент. На UnionPeer.org можно скачать через торрент фильмы 2014 и 2015 годов. Самые новые фильмы.

Скачать торрент Форсаж 8 The Fate of the Furious бесплатно через .torrent фильм мультфильм сериал

Статистика раздачи
Размер:  19.37 GB   |    Зарегистрирован:  6 лет 7 месяцев   |    .torrent скачан:  171 раз   |   
Раздают:  1  
 

Скачать Форсаж 8 / The Fate of the Furious (Ф. Гэри Грей / F. Gary Gray) [2017, США, боевик, триллер, криминал, приключения, BDRip 1080p] Dub (iTunes) + Sub Rus, Eng + Original Eng через torrent

 
 
Автор Сообщение

Galfimbul

avatar Galfimbul


Форсаж 8 / The Fate of the Furious

Страна: США
Студия: Original Film, One Race Films, Itaca Films
Жанр: боевик, триллер, криминал, приключения
Год выпуска: 2017
Продолжительность: 02:15:57

Перевод: Профессиональный (дублированный) iTunes
Субтитры: русские (форс., полные) английские (форс. (хардсаб), полные, SDH)
Оригинальная аудиодорожка: английский

Режиссер: Ф. Гэри Грей / F. Gary Gray

В ролях: Вин Дизель, Дуэйн Джонсон, Джейсон Стэйтем, Мишель Родригес, Тайриз Гибсон, Лудакрис, Натали Эммануэль, Курт Рассел, Скотт Иствуд, Шарлиз Терон

Описание: Пристегните ремни - гонка продолжается. Гавана, Берлин, Нью-Йорк - для самой крутой команды в мире нет ничего невозможного, пока они вместе. Но когда на их пути окажется одна из самых красивых женщин на планете и по совместительству королева киберпреступности, дороги друзей разойдутся.



Тип релиза: BDRip 1080p
Контейнер: MKV

Видео: MPEG-4 AVC, 18.5 Mбит/с, 1920x804, 23,976 fps
Аудио: Rus, AC3, 384 kb/s (6 ch), 48 kHz
Аудио 2: Eng, DTS, 1510 kb/s (6 ch), 48 kHz
Формат субтитров: softsub (SRT)
Format : Matroska
Format version : Version 4 / Version 2
File size : 19.4 GiB
Duration : 2 h 15 min
Overall bit rate : 20.4 Mb/s
Movie name : Форсаж 8. (Tonik)
Encoded date : UTC 2017-07-03 19:02:15
Writing application : mkvmerge v7.1.0 ('Good Love') 64bit built on Jul 27 2014 13:06:55
Writing library : libebml v1.3.0 + libmatroska v1.4.1

Video
ID : 1
Format : AVC
Format/Info : Advanced Video Codec
Format profile : [email protected]
Format settings, CABAC : Yes
Format settings, ReFrames : 5 frames
Codec ID : V_MPEG4/ISO/AVC
Duration : 2 h 15 min
Bit rate : 18.5 Mb/s
Width : 1 920 pixels
Height : 804 pixels
Display aspect ratio : 2.40:1
Frame rate mode : Constant
Frame rate : 23.976 (24000/1001) FPS
Color space : YUV
Chroma subsampling : 4:2:0
Bit depth : 8 bits
Scan type : Progressive
Bits/(Pixel*Frame) : 0.500
Stream size : 17.6 GiB (91%)
Writing library : x264 core 150 r2833+58 090e24f t_mod_Custom [8-bit@all X86_64]
Encoding settings : cabac=1 / ref=5 / deblock=1:-3:-3 / analyse=0x3:0x133 / me=umh / subme=11 / psy=1 / fade_compensate=0.00 / psy_rd=1.00:0.00 / mixed_ref=1 / me_range=32 / chroma_me=1 / trellis=2 / 8x8dct=1 / cqm=0 / deadzone=6,6 / fast_pskip=0 / chroma_qp_offset=-2 / threads=25 / lookahead_threads=6 / sliced_threads=0 / nr=0 / decimate=0 / interlaced=0 / bluray_compat=0 / constrained_intra=0 / fgo=0 / bframes=10 / b_pyramid=2 / b_adapt=2 / b_bias=0 / direct=3 / weightb=1 / open_gop=0 / weightp=2 / keyint=250 / keyint_min=23 / scenecut=40 / intra_refresh=0 / rc_lookahead=120 / rc=crf / mbtree=0 / crf=15.8000 / qcomp=0.65 / qpmin=0:0:0 / qpmax=69:69:69 / qpstep=4 / vbv_maxrate=50000 / vbv_bufsize=50000 / crf_max=0.0 / nal_hrd=none / filler=0 / ip_ratio=1.30 / pb_ratio=1.20 / aq=3:0.80 / aq-sensitivity=10.00 / aq-factor=1.00:1.00:1.00 / aq2=0 / aq3=0 / zones=27,588,b=1.5/12790,12811,b=1.5/29509,36132,b=1.5/68710,68895,b=1.5/99905,99953,b=1.5/117140,117365,b=1.5/140866,141336,b=1.5/142645,142783,b=1.5/142857,143059,b=1.5/143123,143342,b=1.5/143440,143600,b=1.5/144558,144752,b=1.5/145867,145936,b=1.5/148542,148559,b=1.5/149102,149264,b=1.5/151023,151042,b=1.5/162426,162670,b=1.5/170446,170550,b=1.5/162904,163052,b=1.5/166268,166418,b=1.5/170981,171095,b=1.5/171187,171524,b=1.5/173122,173576,b=1.5/182530,195580,b=0.3
Language : English
Default : Yes
Forced : No

Audio #1
ID : 2
Format : AC-3
Format/Info : Audio Coding 3
Format settings, Endianness : Big
Codec ID : A_AC3
Duration : 2 h 15 min
Bit rate mode : Constant
Bit rate : 384 kb/s
Channel(s) : 6 channels
Channel positions : Front: L C R, Side: L R, LFE
Sampling rate : 48.0 kHz
Frame rate : 31.250 FPS (1536 spf)
Bit depth : 16 bits
Compression mode : Lossy
Stream size : 373 MiB (2%)
Title : iTunes
Language : Russian
Service kind : Complete Main
Default : Yes
Forced : No

Audio #2
ID : 3
Format : DTS
Format/Info : Digital Theater Systems
Mode : 16
Format settings, Endianness : Big
Codec ID : A_DTS
Duration : 2 h 15 min
Bit rate mode : Constant
Bit rate : 1 509 kb/s
Channel(s) : 6 channels
Channel positions : Front: L C R, Side: L R, LFE
Sampling rate : 48.0 kHz
Frame rate : 93.750 FPS (512 spf)
Bit depth : 24 bits
Compression mode : Lossy
Stream size : 1.43 GiB (7%)
Language : English
Default : No
Forced : No

Text #1
ID : 4
Format : UTF-8
Codec ID : S_TEXT/UTF8
Codec ID/Info : UTF-8 Plain Text
Duration : 2 h 7 min
Bit rate : 1 b/s
Count of elements : 43
Stream size : 1.57 KiB (0%)
Title : Forced
Language : Russian
Default : Yes
Forced : No

Text #2
ID : 5
Format : UTF-8
Codec ID : S_TEXT/UTF8
Codec ID/Info : UTF-8 Plain Text
Duration : 2 h 14 min
Bit rate : 76 b/s
Count of elements : 1513
Stream size : 75.9 KiB (0%)
Language : Russian
Default : No
Forced : No

Text #3
ID : 6
Format : UTF-8
Codec ID : S_TEXT/UTF8
Codec ID/Info : UTF-8 Plain Text
Duration : 1 h 48 min
Bit rate : 1 b/s
Count of elements : 55
Stream size : 1.26 KiB (0%)
Title : Forced
Language : English
Default : No
Forced : No

Text #4
ID : 7
Format : UTF-8
Codec ID : S_TEXT/UTF8
Codec ID/Info : UTF-8 Plain Text
Duration : 2 h 4 min
Bit rate : 59 b/s
Count of elements : 1841
Stream size : 54.0 KiB (0%)
Title : SDH
Language : English
Default : No
Forced : No

Menu
00:00:00.000 : en:00:00:00.000
00:13:08.913 : en:00:13:08.913
00:20:30.771 : en:00:20:30.771
00:26:38.639 : en:00:26:38.639
00:32:26.778 : en:00:32:26.778
00:36:40.573 : en:00:36:40.573
00:43:35.613 : en:00:43:35.613
00:47:45.780 : en:00:47:45.780
00:56:00.732 : en:00:56:00.732
01:04:08.303 : en:01:04:08.303
01:09:08.061 : en:01:09:08.061
01:13:24.275 : en:01:13:24.275
01:21:25.714 : en:01:21:25.714
01:29:29.948 : en:01:29:29.948
01:35:12.457 : en:01:35:12.457
01:39:55.781 : en:01:39:55.781
01:45:00.711 : en:01:45:00.711
01:53:01.858 : en:01:53:01.858
02:01:51.262 : en:02:01:51.262
02:06:45.097 : en:02:06:45.097


Внимание! AdBlock блокирует показ скриншотов, все вопросы к разработчикам )))
Трекер:  [ 05-Июл-2017 15:01 ]

  

Скачать .torrent

Размер .torrent файла 49 KB


Размер: 19.37 GB
Хэш (hash) релиза: a3b1a32d283df7fc5869e9dd254df0f3a587e88e
Подписка на обновления:

Торренты, похожие на Форсаж 8 The Fate of the Furious скачать торрент

Форум Название Автор Размер S L Добавлен
Зарубежные фильмы 2016-2019 (Новинки зарубежного кино) ·%· Форсаж 8 / The Fate of the Furious (2017) WEB-DLRip 720p от SuperMin | D | Open Matte Galfimbul 40946189953.81 GB 0 0 1586533215

18:40

10-Апр-20

Зарубежные фильмы 2016-2019 (Новинки зарубежного кино) ·%· Форсаж 8 / The Fate of the Furious (2017) WEB-DLRip-AVC от ExKinoRay | D | Open Matte Galfimbul 782906543747 MB 0 0 1573841428

21:10

15-Ноя-19

Зарубежные фильмы 2016-2019 (Новинки зарубежного кино) ·%· Форсаж 8 / The Fate of the Furious (2017) WEBRip 720p от HDReactor | D, A | Director's Extended Cut Galfimbul 61846188855.76 GB 0 0 1555874409

22:20

21-Апр-19

Зарубежные фильмы 2016-2019 (Новинки зарубежного кино) ·%· Форсаж 8 / The Fate of the Furious (2017) WEBRip 720p | D | Director's Extended Cut Galfimbul 37188640593.46 GB 0 0 1555697437

21:10

19-Апр-19

Зарубежные фильмы 2016-2019 (Новинки зарубежного кино) ·%· Форсаж 8 / The Fate of the Furious (2017) WEBRip 1080p | D | Director's Extended Cut Galfimbul 87008868228.1 GB 0 0 1555683607

17:20

19-Апр-19

Зарубежные фильмы 2016-2019 (Новинки зарубежного кино) ·%· Форсаж 8 / The Fate of the Furious (2017) WEBRip 1080p | D, A | Director's Extended Cut Galfimbul 44759256694.17 GB 0 0 1555653612

09:00

19-Апр-19

Зарубежные фильмы до 2016 ·%· Форсаж 8 / The Fate of the Furious (Ф. Гэри Грей / F. Gary Gray) [2017, Китай, США, Япония, Боевик, триллер, криминал, DVD5 (сжатый)] исх. R5, Dub + Sub Rus + Original Eng Galfimbul 46963322884.37 GB 0 0 1531162964

22:02

9-Июл-18

Зарубежные фильмы до 2016 ·· Форсаж 8 / The Fate of the Furious (Ф. Гэри Грей / F. Gary Gray) [2017, Китай, США, Япония, Боевик, триллер, криминал, DVD9+DVD5] R5 Dub + Sub Rus + Original Eng [2-ух дисковое издание] Galfimbul 95068323848.85 GB 0 0 1524751335

17:02

26-Апр-18

Зарубежные фильмы 2016-2019 (Новинки зарубежного кино) ·· Форсаж 8 / The Fate of the Furious (Ф. Гэри Грей / F. Gary Gray) [2017, Китай, США, Япония, боевик, триллер, криминал, приключения, WEB-DLRip] [Theatrical Cut, Open Matte] Dub + Sub (Rus, Eng) + Original Eng Galfimbul 23389552612.18 GB 0 0 1516685439

08:30

23-Янв-18

Зарубежные фильмы до 2016 ·· Форсаж 8 / The Fate of the Furious (Ф. Гэри Грей / F. Gary Gray) [2017, Китай, США, Япония, боевик, триллер, криминал, приключения, WEB-DL 1080p] [Theatrical Cut, Open Matte] Dub + VO + Original Eng + Sub Rus, Eng Galfimbul 1512459744514.09 GB 0 0 1516488376

01:46

21-Янв-18

Зарубежные фильмы 2016-2019 (Новинки зарубежного кино) ·· Форсаж 8 / The Fate of the Furious (Ф. Гэри Грей / F. Gary Gray) [2017, США, боевик, криминал, приключения, BDRip] AVO (Юрий Живов) Galfimbul 22372065282.08 GB 0 0 1516203016

18:30

17-Янв-18

Зарубежные фильмы 2016-2019 (Новинки зарубежного кино) ·· Форсаж 8 / The Fate of the Furious (Ф. Гэри Грей / F. Gary Gray) [2017, США, боевик, триллер, криминал, приключения, WEBRip-AVC] [Локализованный видеоряд] Dub + Sub Rus Eng + Original Eng Galfimbul 31399647512.92 GB 0 0 1507840219

23:30

12-Окт-17

Зарубежные фильмы до 2016 ·· Форсаж 8 / The Fate of the Furious (Ф. Гэри Грей / F. Gary Gray) [2017, США, боевик, триллер, криминал, приключения, BD> DVD5 (Custom)] DUB + Sub Rus / Eng + Original Eng Galfimbul 46320680964.31 GB 0 0 1503596170

20:36

24-Авг-17

Зарубежные фильмы до 2016 ·· Форсаж 8 / The Fate of the Furious (Ф. Гэри Грей / F. Gary Gray) [2017, США, боевик, триллер, криминал, приключения, BD> DVD9 (Custom)] DUB + DTS + Sub Rus / Eng + Original Eng Galfimbul 85004492807.92 GB 0 0 1503345968

23:06

21-Авг-17

Трейлеры и дополнительные материалы ·· Форсаж 8 / The Fate of the Furious (Ф. Гэри Грей) [2017, Боевик | Триллер | Криминал, BDRip 720p] дополнительные материалы Galfimbul 22981410262.14 GB 0 0 1503128028

10:33

19-Авг-17

Зарубежные фильмы до 2016 ·· Форсаж 8 / The Fate of the Furious (Ф. Гэри Грей / F. Gary Gray) [2017, США, боевик, триллер, криминал, приключения, Blu-ray disc 1080p] [CEE] Dub + Sub Rus, Eng + Original Eng Galfimbul 4584391728242.7 GB 0 0 1502644166

20:09

13-Авг-17

Зарубежные фильмы 2016-2019 (Новинки зарубежного кино) ·· Форсаж 8 / The Fate of the Furious (Ф. Гэри Грей / F. Gary Gray) [2017, США, боевик, триллер, криминал, приключения, BDRip 720p] Лицензия Galfimbul 79306153547.39 GB 0 0 1502541614

15:40

12-Авг-17

Зарубежные фильмы 2016-2019 (Новинки зарубежного кино) ·· Форсаж 8 / The Fate of the Furious (Ф. Гэри Грей / F. Gary Gray) [2017, США, боевик, триллер, криминал, приключения, Blu-Ray CEE 1080p] Лицензия Galfimbul 4584391728242.7 GB 2 0 1502541009

15:30

12-Авг-17

Зарубежные фильмы 2016-2019 (Новинки зарубежного кино) ·· Форсаж 8 / The Fate of the Furious (Ф. Гэри Грей / F. Gary Gray) [2017, США, боевик, триллер, криминал, приключения, BDRip-HEVC 1080p | iTunes Galfimbul 72300681256.73 GB 0 0 1499542218

22:30

8-Июл-17

Еще никто не оставлял запись к записи скачать торрент Форсаж 8 The Fate of the Furious . Будь первым!

!Обратная связь