Скачать через торрент Прочь Get Out Фильм бесплатно в хорошем качестве torrent

Скачивайте на UnionPeer.org фильмы через торрент без регистрации. Новинки кино в хорошем качестве через торрент. На UnionPeer.org можно скачать через торрент фильмы 2014 и 2015 годов. Самые новые фильмы.

Скачать торрент Прочь Get Out бесплатно через .torrent фильм мультфильм сериал

Статистика раздачи
Размер:  5.97 GB   |    Зарегистрирован:  6 лет 7 месяцев   |    .torrent скачан:  173 раза   |   
Раздают:  1  
 

Скачать Прочь / Get Out (Джордан Пил / Jordan Peele) [2017, США, ужасы, триллер, BDRip 720p] Dub (iTunes) + MVO (AlexFilm) + Sub Rus, Eng + Original Eng через torrent

 
 
Автор Сообщение

Galfimbul

avatar Galfimbul


Прочь / Get Out

Страна: США
Студия: Blumhouse Productions, QC Entertainment
Жанр: ужасы, триллер
Год выпуска: 2017
Продолжительность: 01:44:05

Перевод: Профессиональный (дублированный) iTunes
Перевод 2: Профессиональный (многоголосый закадровый) AlexFilm
Субтитры: Rus, Eng
Оригинальная аудиодорожка: английский

Режиссер: Джордан Пил / Jordan Peele

В ролях: Дэниэл Калуя (Chris Washington), Эллисон Уильямс (Rose Armitage), Кэтрин Кинер (Missy Armitage), Брэдли Уитфорд (Dean Armitage), Калеб Лэндри Джонс (Jeremy Armitage), Маркус Хендерсон (Walter), Бетти Гэбриел (Georgina), Лейкит Стэнфилд (Andrew Logan King), Стивен Рут (Jim Hudson), Лил Релл (Rod Williams), Эшли ЛеКонте Кэмпбелл (Lisa Deets), Джон Уилмот (Gordon Greene)

Описание: Знакомство с родителями подружки не предвещает молодому фотографу из Нью-Йорка ничего хорошего, ведь семья девушки принадлежит к элитному обществу и живет в уединенном загородном доме. Если бы он только знал истинную причину своего приглашения, то немедленно бросился бы прочь...



Тип релиза: BDRip 720p
Контейнер: MKV

Видео: MPEG-4 AVC, 6547 Кбит/с, 1280x536, 23,976 fps
Аудио: Rus, AC3, 384 kb/s (6 ch), 48 kHz
Аудио 2: Rus, AC3, 640 kb/s (6 ch), 48 kHz
Аудио 3: Eng, AC3, 640 kb/s (6 ch), 48 kHz
Формат субтитров: softsub (SRT)
x264 [info]: frame I:1193 Avg QP:11.75 size:124305
x264 [info]: frame P:28942 Avg QP:12.94 size: 60533
x264 [info]: frame B:119599 Avg QP:14.04 size: 26842

Format : Matroska
Format version : Version 4 / Version 2
File size : 5.97 GiB
Duration : 1 h 44 min
Overall bit rate : 8 213 kb/s
Movie name : Прочь. (Tonik)
Encoded date : UTC 2017-07-06 14:12:32
Writing application : mkvmerge v7.1.0 ('Good Love') 64bit built on Jul 27 2014 13:06:55
Writing library : libebml v1.3.0 + libmatroska v1.4.1

Video
ID : 1
Format : AVC
Format/Info : Advanced Video Codec
Format profile : [email protected]
Format settings, CABAC : Yes
Format settings, ReFrames : 12 frames
Codec ID : V_MPEG4/ISO/AVC
Duration : 1 h 44 min
Bit rate : 6 547 kb/s
Width : 1 280 pixels
Height : 536 pixels
Display aspect ratio : 2.40:1
Frame rate mode : Constant
Frame rate : 23.976 (24000/1001) FPS
Color space : YUV
Chroma subsampling : 4:2:0
Bit depth : 8 bits
Scan type : Progressive
Bits/(Pixel*Frame) : 0.398
Stream size : 4.76 GiB (80%)
Writing library : x264 core 148 r2744+55 950084e t_mod_Custom [8-bit@all X86_64]
Encoding settings : cabac=1 / ref=12 / deblock=1:-3:-3 / analyse=0x3:0x133 / me=umh / subme=11 / psy=1 / fade_compensate=0.00 / psy_rd=1.00:0.00 / mixed_ref=1 / me_range=32 / chroma_me=1 / trellis=2 / 8x8dct=1 / cqm=0 / deadzone=21,11 / fast_pskip=0 / chroma_qp_offset=-2 / threads=6 / lookahead_threads=1 / sliced_threads=0 / nr=0 / decimate=0 / interlaced=0 / bluray_compat=0 / constrained_intra=0 / fgo=0 / bframes=12 / b_pyramid=2 / b_adapt=2 / b_bias=0 / direct=3 / weightb=1 / open_gop=0 / weightp=2 / keyint=250 / keyint_min=23 / scenecut=40 / intra_refresh=0 / rc_lookahead=60 / rc=crf / mbtree=0 / crf=14.9000 / qcomp=0.65 / qpmin=0:0:0 / qpmax=69:69:69 / qpstep=4 / vbv_maxrate=62500 / vbv_bufsize=78125 / crf_max=0.0 / nal_hrd=none / filler=0 / ip_ratio=1.30 / pb_ratio=1.20 / aq=3:0.80 / aq-sensitivity=10.00 / aq-factor=1.00:1.00:1.00 / aq2=0 / aq3=0 / zones=131472,131520,crf=11.5
Language : English
Default : Yes
Forced : No

Audio #1
ID : 2
Format : AC-3
Format/Info : Audio Coding 3
Format settings, Endianness : Big
Codec ID : A_AC3
Duration : 1 h 44 min
Bit rate mode : Constant
Bit rate : 384 kb/s
Channel(s) : 6 channels
Channel positions : Front: L C R, Side: L R, LFE
Sampling rate : 48.0 kHz
Frame rate : 31.250 FPS (1536 spf)
Bit depth : 16 bits
Compression mode : Lossy
Stream size : 286 MiB (5%)
Title : iTunes
Language : Russian
Service kind : Complete Main
Default : Yes
Forced : No

Audio #2
ID : 3
Format : AC-3
Format/Info : Audio Coding 3
Format settings, Endianness : Big
Codec ID : A_AC3
Duration : 1 h 44 min
Bit rate mode : Constant
Bit rate : 640 kb/s
Channel(s) : 6 channels
Channel positions : Front: L C R, Side: L R, LFE
Sampling rate : 48.0 kHz
Frame rate : 31.250 FPS (1536 spf)
Bit depth : 16 bits
Compression mode : Lossy
Stream size : 476 MiB (8%)
Title : AlexFilm
Language : Russian
Service kind : Complete Main
Default : No
Forced : No

Audio #3
ID : 4
Format : AC-3
Format/Info : Audio Coding 3
Format settings, Endianness : Big
Codec ID : A_AC3
Duration : 1 h 44 min
Bit rate mode : Constant
Bit rate : 640 kb/s
Channel(s) : 6 channels
Channel positions : Front: L C R, Side: L R, LFE
Sampling rate : 48.0 kHz
Frame rate : 31.250 FPS (1536 spf)
Bit depth : 16 bits
Compression mode : Lossy
Stream size : 476 MiB (8%)
Language : English
Service kind : Complete Main
Default : No
Forced : No

Text #1
ID : 5
Format : UTF-8
Codec ID : S_TEXT/UTF8
Codec ID/Info : UTF-8 Plain Text
Duration : 1 h 38 min
Bit rate : 72 b/s
Count of elements : 855
Stream size : 52.4 KiB (0%)
Language : Russian
Default : No
Forced : No

Text #2
ID : 6
Format : UTF-8
Codec ID : S_TEXT/UTF8
Codec ID/Info : UTF-8 Plain Text
Duration : 1 h 38 min
Bit rate : 50 b/s
Count of elements : 1232
Stream size : 36.3 KiB (0%)
Language : English
Default : No
Forced : No

Text #3
ID : 7
Format : UTF-8
Codec ID : S_TEXT/UTF8
Codec ID/Info : UTF-8 Plain Text
Duration : 1 h 38 min
Bit rate : 54 b/s
Count of elements : 1413
Stream size : 39.5 KiB (0%)
Title : SDH
Language : English
Default : No
Forced : No

Text #4
ID : 8
Format : UTF-8
Codec ID : S_TEXT/UTF8
Codec ID/Info : UTF-8 Plain Text
Duration : 1 h 38 min
Bit rate : 65 b/s
Count of elements : 1413
Stream size : 47.7 KiB (0%)
Title : SDH Colored
Language : English
Default : No
Forced : No

Menu
00:00:00.000 : en:00:00:00.000
00:04:52.834 : en:00:04:52.834
00:10:13.530 : en:00:10:13.530
00:14:02.258 : en:00:14:02.258
00:19:07.480 : en:00:19:07.480
00:21:49.433 : en:00:21:49.433
00:26:07.357 : en:00:26:07.357
00:30:51.016 : en:00:30:51.016
00:37:19.487 : en:00:37:19.487
00:42:16.868 : en:00:42:16.868
00:48:03.172 : en:00:48:03.172
00:54:13.584 : en:00:54:13.584
00:57:38.288 : en:00:57:38.288
01:03:33.810 : en:01:03:33.810
01:10:48.911 : en:01:10:48.911
01:15:36.365 : en:01:15:36.365
01:22:02.543 : en:01:22:02.543
01:26:13.418 : en:01:26:13.418
01:32:24.414 : en:01:32:24.414
01:40:22.391 : en:01:40:22.391
Добавил itunes

Внимание! AdBlock блокирует показ скриншотов, все вопросы к разработчикам )))
Трекер:  [ 07-Июл-2017 14:01 ]

  

Скачать .torrent

Размер .torrent файла 15 KB


Размер: 5.97 GB
Хэш (hash) релиза: 612dfe464aed0b8adfa1597849119ddb68fc4154
Подписка на обновления:

Торренты, похожие на Прочь Get Out скачать торрент

Форум Название Автор Размер S L Добавлен
Зарубежные фильмы 2016-2019 (Новинки зарубежного кино) ·%· Прочь / Get Out (2017) BDRip 1080p от TeamHD | D, P, A | Лицензия Galfimbul 1644141280615.31 GB 0 0 1545028845

09:40

17-Дек-18

Зарубежные фильмы до 2016 ·%· Прочь / Get Out (Джордан Пил / Jordan Peele) [2017, Япония, США, Ужасы, детектив, триллер, DVD5 (сжатый)] исх. R5, Dub + Sub Rus + Original Eng Galfimbul 46903398404.37 GB 0 0 1531252921

23:02

10-Июл-18

Зарубежные фильмы до 2016 ·· Прочь / Get Out (Джордан Пил / Jordan Peele) [2017, Япония, США, Ужасы, детектив, триллер, DVD9] R5 Dub + Sub Rus + Original Eng Galfimbul 76161167367.09 GB 0 0 1524756655

18:30

26-Апр-18

Зарубежные фильмы 2016-2019 (Новинки зарубежного кино) ·· Прочь / Get Out (Джордан Пил / Jordan Peele) [2017, США, ужасы, детектив, триллер, BDRip] AVO (Андрей Гаврилов) Galfimbul 15814369281.47 GB 0 0 1520420473

14:01

7-Мар-18

Трейлеры и дополнительные материалы ·· Прочь / Get Out (Джордан Пил) [2017, Ужасы | Детектив, BDRip 720p] дополнительные материалы Galfimbul 12704881211.18 GB 0 0 1504512531

11:08

4-Сен-17

Зарубежные фильмы 2016-2019 (Новинки зарубежного кино) ·· Прочь / Get Out (Джордан Пил / Jordan Peele) [2017, США, ужасы, детектив, BDRip] Dub (EUR) + Original (Eng) + Sub (Rus, Eng) Galfimbul 23437387712.18 GB 0 0 1504081810

11:30

30-Авг-17

Зарубежные фильмы 2016-2019 (Новинки зарубежного кино) ·· Прочь / Get Out (Джордан Пил / Jordan Peele) [2017, США, ужасы, детектив, BDRip-AVC] Dub + MVO + Original Eng + Sub Rus, Eng Galfimbul 23361619842.18 GB 0 0 1503849737

19:02

27-Авг-17

Зарубежные фильмы 2016-2019 (Новинки зарубежного кино) ·· Прочь / Get Out (Джордан Пил / Jordan Peele) [2017, США, ужасы, детектив,Blu-Ray CEE 1080p] Лицензия Galfimbul 4257722830639.65 GB 0 0 1503589220

18:40

24-Авг-17

Зарубежные фильмы 2016-2019 (Новинки зарубежного кино) ·· Прочь / Get Out (Джордан Пил / Jordan Peele) [2017, США, ужасы, детектив, BDRip 1080p] Лицензия, P Galfimbul 1401360569713.05 GB 0 0 1503577219

15:20

24-Авг-17

Зарубежные фильмы 2016-2019 (Новинки зарубежного кино) ·· Прочь / Get Out (Джордан Пил / Jordan Peele) [2017, США, ужасы, детектив, BDRip 720p] Лицензия, P Galfimbul 67120299546.25 GB 0 0 1503571211

13:40

24-Авг-17

Зарубежные фильмы 2016-2019 (Новинки зарубежного кино) ·· Прочь / Get Out (Джордан Пил / Jordan Peele) [2017, США, ужасы, детектив, BDRip] Dub Galfimbul 785418240749 MB 0 0 1499603415

15:30

9-Июл-17

Зарубежные фильмы 2016-2019 (Новинки зарубежного кино) ·· Прочь / Get Out (Джордан Пил / Jordan Peele) [2017, США, ужасы, детектив, BDRip-AVC] Dub Galfimbul 781529373745 MB 0 0 1499601692

15:01

9-Июл-17

Зарубежные фильмы 2016-2019 (Новинки зарубежного кино) ·· Прочь / Get Out (Джордан Пил / Jordan Peele) [2017, США, ужасы, детектив, BDRip-AVC] Dub Galfimbul 15501911121.44 GB 0 0 1499601686

15:01

9-Июл-17

Зарубежные фильмы 2016-2019 (Новинки зарубежного кино) ·· Прочь / Get Out (Джордан Пил / Jordan Peele) [2017, США, ужасы, детектив, BDRip] Dub Galfimbul 15665438721.46 GB 0 0 1499414478

11:01

7-Июл-17

Зарубежные фильмы 2016-2019 (Новинки зарубежного кино) ·· Прочь / Get Out (Джордан Пил / Jordan Peele) [2017, США, триллер, детектив, WEB-DLRip] MVO (AlexFilm) + Original Eng Galfimbul 15695087281.46 GB 0 0 1494438252

20:44

10-Май-17

Зарубежные фильмы 2016-2019 (Новинки зарубежного кино) ·· Прочь / Get Out (Джордан Пил / Jordan Peele) [2017, США, триллер, детектив, WEB-DLRip] MVO (AlexFilm) Galfimbul 782866360747 MB 0 0 1494435836

20:03

10-Май-17

Зарубежные фильмы 2016-2019 (Новинки зарубежного кино) ·· Прочь / Get Out (Джордан Пил) [2017, ужасы, детектив, WEBRip 720p] Galfimbul 30236603882.82 GB 0 0 1493410158

23:09

28-Апр-17

Зарубежные фильмы 2016-2019 (Новинки зарубежного кино) ·· Прочь / Get Out (Джордан Пил) [2017, ужасы, детектив, WEBRip 1080p] Galfimbul 37797145953.52 GB 0 0 1492938951

12:15

23-Апр-17

Зарубежные фильмы 2016-2019 (Новинки зарубежного кино) ·· Прочь / Get Out (Джордан Пил) [2017, ужасы, детектив, WEBRip] Galfimbul 14676418561.37 GB 0 0 1492929708

09:41

23-Апр-17

Еще никто не оставлял запись к записи скачать торрент Прочь Get Out . Будь первым!

!Обратная связь