Скачать через торрент Найди меня, если сможешь Come and Find Me Фильм бесплатно в хорошем качестве torrent

Скачивайте на UnionPeer.org фильмы через торрент без регистрации. Новинки кино в хорошем качестве через торрент. На UnionPeer.org можно скачать через торрент фильмы 2014 и 2015 годов. Самые новые фильмы.

Скачать торрент Найди меня, если сможешь Come and Find Me бесплатно через .torrent фильм мультфильм сериал

Статистика раздачи
Размер:  744 MB   |    Зарегистрирован:  6 лет 9 месяцев   |    .torrent скачан:  96 раз   |   
Раздают:  1  
 

Скачать Найди меня, если сможешь / Come and Find Me (Зак Уэдон / Zack Whedon) [2016, Великобритания, триллер, драма, WEB-DLRip] MVO через torrent

 
 
Автор Сообщение

Galfimbul

avatar Galfimbul


Найди меня, если сможешь / Come and Find Me

Страна: Великобритания
Жанр: триллер, драма
Год выпуска: 2016
Продолжительность: 01:51:22

Перевод: Профессиональный (многоголосый закадровый)
Субтитры: нет
Оригинальная аудиодорожка: нетРежиссер:
Зак Уэдон / Zack WhedonВ ролях:
Аарон Пол (David), Аннабелль Уоллис (Claire), Гаррет Диллахант (John Hall), Терри Чен (Det. Chris Sloan), Захари Найтон (Charlie), Джордана Ларги (Mrs. Garan's Assistant), Валери Тиан (Student), Майкл Копса (Rezart), Дин Редман (Jackson), Джессика Хифи (Colleen)Описание:
Клэр и Дэвид нашли друг друга и стали счастливой парой: ссорились, мирились и мечтали прожить вместе сто лет. Пока однажды Клэр не исчезла. В поисках любимой Дэвид сталкивается с криминальными авторитетами, сотрудниками спецслужб. Его чувствам предстоит подвергнуться серьезным испытаниям. Готов ли он идти до конца ради любви?Качество видео: WEB-DLRip | Come.and.Find.Me.2016.1080p.WEB-DL.Rus.HDCLUB
Формат видео: AVI

Видео: 688x288 (2.39:1), 24.000 fps, XviD build 73 ~797 kbps avg, 0.17 bit/pixel
Аудио: 48 kHz, MPEG Layer 3, 2 ch, ~128.00 kbps avgСкачать сэмпл
Format                      : AVI
Format/Info                 : Audio Video Interleave
File size                   : 744 MiB
Duration                    : 1 h 51 min
Overall bit rate            : 935 kb/s
Writing application         : VirtualDubMod 1.5.10.3 | www.virtualdub-fr.org || (build 2550/release)
Writing library             : VirtualDubMod build 2550/release

Video
ID                          : 0
Format                      : MPEG-4 Visual
Format profile              : Advanced Simple@L5
Format settings, BVOP       : 1
Format settings, QPel       : No
Format settings, GMC        : No warppoints
Format settings, Matrix     : Custom
Codec ID                    : XVID
Codec ID/Hint               : XviD
Duration                    : 1 h 51 min
Bit rate                    : 797 kb/s
Width                       : 688 pixels
Height                      : 288 pixels
Display aspect ratio        : 2.40:1
Frame rate                  : 24.000 FPS
Color space                 : YUV
Chroma subsampling          : 4:2:0
Bit depth                   : 8 bits
Scan type                   : Progressive
Compression mode            : Lossy
Bits/(Pixel*Frame)          : 0.168
Stream size                 : 635 MiB (85%)
Writing library             : XviD 73

Audio
ID                          : 1
Format                      : MPEG Audio
Format version              : Version 1
Format profile              : Layer 3
Codec ID                    : 55
Codec ID/Hint               : MP3
Duration                    : 1 h 51 min
Bit rate mode               : Constant
Bit rate                    : 128 kb/s
Channel(s)                  : 2 channels
Sampling rate               : 48.0 kHz
Compression mode            : Lossy
Stream size                 : 102 MiB (14%)
Alignment                   : Aligned on interleaves
Interleave, duration        : 42  ms (1.00 video frame)
Interleave, preload duratio : 504  ms
Writing library             : LAME3.99r
Encoding settings           : -m s -V 4 -q 2 -lowpass 17 -b 128


Внимание! AdBlock блокирует показ скриншотов, все вопросы к разработчикам )))

Трекер:  [ 08-Июл-2017 08:30 ]

  

Скачать .torrent

Размер .torrent файла 15 KB


Размер: 744 MB
Хэш (hash) релиза: aaf8741e3951853e72b2a69f87359a0ea24e1c8c
Подписка на обновления:

Торренты, похожие на Найди меня, если сможешь Come and Find Me скачать торрент

Форум Название Автор Размер S L Добавлен
Зарубежные фильмы 2016-2019 (Новинки зарубежного кино) ·· Найди меня, если сможешь / Come and Find Me (Зак Уэдон) [2016 г., Драма, BDRip 1080p] iTunes Galfimbul 1299845094712.11 GB 0 0 1489473714

09:41

14-Мар-17

Зарубежные фильмы 2016-2019 (Новинки зарубежного кино) ·· Найди меня, если сможешь / Come and Find Me (Зак Уэдон) [2016 г., Драма, BDRip 720p] iTunes Galfimbul 73353496386.83 GB 0 0 1489473706

09:41

14-Мар-17

Зарубежные фильмы 2016-2019 (Новинки зарубежного кино) ·· Найди меня, если сможешь / Come and Find Me (Зак Уэдон / Zack Whedon) [2016, Великобритания, Триллер, драма, HDRip] MVO (iTunes) Galfimbul 15650856961.46 GB 0 0 1489467073

07:51

14-Мар-17

Зарубежные фильмы 2016-2019 (Новинки зарубежного кино) ·· Найди меня, если сможешь / Come and Find Me (Зак Уэдон) [2016 г., Драма, BDRip 1080p] Galfimbul 1175208802210.94 GB 0 0 1484282443

07:40

13-Янв-17

Зарубежные фильмы 2016-2019 (Новинки зарубежного кино) ·· Найди меня, если сможешь / Come and Find Me (Зак Уэдон) [2016 г., Драма, HDRip] Galfimbul 14674247681.37 GB 0 0 1484280638

07:10

13-Янв-17

Зарубежные фильмы 2016-2019 (Новинки зарубежного кино) ·· Найди меня, если сможешь / Come and Find Me (Зак Уэдон) [2016 г., Драма, BDRip 720p] Galfimbul 65398886096.09 GB 0 0 1484280634

07:10

13-Янв-17

Зарубежные фильмы 2016-2019 (Новинки зарубежного кино) ·· Найди меня, если сможешь / Come and Find Me (Зак Уэдон) [2016 г., Драма, WEB-DL 1080p] Line Galfimbul 43304107724.03 GB 0 0 1484115074

09:11

11-Янв-17

Еще никто не оставлял запись к записи скачать торрент Найди меня, если сможешь Come and Find Me . Будь первым!

!Обратная связь