Скачать через торрент Я не серийный убийца I Am Not a Serial Killer Фильм бесплатно в хорошем качестве torrent

Скачивайте на UnionPeer.org фильмы через торрент без регистрации. Новинки кино в хорошем качестве через торрент. На UnionPeer.org можно скачать через торрент фильмы 2014 и 2015 годов. Самые новые фильмы.

Скачать торрент Я не серийный убийца I Am Not a Serial Killer бесплатно через .torrent фильм мультфильм сериал

Статистика раздачи
Размер:  1.44 GB   |    Зарегистрирован:  6 лет 7 месяцев   |    .torrent скачан:  76 раз   |   
Раздают:  1  
   
 
Автор Сообщение

Galfimbul

avatar Galfimbul


Я не серийный убийца / I Am Not a Serial Killer

Страна: Ирландия, Великобритания
Жанр: триллер, драма
Год выпуска: 2016
Продолжительность: 01:43:26

Перевод: Авторский (одноголосый закадровый) Вартан Дохалов
Субтитры: нет
Режиссер: Билли О`Брайэн / Billy O'Brien

В ролях: Кристофер Ллойд, Лора Фрейзер, Макс Рекордс, Карл Джиари, Брюс Боне, Эммилу Барден, Райан Дж. Гилмер, Тим Расселл

Описание: Шестнадцатилетний паренёк Джон Уэйн Кливер живет вместе с матерью и сестрой в небольшом провинциальном городке, расположенном в штате Миннесота. Стараясь избегать общения с людьми, Джон предпочитает задумчиво бродить по заснеженным улицам, слушая тяжелую музыку в наушниках. Учеба тоже даётся парню нелегко, ведь сидя на занятиях, Джон даже не пытается усваивать преподаваемый учителем материал, предпочитая рисовать ужасные картинки с черепами и сценами убийств, что сильно беспокоит директора. Даже в свободное от учебы время, помогая матери, работающей патологоанатомом, наш герой считает эту профессию довольно интересной и совершенно не вызывающей у него отвращения. Внезапно в городе начинают происходить загадочные убийства, в расследовании которых полиция оказывается бессильна. Желая остановить убийцу и предотвратить новые жертвы, среди которых могут случайно оказаться близкие ему люди, наш герой решает пойти на рискованный шаг и перестать контролировать живущих в голове «демонов»....

Сэмпл: http://multi-up.com/1161517

Качество видео: HDRip (Исходник I.Am.Not.A.Serial.Killer.2016.BDRip.1080p.mkv)
Формат видео: AVI

Видео: XviD 73, 720x400, (16:9), 23,976 fps, 1605 Кбит/с, 8 бит, 0.23 bit/pixel
Аудио: Русский (АС3, 6 ch (Front: L C R, Side: L R, LFE), 48,0 KHz, 384 Kbps)
Общее
Полное имя : F:\Видеофильмы\В и д е о\Я не серийный убийца (триллер драма 2016 год).avi
Формат : AVI
Формат/Информация : Audio Video Interleave
Размер файла : 1,44 Гбайт
Продолжительность : 1 ч. 43 м.
Общий поток : 1998 Кбит/сек
Программа кодирования : VirtualDubMod 1.5.10.2 (build 2540/release)
Библиотека кодирования : VirtualDubMod build 2540/release

Видео
Идентификатор : 0
Формат : MPEG-4 Visual
Профиль формата : Advanced Simple@L5
Параметр BVOP формата : 2
Параметр QPel формата : Нет
Параметр GMC формата : Без точки перехода
Параметр матрицы формата : Выборочная
Идентификатор кодека : XVID
Идентификатор кодека/Подсказка : XviD
Продолжительность : 1 ч. 43 м.
Битрейт : 1605 Кбит/сек
Ширина : 720 пикселей
Высота : 400 пикселей
Соотношение сторон : 16:9
Частота кадров : 23,976 (23976/1000) кадра/сек
Цветовое пространство : YUV
Субдискретизация насыщенности : 4:2:0
Битовая глубина : 8 бит
Тип развёртки : Прогрессивная
Метод сжатия : С потерями
Бит/(Пиксели*Кадры) : 0.232
Размер потока : 1,16 Гбайт (80%)
Библиотека кодирования : XviD 73

Аудио
Идентификатор : 1
Формат : AC-3
Формат/Информация : Audio Coding 3
Расширение режима : CM (complete main)
Параметр Endianness формата : Big
Идентификатор кодека : 2000
Продолжительность : 1 ч. 43 м.
Вид битрейта : Постоянный
Битрейт : 384 Кбит/сек
Каналы : 6 каналов
Расположение каналов : Front: L C R, Side: L R, LFE
Частота : 48,0 КГц
Частота кадров : 31,250 кадров/сек (1536 spf)
Метод сжатия : С потерями
Размер потока : 284 Мбайт (19%)
Выравнивание : Разделение по промежуткам
Продолжительность промежутка : 42 мс. (1,00 видеокадр)
Время предзагрузки промежутка : 500 мс.


Внимание! AdBlock блокирует показ скриншотов, все вопросы к разработчикам )))
Трекер:  [ 17-Июл-2017 15:30 ]

  

Скачать .torrent

Размер .torrent файла 15 KB


Размер: 1.44 GB
Хэш (hash) релиза: 801e3c6209eb6f9d53574f40288989bbf0350a7f
Подписка на обновления:

Торренты, похожие на Я не серийный убийца I Am Not a Serial Killer скачать торрент

Форум Название Автор Размер S L Добавлен
Зарубежные фильмы 2016-2019 (Новинки зарубежного кино) ·· Я не серийный убийца / I Am Not a Serial Killer (Билли О`Брайэн) [2016, триллер, BDRip 1080p] Galfimbul 95155620328.86 GB 0 0 1482275460

02:11

21-Дек-16

Зарубежные фильмы 2016-2019 (Новинки зарубежного кино) ·· Я не серийный убийца / I Am Not a Serial Killer (Билли О`Брайэн) [2016, триллер, WEB-DL 1080p] Galfimbul 47254623834.4 GB 0 0 1473772266

16:11

13-Сен-16

Зарубежные фильмы 2016-2019 (Новинки зарубежного кино) ·· Я не серийный убийца / I Am Not a Serial Killer (Билли О`Брайэн) [2016, триллер, WEB-DL 1080p] Galfimbul 47254624024.4 GB 0 0 1473327667

12:41

8-Сен-16

Зарубежные фильмы 2016-2019 (Новинки зарубежного кино) ·· Я не серийный убийца / I Am Not a Serial Killer (Билли О`Брайэн) [2016, триллер, WEB-DLRip] Galfimbul 15649566721.46 GB 0 0 1472937631

00:20

4-Сен-16

Зарубежные фильмы 2016-2019 (Новинки зарубежного кино) ·· Я не серийный убийца / I Am Not a Serial Killer (Билли О`Брайэн) [2016, триллер, HDRip] Galfimbul 15602649501.45 GB 0 0 1472560886

15:41

30-Авг-16

Еще никто не оставлял запись к записи скачать торрент Я не серийный убийца I Am Not a Serial Killer . Будь первым!

!Обратная связь