Ayumi Hamasaki - Countdown Live 2009-2010 A ~Future Classics~ torrent

39.76 GB   |    :  10    |    .torrent :  72    |   
1  
   
 

Galfimbul

avatar Galfimbul



~Tracklist~
I am...
Moments
STEP you
EnergizE
About You
momentum
You were...
Pride
INSPIRE
Because of You
1 LOVE
until that Day...
Humming
evolution
Startin'
teddy bear
Sunrise ~LOVE is ALL~
Boys & Girls
RED LINE ~for TA~


: Blu-ray
: BDMV
: AVC
: PCM, DTS
: 1920 x 1080 (16:9); 29.970 fps ; ~38.1 Mbps
: PCM (2304 Kbps; 2 ch; 48 kHz), DTS (48.0 KHz; 1 510 Kbps; 6 channels)

:

Format : BDAV
Format/Info : Blu-ray Video
File size : 26.0 GiB
Duration : 1h 37mn
Overall bit rate : 38.1 Mbps
Maximum Overall bit rate : 48.0 Mbps

Video
ID : 4113 (0x1011)
Menu ID : 1 (0x1)
Format : AVC
Format/Info : Advanced Video Codec
Format profile : High@L4.1
Format settings, CABAC : Yes
Format settings, ReFrames : 2 frames
Codec ID : 27
Duration : 1h 37mn
Bit rate mode : Variable
Bit rate : 32.7 Mbps
Width : 1 920 pixels
Height : 1 080 pixels
Display aspect ratio : 16:9
Frame rate : 29.970 fps
Color space : YUV
Chroma subsampling : 4:2:0
Bit depth : 8 bits
Scan type : Interlaced
Scan order : Top Field First
Bits/(Pixel*Frame) : 0.526
Stream size : 22.3 GiB (86%)

Audio #1
ID : 4352 (0x1100)
Menu ID : 1 (0x1)
Format : PCM
Format settings, Endianness : Big
Format settings, Sign : Signed
Muxing mode : Blu-ray
Codec ID : 128
Duration : 1h 37mn
Bit rate mode : Constant
Bit rate : 2 304 Kbps
Channel(s) : 2 channels
Channel positions : Front: L R
Sampling rate : 48.0 KHz
Bit depth : 24 bits
Stream size : 1.57 GiB (6%)

Audio #2
ID : 4353 (0x1101)
Menu ID : 1 (0x1)
Format : DTS
Format/Info : Digital Theater Systems
Format profile : MA / Core
Muxing mode : Stream extension
Codec ID : 134
Duration : 1h 37mn
Bit rate mode : Variable
Bit rate : 1 561 Kbps / 1 510 Kbps
Channel(s) : 6 channels
Channel positions : Front: L C R, Side: L R, LFE
Sampling rate : 48.0 KHz
Bit depth : 24 bits
Compression mode : Lossless / Lossy


! AdBlock , )))
 ·  , , FAQ-
:  [ 24--2011 15:50 ]

  

.torrent

.torrent 202 KB


: 39.76 GB
(hash) : ce46e83303c2ee981f216575145e44055ccc2429
··
...

Ayumi Hamasaki - Countdown Live 2009-2010 A ~Future Classics~ . !

!