Скачать через торрент Моя девушка – монстр Colossal Фильм бесплатно в хорошем качестве torrent

Скачивайте на UnionPeer.org фильмы через торрент без регистрации. Новинки кино в хорошем качестве через торрент. На UnionPeer.org можно скачать через торрент фильмы 2014 и 2015 годов. Самые новые фильмы.

Скачать торрент Моя девушка – монстр Colossal бесплатно через .torrent фильм мультфильм сериал

Статистика раздачи
Размер:  7.94 GB   |    Зарегистрирован:  6 лет 7 месяцев   |    .torrent скачан:  165 раз   |   
Раздают:  1  
 

Скачать Моя девушка – монстр / Colossal (Начо Вигалондо) [2016, фантастика, триллер, комедия, боевик, BDRip 1080p] iTunes через torrent

 
 
Автор Сообщение

Galfimbul

avatar Galfimbul


Моя девушка – монстр / Colossal

Страна: Канада Испания
Производство: Brightlight Pictures Inc., Route One Films, Toy Fight Productions
Год выпуска: 2016
Жанр: фантастика, триллер, комедия, боевик
Продолжительность: 01:49:23
Режиссер: Начо Вигалондо
Авторы сценария: Начо Вигалондо
В ролях: Энн Хэтэуэй, Джейсон Судейкис, Остин Стоуэлл, Тим Блейк Нельсон, Дэн Стивенс, Ханна Черами, Нэйтан Эллисон, Сара Сурх

Описание: Гигантский монстр нападает на Сеул, разрушая всё на своём пути. В Нью-Йорке потерявшая работу и бойфренда Глория понимает, что каким-то образом связана с этими фантастическими событиями...



Перевод: Профессиональный (полное дублирование) | iTunes
Субтитры: нет

Качество: BDRip 1080p
Формат: МКV
Видео кодек: AVC
Аудио кодек: АС3
Видео: 1920x808 (2.40:1), 23.976 fps, AVC ~8504 kbps avg, 0.229 bit/pixel
Аудио RUS: 48 KHz, AC3 Dolby Digital, 3/2 (L,C,R,l,r) + LFE ch, ~384 kbps
Аудио ENG: 48 KHz, DTS, 3/2 (L,C,R,l,r) + LFE ch, ~1509 kbps

Дата премьеры (мир): 9 сентября 2016
Дата премьеры (РФ): 27 апреля 2017, «Экспонента»

</a>

Общее
Уникальный идентификатор : 177773543618671537632542850553804143848 (0x85BDF068B1A71B4A97DF6049E51EBCE8)
Полное имя : Colossal.2016.BDRip.1080p.mkv
Формат : Matroska
Версия формата : Version 4 / Version 2
Размер файла : 7,94 Гбайт
Продолжительность : 1 ч. 49 м.
Общий поток : 10,4 Мбит/сек
Название фильма : Colossal.2016.BDRip.1080p
Дата кодирования : UTC 2017-07-19 12:18:42
Программа кодирования : mkvmerge v12.0.0 ('Trust / Lust') 32bit
Библиотека кодирования : libebml v1.3.4 + libmatroska v1.4.5
Обложка : Yes
Attachments : cover.jpg

Видео
Идентификатор : 1
Формат : AVC
Формат/Информация : Advanced Video Codec
Профиль формата : [email protected]
Параметр CABAC формата : Да
Параметр ReFrames формата : 5 кадров
Идентификатор кодека : V_MPEG4/ISO/AVC
Продолжительность : 1 ч. 49 м.
Битрейт : 8504 Кбит/сек
Ширина : 1920 пикселей
Высота : 808 пикселей
Соотношение сторон : 2,40:1
Режим частоты кадров : Постоянный
Частота кадров : 23,976 кадра/сек
Цветовое пространство : YUV
Субдискретизация насыщенности : 4:2:0
Битовая глубина : 8 бит
Тип развёртки : Прогрессивная
Бит/(Пиксели*Кадры) : 0.229
Размер потока : 6,49 Гбайт (82%)
Заголовок : Colossal.2016.LIMITED.1080p.BluRay.x264-DRONES
Библиотека кодирования : x264 core 150 r2833 df79067
Настройки программы : cabac=1 / ref=5 / deblock=1:0:0 / analyse=0x3:0x133 / me=umh / subme=7 / psy=1 / psy_rd=1.00:0.00 / mixed_ref=1 / me_range=16 / chroma_me=1 / trellis=1 / 8x8dct=1 / cqm=0 / deadzone=21,11 / fast_pskip=0 / chroma_qp_offset=-2 / threads=24 / lookahead_threads=4 / sliced_threads=0 / nr=0 / decimate=1 / interlaced=0 / bluray_compat=0 / constrained_intra=0 / bframes=3 / b_pyramid=2 / b_adapt=1 / b_bias=0 / direct=1 / weightb=1 / open_gop=0 / weightp=2 / keyint=250 / keyint_min=23 / scenecut=40 / intra_refresh=0 / rc_lookahead=40 / rc=2pass / mbtree=1 / bitrate=8504 / ratetol=1.0 / qcomp=0.60 / qpmin=0 / qpmax=69 / qpstep=4 / cplxblur=20.0 / qblur=0.5 / ip_ratio=1.40 / aq=1:1.00
Язык : English
Default : Да
Forced : Нет

Аудио #1
Идентификатор : 2
Формат : AC-3
Формат/Информация : Audio Coding 3
Параметр Endianness формата : Big
Идентификатор кодека : A_AC3
Продолжительность : 1 ч. 49 м.
Вид битрейта : Постоянный
Битрейт : 384 Кбит/сек
Каналы : 6 каналов
Расположение каналов : Front: L C R, Side: L R, LFE
Частота : 48,0 КГц
Частота кадров : 31,250 кадров/сек (1536 spf)
Битовая глубина : 16 бит
Метод сжатия : С потерями
Размер потока : 300 Мбайт (4%)
Заголовок : DUB - iTunes Russia
Язык : Russian
Default : Да
Forced : Нет

Аудио #2
Идентификатор : 3
Формат : DTS
Формат/Информация : Digital Theater Systems
Режим : 16
Параметр Endianness формата : Big
Идентификатор кодека : A_DTS
Продолжительность : 1 ч. 49 м.
Вид битрейта : Постоянный
Битрейт : 1509 Кбит/сек
Каналы : 6 каналов
Расположение каналов : Front: L C R, Side: L R, LFE
Частота : 48,0 КГц
Частота кадров : 93,750 кадра/сек (512 spf)
Битовая глубина : 24 бит
Метод сжатия : С потерями
Размер потока : 1,15 Гбайт (15%)
Заголовок : Original
Язык : English
Default : Нет
Forced : Нет

Меню
00:00:00.000 : en:00:00:00.000
00:06:17.210 : en:00:06:17.210
00:11:20.054 : en:00:11:20.054
00:16:47.465 : en:00:16:47.465
00:21:57.149 : en:00:21:57.149
00:28:13.066 : en:00:28:13.066
00:32:32.617 : en:00:32:32.617
00:37:34.377 : en:00:37:34.377
00:43:04.832 : en:00:43:04.832
00:46:26.117 : en:00:46:26.117
00:52:03.829 : en:00:52:03.829
00:57:49.883 : en:00:57:49.883
01:03:57.125 : en:01:03:57.125
01:10:59.547 : en:01:10:59.547
01:14:39.433 : en:01:14:39.433
01:21:51.949 : en:01:21:51.949
01:26:09.039 : en:01:26:09.039
01:31:45.750 : en:01:31:45.750
01:36:10.348 : en:01:36:10.348
01:44:23.507 : en:01:44:23.507
Источник http://arutor.org

Внимание! AdBlock блокирует показ скриншотов, все вопросы к разработчикам )))
Трекер:  [ 20-Июл-2017 12:20 ]

  

Скачать .torrent

Размер .torrent файла 40 KB


Размер: 7.94 GB
Хэш (hash) релиза: 8313f70df25c9790939017761436399f06492671
Подписка на обновления:

Торренты, похожие на Моя девушка – монстр Colossal скачать торрент

Форум Название Автор Размер S L Добавлен
Зарубежные фильмы 2016-2019 (Новинки зарубежного кино) ·· Моя Девушка - Монстр / Colossal (Начо Вигалондо / Nacho Vigalondo) [2016, Канада, Испания, триллер, комедия, боевик, BDRip-AVC] Dub Galfimbul 15604284021.45 GB 0 0 1500964221

09:30

25-Июл-17

Зарубежные фильмы 2016-2019 (Новинки зарубежного кино) ·· Моя девушка – монстр / Colossal (Начо Вигалондо) [2016, фантастика, триллер, комедия, боевик, HDRip] iTunes Galfimbul 22040514562.05 GB 0 0 1500411616

00:00

19-Июл-17

Зарубежные фильмы 2016-2019 (Новинки зарубежного кино) ·· Моя Девушка - Монстр / Colossal (Начо Вигалондо / Nacho Vigalondo) [2016, Канада, Испания, триллер, комедия, боевик, HDRip] iTunes Galfimbul 14679019521.37 GB 0 0 1500411610

00:00

19-Июл-17

Зарубежные фильмы 2016-2019 (Новинки зарубежного кино) ·· Моя Девушка - Монстр / Colossal (Начо Вигалондо / Nacho Vigalondo) [2016, Канада, Испания, триллер, комедия, боевик, WEB-DLRip] Dub (iTunes) Galfimbul 14776258561.38 GB 0 0 1496596320

20:12

4-Июн-17

Зарубежные фильмы 2016-2019 (Новинки зарубежного кино) ·· Моя Девушка - Монстр / Colossal (Начо Вигалондо / Nacho Vigalondo) [2016, Канада, Испания, триллер, комедия, боевик, WEB-DLRip] Dub Galfimbul 780652544744 MB 0 0 1496596300

20:11

4-Июн-17

Зарубежные фильмы 2016-2019 (Новинки зарубежного кино) ·· Моя девушка – монстр / Colossal (Начо Вигалондо) [2016, фантастика, триллер, комедия, боевик, WEB-DL 1080р] iTunes Galfimbul 38784704523.61 GB 0 0 1495788212

11:43

26-Май-17

Зарубежные фильмы 2016-2019 (Новинки зарубежного кино) ·· Моя девушка – монстр / Colossal (Начо Вигалондо) [2016, фантастика, триллер, комедия, боевик, WEBRip 720p] Galfimbul 32741036003.05 GB 0 0 1493581386

22:43

30-Апр-17

Зарубежные фильмы 2016-2019 (Новинки зарубежного кино) ·· Моя девушка – монстр / Colossal (Начо Вигалондо) [2016, фантастика, триллер, комедия, боевик, WEBRip] Звук с TS Galfimbul 14650470401.36 GB 0 0 1493404251

21:30

28-Апр-17

Еще никто не оставлял запись к записи скачать торрент Моя девушка – монстр Colossal . Будь первым!

!Обратная связь