Скачать через торрент Три талера Серии: 1-4 из 4 Фильм бесплатно в хорошем качестве torrent

Скачивайте на UnionPeer.org фильмы через торрент без регистрации. Новинки кино в хорошем качестве через торрент. На UnionPeer.org можно скачать через торрент фильмы 2014 и 2015 годов. Самые новые фильмы.

Скачать торрент Три талера Серии: 1-4 из 4 бесплатно через .torrent фильм мультфильм сериал

Статистика раздачи
Размер:  3.75 GB   |    Зарегистрирован:  1 год 9 месяцев   |    .torrent скачан:  233 раза   |   
Раздают:  1  
   
загрузка...
 
Автор Сообщение

Galfimbul

avatar Galfimbul


Три талера / Серии: 1-4 из 4

Страна: Республика Беларусь
Жанр: Приключения, детский
Год выпуска: 2005
Количество серий: 4
Продолжительность: ~50 мин. каждая
Перевод: Не требуется
Субтитры: нет
Оригинальная аудиодорожка: русский
Режиссер: Игорь Четвериков

В ролях: Андрей Соколов, Андрей Чернышов, Даша Бранкевич, Василий Кубекин, Алесь Жукович, Катя Семенова, Никита Матусевич, Геннадий Овсянников, Татьяна Гаркуша, Илья Черепко-Самохвалов, Павел Яскевич, Анатолий Гурьев, Михаил Зуй, Владимир Мищанчук, Любовь Румянцева, Оксана Лесная, Светлана Зеленковская и др.

Описание: По повести Андрея Федоренко "Щербатый талер".
В руки шестиклассницы Оксаны Тушинской, фантазерки и непоседы, случайно попадает старинный талер. Отец Оксаны, ученый-историк Александр Александрович, рассказывает ей и ее друзьям о тайне трех талеров. Ребята начинают поиски клада и помогают открыть новые исторические факты. Но найти монеты хотят не только ученые.

Доп. информация:
Сценаристы: Алена Калюнова, Андрей Федаренко
Оператор: Александр Абадовский
Композиторы: Юрий Дмитриев, Иван Кирчук, Юрий Павловский
Художник: Антон Гвоздиков
Производство: РУП Национальная киностудия "Беларусьфильм"



Релиз:

Благодарность: за помощь с недостающим материалом Bartimeyse и PavelDAS. Обоим большое спасибо!

Запись потока *.ts с наземного цифрового телеканала "Беларусь 3".

Во время трансляции фильма присутствуют полупрозрачные анонсы; также во время трансляции финальных интернтиров происходит анонс следующего фильма (смотри последний скриншот)
...9778909
Качество: DVB
Контейнер: TS
Видео кодек: H.264
Аудио кодек: MP2
Видео: MPEG4 Video (H264) 720(785)x576 (49:36) 25fps, 2 264 kb/s
Аудио: MPEG Audio 48000Hz stereo 256kbps

Сэмпл: https://www.sendspace.com/file/vuem2o
GeneralID : 1 (0x1)Complete name : D:\Новая земля 2\Художественные фильмы\Три талера (2005)\Три талера (2005)\01_Три талера (2005).tsFormat : MPEG-TSFile size : 955 MiBDuration : 50 minOverall bit rate mode : VariableOverall bit rate : 2 654 kb/s

VideoID : 801 (0x321)Menu ID : 1 (0x1)Format : AVCFormat/Info : Advanced Video CodecFormat profile : Main@L3Format settings, CABAC : YesFormat settings, ReFrames : 4 framesFormat settings, GOP : M=4, N=24Codec ID : 27Duration : 50 minBit rate : 2 264 kb/sWidth : 720 pixelsHeight : 576 pixelsDisplay aspect ratio : 4:3Frame rate : 25.000 FPSStandard : PALColor space : YUVChroma subsampling : 4:2:0Bit depth : 8 bitsScan type : MBAFFScan type, store method : Separated fieldsScan order : Top Field FirstBits/(Pixel*Frame) : 0.218Stream size : 815 MiB (85%)Color range : LimitedColor primaries : BT.601 PALTransfer characteristics : BT.470 System B, BT.470 System GMatrix coefficients : BT.601

AudioID : 802 (0x322)Menu ID : 1 (0x1)Format : MPEG AudioFormat version : Version 1Format profile : Layer 2Codec ID : 3Duration : 50 minBit rate mode : ConstantBit rate : 256 kb/sChannel(s) : 2 channelsSampling rate : 48.0 kHzCompression mode : LossyStream size : 92.1 MiB (10%)Language : English


Трекер:  [ 20-Июл-2017 21:18 ]

  

Скачать .torrent

Размер .torrent файла 19 KB


Размер: 3.75 GB
Хэш (hash) релиза: 2ba7c9e5d4c19b1e46fbe3e9154339a30edef90a
Подписка на обновления:

Торренты, похожие на Три талера Серии: 1-4 из 4 скачать торрент

Форум Название Автор Размер S L Добавлен
Российские сериалы ·*· Три талера / Серии: 1-4 из 4 (Игорь Четвериков) [2005,детский, детектив, приключения, SATRip-AVC] aleksan55 30235408342.82 GB 0 0 1540150188

22:29

21-Окт-18

Еще никто не оставлял запись к записи скачать торрент Три талера Серии: 1-4 из 4 . Будь первым!

!Обратная связь