Скачать через торрент Нерв Nerve Фильм бесплатно в хорошем качестве torrent

Скачивайте на UnionPeer.org фильмы через торрент без регистрации. Новинки кино в хорошем качестве через торрент. На UnionPeer.org можно скачать через торрент фильмы 2014 и 2015 годов. Самые новые фильмы.

Скачать торрент Нерв Nerve бесплатно через .torrent фильм мультфильм сериал

Статистика раздачи
Размер:  5.58 GB   |    Зарегистрирован:  6 лет 6 месяцев   |    .torrent скачан:  46 раз   |   
Раздают:  1  
   
 
Автор Сообщение

Galfimbul

avatar Galfimbul


Нерв / Nerve

Страна: США
Студия: Allison Shearmur Productions, Keep Your Head, Lionsgate
Жанр: триллер, криминал, детектив, приключения
Год выпуска: 2016
Продолжительность: 01:36:18Перевод: Авторский (одноголосый закадровый) - Немахов
Субтитры: английские
Оригинальная аудио дорожка: английскаяРежиссер: Генри Джуст / Henry Joost, Эриель Шульман / Ariel SchulmanВ ролях: Эмма Робертс, Дэйв Франко, Эмили Мид, Майлс Хейзер, Кимико Гленн, Марк Джон Джеффрис, Машин Ган Келли, Брайан «Сене» Марк, Эд Сквайр, Райтор Дойл, Джульетт ЛьюисОписание: Поддавшись на уговоры одноклассниц, тихоня Ви открывает для себя мир популярной онлайн-игры «Нерв», где участники выполняют задания разной степени сложности, которые придумывают для них другие пользователи. В случае успеха игроки получают очень неплохие деньги. Ви проявляет неожиданную для самой себя смелость и отсутствие комплексов, и в очередном раунде знакомится с парнем по имени Иэн. Красивая пара нравится зрителям игры, и они решают, что следующие задания Ви и Иэн должны выполнять только вместе. Ставки растут, задания становятся все опаснее, и Ви постепенно понимает, что выйти из игры по собственной воле не получится. Те, кто считают себя игроками, на самом деле всего лишь пешки в руках таинственного сообщества Наблюдателей. И никто из участников игры не знает, какое задание станет следующим — или последним.Доп. информация: Сохранил главы исходного Blu-Ray Remux-а.Сэмпл: http://sendfile.su/1354204Тип релиза: BDRip 720p
Контейнер: MKV
Видео кодек: H.264
Аудио кодек; DTS
Видео: MPEG4/ISO/AV, 2.40:1, 23.976 (24000/1001) FPS, 1280x536p, 5115 kb/s
Аудио 1: Русский, DTS, 48.0 kHz, 5.1, 1509 kb/s | авторский Немахов
Аудио 2: Английский, DTS, 48.0 kHz, 5.1, 1509 kb/s | оригинал
Формат субтитров: softsub (SRT)
Релиз:
x264
x264 [info]: frame I:1058 Avg QP:15.08 size:114530
x264 [info]: frame P:31502 Avg QP:17.06 size: 50619
x264 [info]: frame B:105989 Avg QP:19.41 size: 19772
x264 [info]: consecutive B-frames: 2.6% 3.0% 8.3% 25.2% 20.7% 30.6% 3.9% 1.4% 0.7% 0.5% 0.4% 0.9% 1.4% 0.4%

Формат : Matroska
Версия формата : Version 2
Размер файла : 5,58 Гбайт
Продолжительность : 1 ч. 36 м.
Общий поток : 8299 Кбит/сек
Дата кодирования : UTC 2017-08-09 10:39:30
Программа кодирования : mkvmerge v7.6.0 ('Garden of Dreams') 32bit built on Feb 11 2015 00:18:47
Библиотека кодирования : libebml v1.3.1 + libmatroska v1.4.2
Обложка : Yes
Attachments : cover.jpeg

Видео
Идентификатор : 1
Формат : AVC
Формат/Информация : Advanced Video Codec
Профиль формата : [email protected]
Параметр CABAC формата : Да
Параметр RefFrames формата : 12 кадров
Идентификатор кодека : V_MPEG4/ISO/AVC
Продолжительность : 1 ч. 36 м.
Битрейт : 5115 Кбит/сек
Ширина : 1280 пикселей
Высота : 536 пикселей
Соотношение сторон : 2,40:1
Режим частоты кадров : Постоянный
Частота кадров : 23,976 (24000/1001) кадра/сек
Цветовое пространство : YUV
Субдискретизация насыщенности : 4:2:0
Битовая глубина : 8 бит
Тип развёртки : Прогрессивная
Бит/(Пиксели*Кадры) : 0.311
Размер потока : 3,44 Гбайт (62%)
Библиотека кодирования : x264 core 152 r2851 ba24899
Настройки программы : cabac=1 / ref=12 / deblock=1:-3:-3 / analyse=0x3:0x113 / me=umh / subme=10 / psy=1 / psy_rd=0.95:0.00 / mixed_ref=1 / me_range=24 / chroma_me=1 / trellis=2 / 8x8dct=1 / cqm=0 / deadzone=21,11 / fast_pskip=1 / chroma_qp_offset=-2 / threads=6 / lookahead_threads=1 / sliced_threads=0 / nr=0 / decimate=0 / interlaced=0 / bluray_compat=0 / constrained_intra=0 / bframes=13 / b_pyramid=2 / b_adapt=2 / b_bias=0 / direct=1 / weightb=1 / open_gop=0 / weightp=2 / keyint=250 / keyint_min=23 / scenecut=40 / intra_refresh=0 / rc_lookahead=40 / rc=crf / mbtree=0 / crf=16.4 / qcomp=0.62 / qpmin=0 / qpmax=69 / qpstep=4 / vbv_maxrate=62500 / vbv_bufsize=78125 / crf_max=0.0 / nal_hrd=none / filler=0 / ip_ratio=1.40 / pb_ratio=1.30 / aq=2:0.78
Default : Да
Forced : Нет
Statistics Tags Issue : mkvmerge v14.0.0 ('Flow') 32bit 2017-08-08 15:08:38 / mkvmerge v7.6.0 ('Garden of Dreams') 32bit built on Feb 11 2015 00:18:47 2017-08-09 10:39:30
FromStats_BitRate : 5276483
FromStats_Duration : 01:36:18.648000000
FromStats_FrameCount : 138549
FromStats_StreamSize : 3811367812

Аудио #1
Идентификатор : 2
Формат : DTS
Формат/Информация : Digital Theater Systems
Режим : 16
Параметр Endianness формата : Big
Идентификатор кодека : A_DTS
Продолжительность : 1 ч. 36 м.
Вид битрейта : Постоянный
Битрейт : 1509 Кбит/сек
Каналы : 6 каналов
Расположение каналов : Front: L C R, Side: L R, LFE
Частота : 48,0 КГц
Частота кадров : 93,750 кадра/сек (512 SPF)
Битовая глубина : 24 бит
Метод сжатия : С потерями
Размер потока : 1,02 Гбайт (18%)
Заголовок : авторский
Язык : Russian
Default : Да
Forced : Нет

Аудио #2
Идентификатор : 3
Формат : DTS
Формат/Информация : Digital Theater Systems
Режим : 16
Параметр Endianness формата : Big
Идентификатор кодека : A_DTS
Продолжительность : 1 ч. 36 м.
Вид битрейта : Постоянный
Битрейт : 1509 Кбит/сек
Каналы : 6 каналов
Расположение каналов : Front: L C R, Side: L R, LFE
Частота : 48,0 КГц
Частота кадров : 93,750 кадра/сек (512 SPF)
Битовая глубина : 24 бит
Метод сжатия : С потерями
Размер потока : 1,02 Гбайт (18%)
Заголовок : оригинал
Язык : English
Default : Нет
Forced : Нет

Текст
Идентификатор : 4
Формат : UTF-8
Идентификатор кодека : S_TEXT/UTF8
Идентификатор кодека/Информация : UTF-8 Plain Text
Заголовок : английские
Язык : English
Default : Нет
Forced : Нет

Меню
00:00:00.000 : en:Chapter 01
00:05:14.188 : en:Chapter 02
00:13:43.405 : en:Chapter 03
00:20:40.239 : en:Chapter 04
00:28:42.303 : en:Chapter 05
00:33:27.088 : en:Chapter 06
00:38:34.437 : en:Chapter 07
00:43:36.405 : en:Chapter 08
00:49:17.871 : en:Chapter 09
00:53:07.642 : en:Chapter 10
00:58:18.578 : en:Chapter 11
01:05:59.330 : en:Chapter 12
01:10:17.338 : en:Chapter 13
01:14:40.642 : en:Chapter 14
01:19:07.868 : en:Chapter 15
01:27:20.860 : en:Chapter 16
Rip------------------------------Source




Внимание! AdBlock блокирует показ скриншотов, все вопросы к разработчикам )))
Трекер:  [ 12-Авг-2017 14:01 ]

  

Скачать .torrent

Размер .torrent файла 14 KB


Размер: 5.58 GB
Хэш (hash) релиза: a32b843f95a6dfee65b343b1f10cf860bc5282a7
Подписка на обновления:

Торренты, похожие на Нерв Nerve скачать торрент

Форум Название Автор Размер S L Добавлен
Зарубежные фильмы 2016-2019 (Новинки зарубежного кино) ·%· Нерв / Nerve (2016) BDRemux 1080р | iTunes, A Galfimbul 3356074290831.26 GB 0 0 1535279411

13:30

26-Авг-18

Зарубежные фильмы 2016-2019 (Новинки зарубежного кино) ·· Нерв / Nerve (Генри Джуст / Henry Joost, Эриель Шульман / Ariel Schulman) [2016, США, триллер, криминал, детектив, приключения, BDRip] Dub + AVO + Original Eng + Sub Rus, Eng Galfimbul 23500721362.19 GB 0 0 1511035286

23:01

18-Ноя-17

Зарубежные фильмы 2016-2019 (Новинки зарубежного кино) ·· Нерв / Nerve (Генри Джуст, Эриель Шульман) [2016 г., триллер, криминал, приключения, BDRip] iTunes Galfimbul 15231082001.42 GB 0 0 1506456042

23:00

26-Сен-17

Зарубежные фильмы 2016-2019 (Новинки зарубежного кино) ·· Нерв / Nerve (Генри Джуст / Henry Joost, Эриель Шульман / Ariel Schulman) [2016, США, Гонконг, триллер, криминал, приключения, HDRip] Dub (iTunes) + Sub Rus Galfimbul 15233646511.42 GB 0 0 1506438172

18:02

26-Сен-17

Зарубежные фильмы 2016-2019 (Новинки зарубежного кино) ·· Нерв / Nerve (Генри Джуст, Эриель Шульман) [2016 г., триллер, криминал, приключения, BDRip 720p] DUB | iTunes Galfimbul 63729752135.94 GB 0 0 1506410732

10:25

26-Сен-17

Зарубежные фильмы 2016-2019 (Новинки зарубежного кино) ·· Нерв / Nerve (Генри Джуст, Эриель Шульман) [2016 г., триллер, криминал, приключения, HDRip] DUB | iTunes Galfimbul 14678450161.37 GB 0 0 1506410715

10:25

26-Сен-17

Зарубежные фильмы 2016-2019 (Новинки зарубежного кино) ·· Нерв / Nerve (Генри Джуст, Эриель Шульман) [2016, Триллер, криминал, детектив, приключения, BDRip] iTunes Galfimbul 15233646511.42 GB 0 0 1506372610

23:50

25-Сен-17

Зарубежные фильмы 2016-2019 (Новинки зарубежного кино) ·· Нерв / Nerve (Генри Джуст, Эриель Шульман) [2016, Триллер, криминал, детектив, приключения, HDRip] Line Galfimbul 14678384641.37 GB 0 0 1477503862

20:44

26-Окт-16

Зарубежные фильмы 2016-2019 (Новинки зарубежного кино) ·· Нерв / Nerve (Генри Джуст, Эриель Шульман) [2016, Триллер, криминал, детектив, приключения, BDRip 720p] Line Galfimbul 45946578244.28 GB 0 0 1477503847

20:44

26-Окт-16

Зарубежные фильмы 2016-2019 (Новинки зарубежного кино) ·· Нерв / Nerve (Генри Джуст, Эриель Шульман) [2016, Триллер, криминал, детектив, приключения, BDRip 1080p] Line Galfimbul 87221968558.12 GB 0 0 1477503824

20:43

26-Окт-16

Зарубежные фильмы 2016-2019 (Новинки зарубежного кино) ·· Нерв / Nerve (Генри Джуст, Эриель Шульман) [2016, Триллер, криминал, детектив, приключения, BDRip 1080p] Звук с CAMRip Galfimbul 82461715887.68 GB 0 0 1476338998

09:09

13-Окт-16

Зарубежные фильмы 2016-2019 (Новинки зарубежного кино) ·· Нерв / Nerve (Генри Джуст, Эриель Шульман) [2016, Триллер, криминал, детектив, приключения, HDRip] Звук с CAMRip Galfimbul 14685184001.37 GB 0 0 1476337336

08:42

13-Окт-16

Зарубежные фильмы 2016-2019 (Новинки зарубежного кино) ·· Нерв / Nerve (Генри Джуст, Эриель Шульман) [2016, Триллер, криминал, детектив, приключения, BDRip 720p] Звук с CAMRip Galfimbul 42907106784 GB 0 0 1476337309

08:41

13-Окт-16

Зарубежные фильмы 2016-2019 (Новинки зарубежного кино) ·· Нерв / Nerve (Генри Джуст, Эриель Шульман) [2016, Триллер, криминал, детектив, приключения, WEB-DLRip] Звук с TS Galfimbul 14674903041.37 GB 0 0 1476249236

08:13

12-Окт-16

Зарубежные фильмы 2016-2019 (Новинки зарубежного кино) ·· Нерв / Nerve (Генри Джуст, Эриель Шульман) [2016, Триллер, криминал, детектив, приключения, WEB-DLRip 1080р] Звук с CAMRip Galfimbul 36201761183.37 GB 0 0 1476243675

06:41

12-Окт-16

Зарубежные фильмы 2016-2019 (Новинки зарубежного кино) ·· Нерв / Nerve (Генри Джуст, Эриель Шульман) [2016, Триллер, криминал, детектив, приключения, CAMRip] Galfimbul 14679838721.37 GB 0 0 1474366421

13:13

20-Сен-16

Зарубежные фильмы 2016-2019 (Новинки зарубежного кино) ·· Нерв / Nerve (Генри Джуст, Эриель Шульман) [2016, триллер, криминал, детектив, приключения, CAMRip] Galfimbul 14671196161.37 GB 0 0 1472184632

07:10

26-Авг-16

Документальные фильмы и телепередачи ·· Леонард Нимой в передаче Уильяма Шетнера "Оголенный нерв" (6.01.2009) / Leonard Nimoy on William Shatner's "RAW NERVE, ep 07" (Уильям Шетнер / William Shatner) [2009 г., Телепередача, SATRip] VO Original Galfimbul 198519456189 MB 0 0 1418853177

00:52

18-Дек-14

Еще никто не оставлял запись к записи скачать торрент Нерв Nerve . Будь первым!

!Обратная связь