Скачать через торрент Матрица времени Before I Fall Фильм бесплатно в хорошем качестве torrent

Скачивайте на UnionPeer.org фильмы через торрент без регистрации. Новинки кино в хорошем качестве через торрент. На UnionPeer.org можно скачать через торрент фильмы 2014 и 2015 годов. Самые новые фильмы.

Скачать торрент Матрица времени Before I Fall бесплатно через .torrent фильм мультфильм сериал

Статистика раздачи
Размер:  6.84 GB   |    Зарегистрирован:  6 лет 6 месяцев   |    .torrent скачан:  111 раз   |   
Раздают:  1  
 

Скачать Матрица времени / Before I Fall (Ри Руссо-Янг / Ry Russo-Young) [2017, США, Триллер, драма, детектив, BDRip 720p] Dub (iTunes) + Sub Rus, Eng + Original Eng через torrent

 
 
Автор Сообщение

Galfimbul

avatar Galfimbul


Матрица времени / Before I Fall

Страна: США
Студия: Awesomeness Films, Jon Shestack Productions
Жанр: Триллер, драма, детектив
Год выпуска: 2017
Продолжительность: 01:38:48

Перевод: Профессиональный (дублированный) iTunes
Субтитры: Rus, Eng
Оригинальная аудиодорожка: английский

Режиссер: Ри Руссо-Янг / Ry Russo-Young

В ролях: Зои Дойч, Холстон Сейдж, Логан Миллер, Киан Лоули, Елена Кампурис, Синти У, Медальон Рахими, Эрика Тремблэй, Лив Хьюсон, Николас Ли

Описание: Саманта — крутая девчонка, которой всегда и во всем везло. Но в тот день, в пятницу, 12 февраля, что-то пошло не так, а потом та авария на трассе... Саманта оказалась в заколдованном круге проклятого дня, и теперь она вынуждена проживать ужас той пятницы снова и снова. Чтобы распутать петлю времени, она должна вычислить ошибку и исправить неверный шаг. Но каждый раз что-то не срабатывает...



Тип релиза: BDRip 720p
Контейнер: MKV

Видео: MPEG-4 AVC, 8878 Кбит/с, 1280x534, 23,976 fps
Аудио: Rus, AC3, 384 kb/s (6 ch), 48 kHz
Аудио 2: Eng, AC3, 640 kb/s (6 ch), 48 kHz
Формат субтитров: softsub (SRT)
Format : Matroska
Format version : Version 4 / Version 2
File size : 6.84 GiB
Duration : 1 h 38 min
Overall bit rate : 9 905 kb/s
Movie name : Матрица времени. (Tonik)
Encoded date : UTC 2017-08-15 04:22:58
Writing application : mkvmerge v7.1.0 ('Good Love') 64bit built on Jul 27 2014 13:06:55
Writing library : libebml v1.3.0 + libmatroska v1.4.1

Video
ID : 1
Format : AVC
Format/Info : Advanced Video Codec
Format profile : [email protected]
Format settings, CABAC : Yes
Format settings, ReFrames : 12 frames
Codec ID : V_MPEG4/ISO/AVC
Duration : 1 h 38 min
Bit rate : 8 878 kb/s
Width : 1 280 pixels
Height : 534 pixels
Display aspect ratio : 2.40:1
Frame rate mode : Constant
Frame rate : 23.976 (24000/1001) FPS
Color space : YUV
Chroma subsampling : 4:2:0
Bit depth : 8 bits
Scan type : Progressive
Bits/(Pixel*Frame) : 0.542
Stream size : 6.13 GiB (90%)
Writing library : x264 core 148 r2762+56 6284cf3 t_mod_Custom [8-bit@all X86_64]
Encoding settings : cabac=1 / ref=12 / deblock=1:-3:-3 / analyse=0x3:0x133 / me=umh / subme=11 / psy=1 / fade_compensate=0.00 / psy_rd=1.05:0.00 / mixed_ref=1 / me_range=32 / chroma_me=1 / trellis=2 / 8x8dct=1 / cqm=0 / deadzone=21,11 / fast_pskip=0 / chroma_qp_offset=-2 / threads=16 / lookahead_threads=4 / sliced_threads=0 / nr=0 / decimate=0 / interlaced=0 / bluray_compat=0 / constrained_intra=0 / fgo=0 / bframes=13 / b_pyramid=2 / b_adapt=2 / b_bias=0 / direct=3 / weightb=1 / open_gop=0 / weightp=2 / keyint=250 / keyint_min=24 / scenecut=40 / intra_refresh=0 / rc_lookahead=250 / rc=crf / mbtree=0 / crf=13.8000 / qcomp=0.60 / qpmin=0:0:0 / qpmax=69:69:69 / qpstep=4 / vbv_maxrate=62500 / vbv_bufsize=78125 / crf_max=0.0 / nal_hrd=none / filler=0 / ip_ratio=1.30 / pb_ratio=1.20 / aq=3:0.80 / aq-sensitivity=10.00 / aq-factor=1.00:1.00:1.00 / aq2=0 / aq3=0 / zones=9871,9892,crf=11.5/23223,23320,crf=12.8/23450,23602,crf=12.8/23643,23687,crf=12.8/24937,25128,crf=12.8/25293,25562,crf=12.8/25945,29416,crf=12.8/41390,41965,crf=12.8/45416,46597,crf=12.8/78001,78036,crf=12.8/81959,82154,crf=12.8/82345,82407,crf=12.8/82599,83667,crf=12.8/105476,105670,crf=12.8/123337,123688,crf=13.4/129250,131556,crf=13.4/131557,131600,crf=11.5/133594,134140,crf=13.4
Language : English
Default : Yes
Forced : No

Audio #1
ID : 2
Format : AC-3
Format/Info : Audio Coding 3
Format settings, Endianness : Big
Codec ID : A_AC3
Duration : 1 h 38 min
Bit rate mode : Constant
Bit rate : 384 kb/s
Channel(s) : 6 channels
Channel positions : Front: L C R, Side: L R, LFE
Sampling rate : 48.0 kHz
Frame rate : 31.250 FPS (1536 spf)
Bit depth : 16 bits
Compression mode : Lossy
Stream size : 271 MiB (4%)
Title : iTunes
Language : Russian
Service kind : Complete Main
Default : Yes
Forced : No

Audio #2
ID : 3
Format : AC-3
Format/Info : Audio Coding 3
Format settings, Endianness : Big
Codec ID : A_AC3
Duration : 1 h 38 min
Bit rate mode : Constant
Bit rate : 640 kb/s
Channel(s) : 6 channels
Channel positions : Front: L C R, Side: L R, LFE
Sampling rate : 48.0 kHz
Frame rate : 31.250 FPS (1536 spf)
Bit depth : 16 bits
Compression mode : Lossy
Stream size : 452 MiB (6%)
Language : English
Service kind : Complete Main
Default : No
Forced : No

Text #1
ID : 4
Format : UTF-8
Codec ID : S_TEXT/UTF8
Codec ID/Info : UTF-8 Plain Text
Duration : 1 h 32 min
Bit rate : 85 b/s
Count of elements : 1091
Stream size : 57.6 KiB (0%)
Title : Перевод Тины Косяковой
Language : Russian
Default : No
Forced : No

Text #2
ID : 5
Format : UTF-8
Codec ID : S_TEXT/UTF8
Codec ID/Info : UTF-8 Plain Text
Duration : 1 h 32 min
Bit rate : 53 b/s
Count of elements : 1228
Stream size : 36.0 KiB (0%)
Language : English
Default : No
Forced : No

Text #3
ID : 6
Format : UTF-8
Codec ID : S_TEXT/UTF8
Codec ID/Info : UTF-8 Plain Text
Duration : 1 h 32 min
Bit rate : 60 b/s
Count of elements : 1396
Stream size : 40.8 KiB (0%)
Title : SDH
Language : English
Default : No
Forced : No

Text #4
ID : 7
Format : UTF-8
Codec ID : S_TEXT/UTF8
Codec ID/Info : UTF-8 Plain Text
Duration : 1 h 32 min
Bit rate : 76 b/s
Count of elements : 1396
Stream size : 51.9 KiB (0%)
Title : SDH-Colored
Language : English
Default : No
Forced : No

Menu
00:00:00.000 : en:Chapter 1
00:05:23.448 : en:Chapter 2
00:10:13.321 : en:Chapter 3
00:14:14.520 : en:Chapter 4
00:22:23.676 : en:Chapter 5
00:27:21.932 : en:Chapter 6
00:33:41.353 : en:Chapter 7
00:37:41.384 : en:Chapter 8
00:41:21.145 : en:Chapter 9
00:46:37.795 : en:Chapter 10
00:51:22.871 : en:Chapter 11
00:56:48.238 : en:Chapter 12
00:59:33.820 : en:Chapter 13
01:04:07.635 : en:Chapter 14
01:08:31.566 : en:Chapter 15
01:13:09.927 : en:Chapter 16
01:17:50.291 : en:Chapter 17
01:21:09.531 : en:Chapter 18
01:25:44.181 : en:Chapter 19
01:33:19.594 : en:Chapter 20


Внимание! AdBlock блокирует показ скриншотов, все вопросы к разработчикам )))
Трекер:  [ 15-Авг-2017 16:01 ]

  

Скачать .torrent

Размер .torrent файла 17 KB


Размер: 6.84 GB
Хэш (hash) релиза: 639136ccd7bc2221dbd2e5fc4c96f8a1c94aa63e
Подписка на обновления:

Торренты, похожие на Матрица времени Before I Fall скачать торрент

Форум Название Автор Размер S L Добавлен
Зарубежные фильмы 2016-2019 (Новинки зарубежного кино) ·· Матрица времени / Before I Fall (Ри Руссо-Янг) [2017 г., Триллер, драма, детектив, BDRip 1080p] US Transfer | Лицензия Galfimbul 1614312446115.03 GB 0 0 1519203014

11:50

21-Фев-18

Зарубежные фильмы до 2016 ·· Матрица времени / Before I Fall (Ри Руссо-Янг / Ry Russo-Young) [2017, США, триллер, драма, детектив, BDRip 1080p] Dub + Ukr + Sub Rus, Eng + Original Eng Galfimbul 1614312446115.03 GB 0 0 1519124664

14:04

20-Фев-18

Зарубежные фильмы 2016-2019 (Новинки зарубежного кино) ·· Матрица времени / Before I Fall (Ри Руссо-Янг / Ry Russo-Young) [2017, США, триллер, драма, детектив, BDRip] [US-Transfer] Dub + Ukr MVO + Original Eng + Sub Rus, Eng Galfimbul 23145044812.16 GB 0 0 1511289028

21:30

21-Ноя-17

Зарубежные фильмы до 2016 ·· Матрица времени / Before I Fall (Ри Руссо-Янг / Ry Russo-Young) [2017, США, триллер, драма, детектив, Blu-ray disc 1080p] [RUS] Galfimbul 2042912699619.03 GB 0 0 1509719858

17:37

3-Ноя-17

Зарубежные фильмы 2016-2019 (Новинки зарубежного кино) ·· Матрица времени / Before I Fall (Ри Руссо-Янг) [2017 г., Триллер, драма, детектив, BDRip 1080p] DUB | Лицензия Galfimbul 99958055569.31 GB 0 0 1509285976

17:06

29-Окт-17

Зарубежные фильмы 2016-2019 (Новинки зарубежного кино) ·· Матрица времени / Before I Fall (Ри Руссо-Янг) [2017 г., Триллер, драма, детектив, BDRip 720p] DUB | Лицензия Galfimbul 60329038665.62 GB 0 0 1509285967

17:06

29-Окт-17

Зарубежные фильмы 2016-2019 (Новинки зарубежного кино) ·· Матрица времени / Before I Fall (2017) BDRemux 1080p | RUS Transfer | Лицензия Galfimbul 1719352833016.01 GB 0 0 1509283811

16:30

29-Окт-17

Зарубежные фильмы 2016-2019 (Новинки зарубежного кино) ·· Матрица времени / Before I Fall (Ри Руссо-Янг / Ry Russo-Young) [2017, США, триллер, драма, детектив, BDRip] Dub Galfimbul 779601920743 MB 0 0 1503041415

10:30

18-Авг-17

Зарубежные фильмы 2016-2019 (Новинки зарубежного кино) ·· Матрица времени / Before I Fall (Ри Руссо-Янг / Ry Russo-Young) [2017, США, триллер, драма, детектив, BDRip-AVC] Dub Galfimbul 15608961781.45 GB 0 0 1503039680

10:01

18-Авг-17

Зарубежные фильмы 2016-2019 (Новинки зарубежного кино) ·· Матрица времени / Before I Fall (Ри Руссо-Янг) [2017, триллер, драма, детектив, BDRip 720p] Galfimbul 43433809244.05 GB 0 0 1495083140

07:52

18-Май-17

Зарубежные фильмы 2016-2019 (Новинки зарубежного кино) ·· Матрица времени / Before I Fall (Ри Руссо-Янг) [2017, триллер, драма, детектив, HDRip] Galfimbul 14708285441.37 GB 0 0 1495083135

07:52

18-Май-17

Зарубежные фильмы 2016-2019 (Новинки зарубежного кино) ·· Матрица времени / Before I Fall (Ри Руссо-Янг) [2017, триллер, драма, детектив, BDRip 1080p] Galfimbul 82513180627.68 GB 0 0 1495083124

07:52

18-Май-17

Зарубежные фильмы 2016-2019 (Новинки зарубежного кино) ·· Матрица времени / Before I Fall (Ри Руссо-Янг) [2017, триллер, драма, детектив, CAMRip] Galfimbul 14677217281.37 GB 0 0 1492605656

15:40

19-Апр-17

Еще никто не оставлял запись к записи скачать торрент Матрица времени Before I Fall . Будь первым!

!Обратная связь