Скачать через торрент Матрица времени Before I Fall Фильм бесплатно в хорошем качестве torrent

Скачивайте на UnionPeer.org фильмы через торрент без регистрации. Новинки кино в хорошем качестве через торрент. На UnionPeer.org можно скачать через торрент фильмы 2014 и 2015 годов. Самые новые фильмы.

Скачать торрент Матрица времени Before I Fall бесплатно через .torrent фильм мультфильм сериал

Статистика раздачи
Размер:  1.45 GB   |    Зарегистрирован:  6 лет 6 месяцев   |    .torrent скачан:  344 раза   |   
Раздают:  1  
 

Скачать Матрица времени / Before I Fall (Ри Руссо-Янг / Ry Russo-Young) [2017, США, триллер, драма, детектив, BDRip-AVC] Dub через torrent

 
 
Автор Сообщение

Galfimbul

avatar Galfimbul


Матрица времени / Before I Fall
«Чтобы вырваться из петли времени, ты должен найти себя»
Страна: США
Жанр: триллер, драма, детектив
Год выпуска: 2017
Продолжительность: 01:38:47Перевод: Профессиональный (дублированный) iTunes
Субтитры: нет
Оригинальная аудиодорожка: нетРежиссер: Ри Руссо-Янг / Ry Russo-YoungВ ролях: Зои Дойч, Холстон Сейдж, Логан Миллер, Киан Лоули, Елена Кампурис, Синти У, Медальон Рахими, Эрика Тремблэй, Лив Хьюсон, Николас ЛиОписание: Саманта — крутая девчонка, которой всегда и во всем везло. Но в тот день, в пятницу, 12 февраля, что-то пошло не так, а потом та авария на трассе... Саманта оказалась в заколдованном круге проклятого дня, и теперь она вынуждена проживать ужас той пятницы снова и снова. Чтобы распутать петлю времени, она должна вычислить ошибку и исправить неверный шаг. Но каждый раз что-то не срабатывает... Качество видео: BDRip-AVC / Before.I.Fall.2017.REMUX.BluRay.1080p.AVC.DTS-HD.MA5.1-iFT
Формат видео: MKVВидео: MPEG-4 AVC, 1056x440 (2.40:1), 23.976 fps, ~1720 kbps avg, 0.154 bit/pixel
Аудио: 48 kHz, AC3 Dolby Digital, 3/2 (L,C,R,l,r) + LFE ch, ~384 kbps avg
Complete name : D:\Раздачи\Матрица времени (2017) BDRip-AVC_ivanes20031987.mkv
Format : Matroska
Format version : Version 2
File size : 1.45 GiB
Duration : 1 h 38 min
Overall bit rate : 2 106 kb/s
Encoded date : UTC 2017-08-15 10:58:03
Writing application : mkvmerge v4.8.0 ('I Got The...') сборка от May 24 2011 03:12:58
Writing library : libebml v1.2.0 + libmatroska v1.1.0
Cover : Yes
Attachments : cover.png

Video
ID : 1
Format : AVC
Format/Info : Advanced Video Codec
Format profile : [email protected]
Format settings, CABAC : Yes
Format settings, RefFrames : 10 frames
Codec ID : V_MPEG4/ISO/AVC
Duration : 1 h 38 min
Bit rate : 1 720 kb/s
Width : 1 056 pixels
Height : 440 pixels
Display aspect ratio : 2.40:1
Frame rate mode : Constant
Frame rate : 23.976 (24000/1001) FPS
Color space : YUV
Chroma subsampling : 4:2:0
Bit depth : 8 bits
Scan type : Progressive
Bits/(Pixel*Frame) : 0.154
Stream size : 1.16 GiB (80%)
Writing library : x264 core 152 r2851kMod ba24899
Encoding settings : cabac=1 / ref=10 / deblock=1:-3:-2 / analyse=0x3:0x113 / me=umh / subme=10 / psy=1 / fade_compensate=0.00 / psy_rd=1.00:0.00 / mixed_ref=1 / me_range=32 / chroma_me=1 / trellis=2 / 8x8dct=1 / cqm=0 / deadzone=21,11 / fast_pskip=0 / chroma_qp_offset=-2 / threads=12 / lookahead_threads=3 / sliced_threads=0 / nr=0 / decimate=0 / interlaced=0 / bluray_compat=0 / constrained_intra=0 / bframes=10 / b_pyramid=2 / b_adapt=2 / b_bias=0 / direct=1 / weightb=1 / open_gop=0 / weightp=2 / keyint=240 / keyint_min=23 / scenecut=40 / intra_refresh=0 / rc_lookahead=60 / rc=2pass / mbtree=0 / bitrate=1720 / ratetol=1.0 / qcomp=0.60 / qpmin=0 / qpmax=69 / qpstep=4 / cplxblur=20.0 / qblur=0.5 / vbv_maxrate=50000 / vbv_bufsize=62500 / nal_hrd=none / filler=0 / ip_ratio=1.40 / pb_ratio=1.30 / aq=1:1.00
Default : Yes
Forced : No

Audio
ID : 2
Format : AC-3
Format/Info : Audio Coding 3
Format settings, Endianness : Big
Codec ID : A_AC3
Duration : 1 h 38 min
Bit rate mode : Constant
Bit rate : 384 kb/s
Channel(s) : 6 channels
Channel positions : Front: L C R, Side: L R, LFE
Sampling rate : 48.0 kHz
Frame rate : 31.250 FPS (1536 SPF)
Bit depth : 16 bits
Compression mode : Lossy
Stream size : 271 MiB (18%)
Title : iTunes
Language : Russian
Service kind : Complete Main
Default : Yes
Forced : No


Внимание! AdBlock блокирует показ скриншотов, все вопросы к разработчикам )))
Трекер:  [ 18-Авг-2017 10:01 ]

  

Скачать .torrent

Размер .torrent файла 15 KB


Размер: 1.45 GB
Хэш (hash) релиза: f9dd1c20ff6c01d7e2e7527853a039fb8847bc9d
Подписка на обновления:

Торренты, похожие на Матрица времени Before I Fall скачать торрент

Форум Название Автор Размер S L Добавлен
Зарубежные фильмы 2016-2019 (Новинки зарубежного кино) ·· Матрица времени / Before I Fall (Ри Руссо-Янг) [2017 г., Триллер, драма, детектив, BDRip 1080p] US Transfer | Лицензия Galfimbul 1614312446115.03 GB 0 0 1519203014

11:50

21-Фев-18

Зарубежные фильмы до 2016 ·· Матрица времени / Before I Fall (Ри Руссо-Янг / Ry Russo-Young) [2017, США, триллер, драма, детектив, BDRip 1080p] Dub + Ukr + Sub Rus, Eng + Original Eng Galfimbul 1614312446115.03 GB 0 0 1519124664

14:04

20-Фев-18

Зарубежные фильмы 2016-2019 (Новинки зарубежного кино) ·· Матрица времени / Before I Fall (Ри Руссо-Янг / Ry Russo-Young) [2017, США, триллер, драма, детектив, BDRip] [US-Transfer] Dub + Ukr MVO + Original Eng + Sub Rus, Eng Galfimbul 23145044812.16 GB 0 0 1511289028

21:30

21-Ноя-17

Зарубежные фильмы до 2016 ·· Матрица времени / Before I Fall (Ри Руссо-Янг / Ry Russo-Young) [2017, США, триллер, драма, детектив, Blu-ray disc 1080p] [RUS] Galfimbul 2042912699619.03 GB 0 0 1509719858

17:37

3-Ноя-17

Зарубежные фильмы 2016-2019 (Новинки зарубежного кино) ·· Матрица времени / Before I Fall (Ри Руссо-Янг) [2017 г., Триллер, драма, детектив, BDRip 1080p] DUB | Лицензия Galfimbul 99958055569.31 GB 0 0 1509285976

17:06

29-Окт-17

Зарубежные фильмы 2016-2019 (Новинки зарубежного кино) ·· Матрица времени / Before I Fall (Ри Руссо-Янг) [2017 г., Триллер, драма, детектив, BDRip 720p] DUB | Лицензия Galfimbul 60329038665.62 GB 0 0 1509285967

17:06

29-Окт-17

Зарубежные фильмы 2016-2019 (Новинки зарубежного кино) ·· Матрица времени / Before I Fall (2017) BDRemux 1080p | RUS Transfer | Лицензия Galfimbul 1719352833016.01 GB 0 0 1509283811

16:30

29-Окт-17

Зарубежные фильмы 2016-2019 (Новинки зарубежного кино) ·· Матрица времени / Before I Fall (Ри Руссо-Янг / Ry Russo-Young) [2017, США, триллер, драма, детектив, BDRip] Dub Galfimbul 779601920743 MB 0 0 1503041415

10:30

18-Авг-17

Зарубежные фильмы до 2016 ·· Матрица времени / Before I Fall (Ри Руссо-Янг / Ry Russo-Young) [2017, США, Триллер, драма, детектив, BDRip 720p] Dub (iTunes) + Sub Rus, Eng + Original Eng Galfimbul 73394952856.84 GB 0 0 1502802562

16:09

15-Авг-17

Зарубежные фильмы 2016-2019 (Новинки зарубежного кино) ·· Матрица времени / Before I Fall (Ри Руссо-Янг) [2017, триллер, драма, детектив, BDRip 720p] Galfimbul 43433809244.05 GB 0 0 1495083140

07:52

18-Май-17

Зарубежные фильмы 2016-2019 (Новинки зарубежного кино) ·· Матрица времени / Before I Fall (Ри Руссо-Янг) [2017, триллер, драма, детектив, HDRip] Galfimbul 14708285441.37 GB 0 0 1495083135

07:52

18-Май-17

Зарубежные фильмы 2016-2019 (Новинки зарубежного кино) ·· Матрица времени / Before I Fall (Ри Руссо-Янг) [2017, триллер, драма, детектив, BDRip 1080p] Galfimbul 82513180627.68 GB 0 0 1495083124

07:52

18-Май-17

Зарубежные фильмы 2016-2019 (Новинки зарубежного кино) ·· Матрица времени / Before I Fall (Ри Руссо-Янг) [2017, триллер, драма, детектив, CAMRip] Galfimbul 14677217281.37 GB 0 0 1492605656

15:40

19-Апр-17

Еще никто не оставлял запись к записи скачать торрент Матрица времени Before I Fall . Будь первым!

!Обратная связь