Скачать через торрент Матрица времени Before I Fall Фильм бесплатно в хорошем качестве torrent

Скачивайте на UnionPeer.org фильмы через торрент без регистрации. Новинки кино в хорошем качестве через торрент. На UnionPeer.org можно скачать через торрент фильмы 2014 и 2015 годов. Самые новые фильмы.

Скачать торрент Матрица времени Before I Fall бесплатно через .torrent фильм мультфильм сериал

Статистика раздачи
Размер:  743 MB   |    Зарегистрирован:  6 лет 6 месяцев   |    .torrent скачан:  136 раз   |   
Раздают:  1  
 

Скачать Матрица времени / Before I Fall (Ри Руссо-Янг / Ry Russo-Young) [2017, США, триллер, драма, детектив, BDRip] Dub через torrent

 
 
Автор Сообщение

Galfimbul

avatar Galfimbul


Матрица времени / Before I Fall

Страна: США
Жанр: триллер, драма, детектив
Год выпуска: 2017
Продолжительность: 01:38:47

Перевод: Профессиональный (дублированный)
Субтитры: нет
Оригинальная аудиодорожка: нетРежиссер: Ри Руссо-Янг / Ry Russo-YoungВ ролях: Зои Дойч, Холстон Сейдж, Логан Миллер, Киан Лоули, Елена Кампурис, Синти У, Медальон Рахими, Эрика Тремблэй, Лив Хьюсон, Николас ЛиОписание: Саманта — крутая девчонка, которой всегда и во всем везло. Но в тот день, в пятницу, 12 февраля, что-то пошло не так, а потом та авария на трассе... Саманта оказалась в заколдованном круге проклятого дня, и теперь она вынуждена проживать ужас той пятницы снова и снова. Чтобы распутать петлю времени, она должна вычислить ошибку и исправить неверный шаг. Но каждый раз что-то не срабатывает...Качество видео: BDRip | BEFORE_I_FALL_REMUX_HDCLUB
Формат видео: AVI

Видео: 688x288 (2.39:1), 23.976 fps, XviD build 73 ~914 kbps avg, 0.19 bit/pixel
Аудио: 48 kHz, MPEG Layer 3, 2 ch, ~128.00 kbps avgСкачать сэмпл
Format                      : AVI
Format/Info                 : Audio Video Interleave
File size                   : 743 MiB
Duration                    : 1 h 38 min
Overall bit rate            : 1 052 kb/s
Writing application         : VirtualDubMod 1.5.10.3 | www.virtualdub-fr.org || (build 2550/release)
Writing library             : VirtualDubMod build 2550/release

Video
ID                          : 0
Format                      : MPEG-4 Visual
Format profile              : Advanced Simple@L5
Format settings, BVOP       : 1
Format settings, QPel       : No
Format settings, GMC        : No warppoints
Format settings, Matrix     : Custom
Codec ID                    : XVID
Codec ID/Hint               : XviD
Duration                    : 1 h 38 min
Bit rate                    : 915 kb/s
Width                       : 688 pixels
Height                      : 288 pixels
Display aspect ratio        : 2.40:1
Frame rate                  : 23.976 (24000/1001) FPS
Color space                 : YUV
Chroma subsampling          : 4:2:0
Bit depth                   : 8 bits
Scan type                   : Progressive
Compression mode            : Lossy
Bits/(Pixel*Frame)          : 0.193
Stream size                 : 646 MiB (87%)
Writing library             : XviD 73

Audio
ID                          : 1
Format                      : MPEG Audio
Format version              : Version 1
Format profile              : Layer 3
Codec ID                    : 55
Codec ID/Hint               : MP3
Duration                    : 1 h 38 min
Bit rate mode               : Constant
Bit rate                    : 128 kb/s
Channel(s)                  : 2 channels
Sampling rate               : 48.0 kHz
Compression mode            : Lossy
Stream size                 : 90.5 MiB (12%)
Alignment                   : Aligned on interleaves
Interleave, duration        : 42  ms (1.00 video frame)
Interleave, preload duratio : 504  ms
Writing library             : LAME3.99r
Encoding settings           : -m s -V 4 -q 2 -lowpass 17 -b 128


Внимание! AdBlock блокирует показ скриншотов, все вопросы к разработчикам )))
Трекер:  [ 18-Авг-2017 10:30 ]

  

Скачать .torrent

Размер .torrent файла 15 KB


Размер: 743 MB
Хэш (hash) релиза: 36dc5c6078d084c8ed2acad2ebb9db7f44ad5099
Подписка на обновления:

Торренты, похожие на Матрица времени Before I Fall скачать торрент

Форум Название Автор Размер S L Добавлен
Зарубежные фильмы 2016-2019 (Новинки зарубежного кино) ·· Матрица времени / Before I Fall (Ри Руссо-Янг) [2017 г., Триллер, драма, детектив, BDRip 1080p] US Transfer | Лицензия Galfimbul 1614312446115.03 GB 0 0 1519203014

11:50

21-Фев-18

Зарубежные фильмы до 2016 ·· Матрица времени / Before I Fall (Ри Руссо-Янг / Ry Russo-Young) [2017, США, триллер, драма, детектив, BDRip 1080p] Dub + Ukr + Sub Rus, Eng + Original Eng Galfimbul 1614312446115.03 GB 0 0 1519124664

14:04

20-Фев-18

Зарубежные фильмы 2016-2019 (Новинки зарубежного кино) ·· Матрица времени / Before I Fall (Ри Руссо-Янг / Ry Russo-Young) [2017, США, триллер, драма, детектив, BDRip] [US-Transfer] Dub + Ukr MVO + Original Eng + Sub Rus, Eng Galfimbul 23145044812.16 GB 0 0 1511289028

21:30

21-Ноя-17

Зарубежные фильмы до 2016 ·· Матрица времени / Before I Fall (Ри Руссо-Янг / Ry Russo-Young) [2017, США, триллер, драма, детектив, Blu-ray disc 1080p] [RUS] Galfimbul 2042912699619.03 GB 0 0 1509719858

17:37

3-Ноя-17

Зарубежные фильмы 2016-2019 (Новинки зарубежного кино) ·· Матрица времени / Before I Fall (Ри Руссо-Янг) [2017 г., Триллер, драма, детектив, BDRip 1080p] DUB | Лицензия Galfimbul 99958055569.31 GB 0 0 1509285976

17:06

29-Окт-17

Зарубежные фильмы 2016-2019 (Новинки зарубежного кино) ·· Матрица времени / Before I Fall (Ри Руссо-Янг) [2017 г., Триллер, драма, детектив, BDRip 720p] DUB | Лицензия Galfimbul 60329038665.62 GB 0 0 1509285967

17:06

29-Окт-17

Зарубежные фильмы 2016-2019 (Новинки зарубежного кино) ·· Матрица времени / Before I Fall (2017) BDRemux 1080p | RUS Transfer | Лицензия Galfimbul 1719352833016.01 GB 0 0 1509283811

16:30

29-Окт-17

Зарубежные фильмы 2016-2019 (Новинки зарубежного кино) ·· Матрица времени / Before I Fall (Ри Руссо-Янг / Ry Russo-Young) [2017, США, триллер, драма, детектив, BDRip-AVC] Dub Galfimbul 15608961781.45 GB 0 0 1503039680

10:01

18-Авг-17

Зарубежные фильмы до 2016 ·· Матрица времени / Before I Fall (Ри Руссо-Янг / Ry Russo-Young) [2017, США, Триллер, драма, детектив, BDRip 720p] Dub (iTunes) + Sub Rus, Eng + Original Eng Galfimbul 73394952856.84 GB 0 0 1502802562

16:09

15-Авг-17

Зарубежные фильмы 2016-2019 (Новинки зарубежного кино) ·· Матрица времени / Before I Fall (Ри Руссо-Янг) [2017, триллер, драма, детектив, BDRip 720p] Galfimbul 43433809244.05 GB 0 0 1495083140

07:52

18-Май-17

Зарубежные фильмы 2016-2019 (Новинки зарубежного кино) ·· Матрица времени / Before I Fall (Ри Руссо-Янг) [2017, триллер, драма, детектив, HDRip] Galfimbul 14708285441.37 GB 0 0 1495083135

07:52

18-Май-17

Зарубежные фильмы 2016-2019 (Новинки зарубежного кино) ·· Матрица времени / Before I Fall (Ри Руссо-Янг) [2017, триллер, драма, детектив, BDRip 1080p] Galfimbul 82513180627.68 GB 0 0 1495083124

07:52

18-Май-17

Зарубежные фильмы 2016-2019 (Новинки зарубежного кино) ·· Матрица времени / Before I Fall (Ри Руссо-Янг) [2017, триллер, драма, детектив, CAMRip] Galfimbul 14677217281.37 GB 0 0 1492605656

15:40

19-Апр-17

Еще никто не оставлял запись к записи скачать торрент Матрица времени Before I Fall . Будь первым!

!Обратная связь