Скачать через торрент Берлинский синдром Berlin Syndrome Фильм бесплатно в хорошем качестве torrent

Скачивайте на UnionPeer.org фильмы через торрент без регистрации. Новинки кино в хорошем качестве через торрент. На UnionPeer.org можно скачать через торрент фильмы 2014 и 2015 годов. Самые новые фильмы.

Скачать торрент Берлинский синдром Berlin Syndrome бесплатно через .torrent фильм мультфильм сериал

Статистика раздачи
Размер:  1.45 GB   |    Зарегистрирован:  6 лет 6 месяцев   |    .torrent скачан:  100 раз   |   
Раздают:  1  
 

Скачать Берлинский синдром / Berlin Syndrome (Кейт Шортланд / Cate Shortland) [2017, Австралия, Германия, триллер, драма, детектив, WEB-DLRip-AVC] Dub через torrent

 
 
Автор Сообщение

Galfimbul

avatar Galfimbul


Берлинский синдром / Berlin Syndrome
«Если носить маску слишком долго, она станет лицом»
Страна: Австралия, Германия
Жанр: триллер, драма, детектив
Год выпуска: 2017
Продолжительность: 01:55:57Перевод: Профессиональный (дублированный) iTunes
Субтитры: нет
Оригинальная аудиодорожка: нетРежиссер: Кейт Шортланд / Cate ShortlandВ ролях: Тереза Палмер, Макс Римельт, Люси Арон, Сем Тункай, Маттиас Хабих, Эмма Бадинг, Майя Абсберг, Морган Ферру, Кристина Костив, Чарли ТорнОписание: Когда во время отпуска в Берлине австралийская фотожурналистка Клэр встречает Энди, харизматичного местного парня, между ними мгновенно возникает взаимное притяжение. После совместной прогулки по улицам Берлина наступает ночь страсти, но то, что на первый взгляд кажется началом бурного романа, неожиданно принимает зловещий оборот. Клэр просыпается на следующее утро и понимает, что Энди ушел на работу, оставив ее запертой в своей квартире. Казалось бы, нелепая ошибка. За исключением того, что он не собирается ее отпускать. Когда-либо. Качество видео: WEB-DLRip-AVC / Berlin.Syndrome.2017.D.WEB-DL.1080p
Формат видео: MKVВидео: MPEG-4 AVC, 1048x432 (2.40:1), 24.000 fps, ~1409 kbps avg, 0.130 bit/pixel
Аудио: 48 kHz, AC3 Dolby Digital, 3/2 (L,C,R,l,r) + LFE ch, ~384 kbps avg
Complete name : D:\Раздачи\Берлинский синдром (2017)WEB-DLRip-AVC_ivanes20031987.mkv
Format : Matroska
Format version : Version 2
File size : 1.45 GiB
Duration : 1 h 55 min
Overall bit rate : 1 794 kb/s
Encoded date : UTC 2017-08-21 11:36:49
Writing application : mkvmerge v4.8.0 ('I Got The...') сборка от May 24 2011 03:12:58
Writing library : libebml v1.2.0 + libmatroska v1.1.0

Video
ID : 1
Format : AVC
Format/Info : Advanced Video Codec
Format profile : [email protected]
Format settings, CABAC : Yes
Format settings, RefFrames : 13 frames
Codec ID : V_MPEG4/ISO/AVC
Duration : 1 h 55 min
Bit rate : 1 409 kb/s
Width : 1 048 pixels
Height : 432 pixels
Display aspect ratio : 2.40:1
Frame rate mode : Constant
Frame rate : 24.000 FPS
Color space : YUV
Chroma subsampling : 4:2:0
Bit depth : 8 bits
Scan type : Progressive
Bits/(Pixel*Frame) : 0.130
Stream size : 1.11 GiB (77%)
Writing library : x264 core 152 r2851kMod ba24899
Encoding settings : cabac=1 / ref=13 / deblock=1:-3:-3 / analyse=0x3:0x113 / me=umh / subme=10 / psy=1 / fade_compensate=0.00 / psy_rd=1.00:0.00 / mixed_ref=1 / me_range=32 / chroma_me=1 / trellis=2 / 8x8dct=1 / cqm=0 / deadzone=21,11 / fast_pskip=0 / chroma_qp_offset=-2 / threads=12 / lookahead_threads=3 / sliced_threads=0 / nr=0 / decimate=0 / interlaced=0 / bluray_compat=0 / constrained_intra=0 / bframes=13 / b_pyramid=2 / b_adapt=2 / b_bias=0 / direct=1 / weightb=1 / open_gop=0 / weightp=2 / keyint=240 / keyint_min=24 / scenecut=40 / intra_refresh=0 / rc_lookahead=60 / rc=2pass / mbtree=0 / bitrate=1409 / ratetol=1.0 / qcomp=0.60 / qpmin=0 / qpmax=69 / qpstep=4 / cplxblur=20.0 / qblur=0.5 / vbv_maxrate=50000 / vbv_bufsize=62500 / nal_hrd=none / filler=0 / ip_ratio=1.40 / pb_ratio=1.30 / aq=1:1.00
Default : Yes
Forced : No

Audio
ID : 2
Format : AC-3
Format/Info : Audio Coding 3
Format settings, Endianness : Big
Codec ID : A_AC3
Duration : 1 h 55 min
Bit rate mode : Constant
Bit rate : 384 kb/s
Channel(s) : 6 channels
Channel positions : Front: L C R, Side: L R, LFE
Sampling rate : 48.0 kHz
Frame rate : 31.250 FPS (1536 SPF)
Bit depth : 16 bits
Compression mode : Lossy
Stream size : 318 MiB (21%)
Title : iTunes
Language : Russian
Service kind : Complete Main
Default : Yes
Forced : No


Внимание! AdBlock блокирует показ скриншотов, все вопросы к разработчикам )))
Трекер:  [ 23-Авг-2017 22:01 ]

  

Скачать .torrent

Размер .torrent файла 15 KB


Размер: 1.45 GB
Хэш (hash) релиза: a95661b30d135acb0cf2f1a6f663eaa24065dd4c
Подписка на обновления:

Торренты, похожие на Берлинский синдром Berlin Syndrome скачать торрент

Форум Название Автор Размер S L Добавлен
Зарубежные фильмы 2016-2019 (Новинки зарубежного кино) ·%· Берлинский синдром / Berlin Syndrome (2017) BDRip от MegaPeer | UK Transfer | Лицензия Galfimbul 15681901091.46 GB 0 0 1589543407

14:50

15-Май-20

Зарубежные фильмы до 2016 ·· Берлинский синдром / Berlin Syndrome (Кейт Шортланд / Cate Shortland) [2016, Австралия, Германия, триллер, драма, детектив, BDRip 720p] [GER Transfer] Dub + VO (BadBajo) + Sub (Rus, Eng) + Original (Eng) Galfimbul 53779319275.01 GB 0 0 1524947426

23:30

28-Апр-18

Зарубежные фильмы 2016-2019 (Новинки зарубежного кино) ·· Берлинский синдром / Berlin Syndrome (Кейт Шортланд / Cate Shortland) [2017, Австралия, Германия, триллер, драма, детектив, BDRip] Dub + Original Eng + Sub Rus, Eng Galfimbul 23402891652.18 GB 0 0 1510675285

19:01

14-Ноя-17

Зарубежные фильмы 2016-2019 (Новинки зарубежного кино) ·· Берлинский синдром / Berlin Syndrome (Кейт Шортланд / Cate Shortland) [2017, Австралия, Германия, триллер, драма, детектив, WEB-DLRip] Dub Galfimbul 15658496001.46 GB 0 0 1503514873

22:01

23-Авг-17

Зарубежные фильмы 2016-2019 (Новинки зарубежного кино) ·· Берлинский синдром / Berlin Syndrome (Кейт Шортланд / Cate Shortland) [2017, Австралия, Германия, Триллер, WEB-DL 1080p] iTunes Galfimbul 46295265354.31 GB 0 0 1503261046

23:30

20-Авг-17

Зарубежные фильмы 2016-2019 (Новинки зарубежного кино) ·· Берлинский синдром / Berlin Syndrome (Кейт Шортланд / Cate Shortland) [2017, Австралия, Германия, Триллер, WEB-DL 720p] iTunes Galfimbul 41357288523.85 GB 0 0 1503261037

23:30

20-Авг-17

Зарубежные фильмы 2016-2019 (Новинки зарубежного кино) ·· Берлинский синдром / Berlin Syndrome (Кейт Шортланд / Cate Shortland) [2017, Австралия, Германия, Триллер, WEB-DL 1080p] Galfimbul 46296116374.31 GB 0 0 1501224612

09:50

28-Июл-17

Зарубежные фильмы 2016-2019 (Новинки зарубежного кино) ·· Берлинский синдром / Berlin Syndrome (Кейт Шортланд / Cate Shortland) [2017, Австралия, Германия, Триллер, WEB-DLRip] VO (BadBajo) Galfimbul 16253480961.51 GB 0 0 1496596203

20:10

4-Июн-17

Еще никто не оставлял запись к записи скачать торрент Берлинский синдром Berlin Syndrome . Будь первым!

!Обратная связь