Скачать порно через торрент Tera Patrick UnionPeer.org бесплатно онлайн HD качество

Скачать новое порно 2015, 2014 новинки через торрент UnionPeer.org

Порно торрент бесплатно ЮнионПир.орг

Статистика раздачи
Размер:  21.34 GB   |    Зарегистрирован:  9 лет 6 месяцев   |    .torrent скачан:  5336 раз   |   
Раздают:  2   Качают:  1  
 

Скачать Tera Patrick (108 роликов) МегаПАК / Самая большая коллекция сцен с Терой на сегодняшний день. ЭКСКЛЮЗИВНЫЕ ВИДЕО! через torrent

 
 
Автор Сообщение

Galfimbul ghost

avatar Galfimbul ghost


Tera Patrick


Страна: USA
Качество: DVDRip
Жанр: All Sex, Anal, Asian, Big Tits, Cumshot, Hardcore, Lesbian, Lingerie, POV, Softcore, Solo

TeraPatrick.com - все видео в формате
Audio: Windows Media Audio 48000Hz stereo 128Kbps [Raw Audio 0]
Video: Windows Media Video 9 720x480 29.97fps 2000Kbps [Raw Video 1]
Complete name : D:\илья\tp-new\Various\18 and Nasty 11.avi
Format : AVI
Format/Info : Audio Video Interleave
File size : 167 MiB
Duration : 27mn 49s
Overall bit rate : 840 Kbps
Writing library : VirtualDub build 13130/release

Video
Format : MPEG-4 Visual
Format settings, BVOP : Yes
Format settings, QPel : No
Format settings, GMC : No warppoints
Format settings, Matrix : Default
Codec ID : DIVX
Codec ID/Info : Project Mayo
Codec ID/Hint : DivX 4
Duration : 27mn 49s
Bit rate : 788 Kbps
Width : 352 pixels
Height : 288 pixels
Display aspect ratio : 1.222
Frame rate : 29.970 fps
Resolution : 24 bits
Scan type : Progressive
Bits/(Pixel*Frame) : 0.259
Stream size : 157 MiB (94%)

Audio
Format : MPEG Audio
Format version : Version 2
Format profile : Layer 3
Codec ID : 55
Codec ID/Hint : MP3
Duration : 27mn 48s
Bit rate mode : Constant
Bit rate : 40.0 Kbps
Channel(s) : 2 channels
Sampling rate : 24.0 KHz
Resolution : 16 bits
Video delay : 13ms
Stream size : 7.96 MiB (5%)
Alignment : Split accross interleaves
Interleave, duration : 33 ms (1.00 video frame)
Interleave, preload duration : 500 ms

General
Complete name : D:\илья\tp-new\Various\Angel Dust.avi
Format : AVI
Format/Info : Audio Video Interleave
Format settings : rec
File size : 303 MiB
Duration : 15mn 33s
Overall bit rate : 2 724 Kbps

Video
Format : MPEG-4 Visual
Codec ID : DIV3
Codec ID/Hint : DivX 3 Low
Duration : 15mn 33s
Bit rate : 2 590 Kbps
Width : 720 pixels
Height : 384 pixels
Display aspect ratio : 1.875
Frame rate : 29.971 fps
Resolution : 24 bits
Bits/(Pixel*Frame) : 0.313
Stream size : 288 MiB (95%)

Audio
Format : MPEG Audio
Format version : Version 1
Format profile : Layer 3
Codec ID : 55
Codec ID/Hint : MP3
Duration : 15mn 33s
Bit rate mode : Constant
Bit rate : 128 Kbps
Channel(s) : 2 channels
Sampling rate : 48.0 KHz
Resolution : 16 bits
Video delay : 17ms
Stream size : 14.2 MiB (5%)
Alignment : Split accross interleaves
Interleave, duration : 2502 ms (74.99 video frames)

General
Complete name : D:\илья\tp-new\Various\Asian Sorority Fever.avi
Format : AVI
Format/Info : Audio Video Interleave
File size : 160 MiB
Duration : 14mn 17s
Overall bit rate : 1 566 Kbps
Writing application : VirtualDubMod 1.5.10.1 (build 2366/release)
Writing library : VirtualDubMod build 2366/release

Video
Format : MPEG-4 Visual
Format profile : Streaming Video@L1
Format settings, BVOP : Yes
Format settings, QPel : Yes
Format settings, GMC : No warppoints
Format settings, Matrix : Default
Muxing mode : Packed bitstream
Codec ID : XVID
Codec ID/Hint : XviD
Duration : 14mn 17s
Bit rate : 1 426 Kbps
Width : 512 pixels
Height : 384 pixels
Display aspect ratio : 4/3
Frame rate : 29.970 fps
Resolution : 24 bits
Colorimetry : 4:2:0
Scan type : Progressive
Bits/(Pixel*Frame) : 0.242
Stream size : 146 MiB (91%)
Writing library : XviD 1.0.2 (UTC 2004-08-29)

Audio
Format : MPEG Audio
Format version : Version 1
Format profile : Layer 3
Codec ID : 55
Codec ID/Hint : MP3
Duration : 14mn 17s
Bit rate mode : Constant
Bit rate : 128 Kbps
Channel(s) : 2 channels
Sampling rate : 48.0 KHz
Resolution : 16 bits
Stream size : 13.1 MiB (8%)
Alignment : Aligned on interleaves
Interleave, duration : 33 ms (1.00 video frame)
Interleave, preload duration : 504 ms

General
Complete name : D:\илья\tp-new\Various\Asian Street Hookers 7.mpg
Format : MPEG-PS
File size : 130 MiB
Duration : 13mn 1s
Overall bit rate : 1 394 Kbps
Writing library : encoded by TMPGEnc (ver. 2.54.37.135)

Video
Format : MPEG Video
Format version : Version 1
Format settings, Matrix : Standard
Duration : 13mn 1s
Bit rate mode : Constant
Bit rate : 1 073 Kbps
Nominal bit rate : 1 150 Kbps
Width : 352 pixels
Height : 240 pixels
Display aspect ratio : 4/3
Frame rate : 29.970 fps
Scan type : Progressive
Bits/(Pixel*Frame) : 0.454
Writing library : TMPGEnc 2.54.37.135

Audio
Format : MPEG Audio
Format version : Version 1
Format profile : Layer 2
Duration : 13mn 1s
Bit rate mode : Constant
Bit rate : 224 Kbps
Channel(s) : 2 channels
Sampling rate : 44.1 KHz
Resolution : 16 bits
Video delay : 72ms

General
Complete name : D:\илья\tp-new\Various\Blind Date.avi
Format : AVI
Format/Info : Audio Video Interleave
File size : 161 MiB
Duration : 13mn 44s
Overall bit rate : 1 637 Kbps
Writing application : Nandub v1.0rc2
Writing library : Nandub build 1852/release

Video
Format : MPEG-4 Visual
Format settings, BVOP : No
Format settings, QPel : No
Format settings, GMC : No warppoints
Format settings, Matrix : Default
Codec ID : XVID
Codec ID/Hint : XviD
Duration : 13mn 44s
Bit rate : 1 500 Kbps
Width : 480 pixels
Height : 360 pixels
Display aspect ratio : 4/3
Frame rate : 23.976 fps
Resolution : 24 bits
Colorimetry : 4:2:0
Scan type : Progressive
Bits/(Pixel*Frame) : 0.362
Stream size : 147 MiB (92%)
Writing library : XviD 0.0.03 (UTC 2002-12-09)

Audio
Format : MPEG Audio
Format version : Version 1
Format profile : Layer 3
Codec ID : 55
Codec ID/Hint : MP3
Duration : 13mn 44s
Bit rate mode : Constant
Bit rate : 128 Kbps
Channel(s) : 2 channels
Sampling rate : 48.0 KHz
Resolution : 16 bits
Video delay : 1ms
Stream size : 12.6 MiB (8%)
Alignment : Split accross interleaves
Interleave, duration : 42 ms (1.00 video frame)
Interleave, preload duration : 500 ms

General
Complete name : D:\илья\tp-new\Various\Caribbean Undercover.avi
Format : AVI
Format/Info : Audio Video Interleave
File size : 92.5 MiB
Duration : 15mn 0s
Overall bit rate : 862 Kbps
Writing application : VirtualDubMod 1.5.10.1 (build 2366/release)
Writing library : VirtualDubMod build 2366/release

Video
Format : MPEG-4 Visual
Codec ID : DIV3
Codec ID/Hint : DivX 3 Low
Duration : 15mn 0s
Bit rate : 754 Kbps
Width : 496 pixels
Height : 384 pixels
Display aspect ratio : 1.292
Frame rate : 29.952 fps
Resolution : 24 bits
Bits/(Pixel*Frame) : 0.132
Stream size : 80.9 MiB (87%)

Audio
Format : MPEG Audio
Format version : Version 1
Format profile : Layer 3
Codec ID : 55
Codec ID/Hint : MP3
Duration : 15mn 0s
Bit rate mode : Constant
Bit rate : 96.0 Kbps
Channel(s) : 2 channels
Sampling rate : 48.0 KHz
Resolution : 16 bits
Video delay : 11ms
Stream size : 10.3 MiB (11%)
Alignment : Split accross interleaves
Interleave, duration : 33 ms (1.00 video frame)
Interleave, preload duration : 500 ms

General
Complete name : D:\илья\tp-new\Various\Carribean Undercover sc3.avi
Format : AVI
Format/Info : Audio Video Interleave
File size : 122 MiB
Duration : 10mn 37s
Overall bit rate : 1 601 Kbps
Writing application : VirtualDubMod 1.5.10.2 (build 2540/release)
Writing library : VirtualDubMod build 2540/release

Video
Format : MPEG-4 Visual
Format profile : Simple@L3
Format settings, BVOP : No
Format settings, QPel : No
Format settings, GMC : No warppoints
Format settings, Matrix : Default
Codec ID : XVID
Codec ID/Hint : XviD
Duration : 10mn 37s
Bit rate : 1 464 Kbps
Width : 480 pixels
Height : 360 pixels
Display aspect ratio : 4/3
Frame rate : 23.976 fps
Resolution : 24 bits
Colorimetry : 4:2:0
Scan type : Progressive
Bits/(Pixel*Frame) : 0.353
Stream size : 111 MiB (91%)
Writing library : XviD 0.0.09 (UTC 2003-03-25)

Audio
Format : MPEG Audio
Format version : Version 1
Format profile : Layer 3
Codec ID : 55
Codec ID/Hint : MP3
Duration : 10mn 37s
Bit rate mode : Constant
Bit rate : 128 Kbps
Channel(s) : 2 channels
Sampling rate : 48.0 KHz
Resolution : 16 bits
Video delay : 1ms
Stream size : 9.73 MiB (8%)
Alignment : Split accross interleaves
Interleave, duration : 42 ms (1.00 video frame)
Interleave, preload duration : 500 ms

General
Complete name : D:\илья\tp-new\Various\Ecstasy Girls 2.avi
Format : AVI
Format/Info : Audio Video Interleave
File size : 108 MiB
Duration : 16mn 40s
Overall bit rate : 906 Kbps
Writing application : VirtualDubMod 1.5.10.1 (build 2366/release)
Writing library : VirtualDubMod build 2366/release

Video
Format : MPEG-4 Visual
Format settings, BVOP : Yes
Format settings, QPel : No
Format settings, GMC : 2 warppoints
Format settings, Matrix : Default
Muxing mode : Packed bitstream
Codec ID : DX50
Codec ID/Hint : DivX 5
Duration : 16mn 40s
Bit rate : 766 Kbps
Width : 480 pixels
Height : 368 pixels
Display aspect ratio : 4/3
Frame rate : 29.970 fps
Resolution : 24 bits
Scan type : Progressive
Bits/(Pixel*Frame) : 0.145
Stream size : 91.4 MiB (85%)
Writing library : DivX 5.0.5 (UTC 2003-04-24)

Audio
Format : MPEG Audio
Format version : Version 1
Format profile : Layer 3
Codec ID : 55
Codec ID/Hint : MP3
Duration : 16mn 40s
Bit rate mode : Constant
Bit rate : 128 Kbps
Channel(s) : 2 channels
Sampling rate : 48.0 KHz
Resolution : 16 bits
Stream size : 15.3 MiB (14%)
Alignment : Aligned on interleaves
Interleave, duration : 33 ms (1.00 video frame)
Interleave, preload duration : 504 ms

General
Complete name : D:\илья\tp-new\Various\Farmer's Daughters Do Beverly Hills.avi
Format : AVI
Format/Info : Audio Video Interleave
File size : 76.6 MiB
Duration : 11mn 31s
Overall bit rate : 929 Kbps
Writing application : VirtualDubMod 1.5.10.1 (build 2366/release)
Writing library : VirtualDubMod build 2366/release

Video
Format : MPEG-4 Visual
Codec ID : DIV3
Codec ID/Hint : DivX 3 Low
Duration : 11mn 31s
Bit rate : 821 Kbps
Width : 496 pixels
Height : 384 pixels
Display aspect ratio : 1.292
Frame rate : 29.970 fps
Resolution : 24 bits
Bits/(Pixel*Frame) : 0.144
Stream size : 67.7 MiB (88%)

Audio
Format : MPEG Audio
Format version : Version 1
Format profile : Layer 3
Codec ID : 55
Codec ID/Hint : MP3
Duration : 11mn 31s
Bit rate mode : Constant
Bit rate : 96.0 Kbps
Channel(s) : 2 channels
Sampling rate : 48.0 KHz
Resolution : 16 bits
Video delay : 2ms
Stream size : 7.91 MiB (10%)
Alignment : Split accross interleaves
Interleave, duration : 33 ms (1.00 video frame)
Interleave, preload duration : 500 ms

General
Complete name : D:\илья\tp-new\Various\Fire and Ice.avi
Format : AVI
Format/Info : Audio Video Interleave
File size : 108 MiB
Duration : 16mn 35s
Overall bit rate : 908 Kbps
Writing application : transcode-0.6.9

Video
Format : MPEG-4 Visual
Format settings, BVOP : No
Format settings, QPel : No
Format settings, GMC : No warppoints
Format settings, Matrix : Default
Codec ID : XVID
Codec ID/Hint : XviD
Duration : 16mn 35s
Bit rate : 800 Kbps
Width : 480 pixels
Height : 360 pixels
Display aspect ratio : 4/3
Frame rate : 23.976 fps
Resolution : 24 bits
Colorimetry : 4:2:0
Scan type : Progressive
Bits/(Pixel*Frame) : 0.193
Stream size : 95.0 MiB (88%)

Audio
Format : MPEG Audio
Format version : Version 1
Format profile : Layer 3
Codec ID : 55
Codec ID/Hint : MP3
Duration : 16mn 35s
Bit rate mode : Constant
Bit rate : 96.0 Kbps
Channel(s) : 2 channels
Sampling rate : 44.1 KHz
Resolution : 16 bits
Stream size : 11.4 MiB (11%)
Alignment : Aligned on interleaves
Interleave, duration : 26 ms (0.63 video frame)

General
Complete name : D:\илья\tp-new\Various\Forbidden Tales sc1.avi
Format : AVI
Format/Info : Audio Video Interleave
File size : 165 MiB
Duration : 12mn 32s
Overall bit rate : 1 840 Kbps
Writing library : Boilsoft Joiner build 2411/release

Video
Format : MPEG-4 Visual
Format settings, BVOP : Yes
Format settings, QPel : No
Format settings, GMC : 2 warppoints
Format settings, Matrix : Default
Muxing mode : Packed bitstream
Codec ID : DX50
Codec ID/Hint : DivX 5
Duration : 12mn 32s
Bit rate : 1 700 Kbps
Width : 640 pixels
Height : 464 pixels
Display aspect ratio : 1.379
Frame rate : 29.970 fps
Resolution : 24 bits
Scan type : Progressive
Bits/(Pixel*Frame) : 0.191
Stream size : 153 MiB (92%)
Writing library : DivX 5.0.5 (UTC 2003-04-24)

Audio
Format : MPEG Audio
Format version : Version 1
Format profile : Layer 3
Codec ID : 55
Codec ID/Hint : MP3
Duration : 12mn 32s
Bit rate mode : Constant
Bit rate : 128 Kbps
Channel(s) : 2 channels
Sampling rate : 44.1 KHz
Resolution : 16 bits
Video delay : 22ms
Stream size : 11.5 MiB (7%)
Alignment : Split accross interleaves
Interleave, duration : 33 ms (1.00 video frame)
Interleave, preload duration : 500 ms

General
Complete name : D:\илья\tp-new\Various\Forbidden Tales sc2.avi
Format : AVI
Format/Info : Audio Video Interleave
File size : 191 MiB
Duration : 13mn 27s
Overall bit rate : 1 987 Kbps
Writing library : Boilsoft Joiner build 2411/release

Video
Format : MPEG-4 Visual
Format settings, BVOP : Yes
Format settings, QPel : No
Format settings, GMC : 2 warppoints
Format settings, Matrix : Default
Muxing mode : Packed bitstream
Codec ID : DX50
Codec ID/Hint : DivX 5
Duration : 13mn 27s
Bit rate : 1 848 Kbps
Width : 640 pixels
Height : 464 pixels
Display aspect ratio : 1.379
Frame rate : 29.970 fps
Resolution : 24 bits
Scan type : Progressive
Bits/(Pixel*Frame) : 0.208
Stream size : 178 MiB (93%)
Writing library : DivX 5.0.5 (UTC 2003-04-24)

Audio
Format : MPEG Audio
Format version : Version 1
Format profile : Layer 3
Codec ID : 55
Codec ID/Hint : MP3
Duration : 13mn 27s
Bit rate mode : Constant
Bit rate : 128 Kbps
Channel(s) : 2 channels
Sampling rate : 44.1 KHz
Resolution : 16 bits
Video delay : 14ms
Stream size : 12.3 MiB (6%)
Alignment : Split accross interleaves
Interleave, duration : 33 ms (1.00 video frame)
Interleave, preload duration : 500 ms

General
Complete name : D:\илья\tp-new\Various\Forbidden Tales sc3.avi
Format : AVI
Format/Info : Audio Video Interleave
File size : 181 MiB
Duration : 11mn 57s
Overall bit rate : 2 119 Kbps
Writing library : Boilsoft Joiner build 2411/release

Video
Format : MPEG-4 Visual
Format settings, BVOP : Yes
Format settings, QPel : No
Format settings, GMC : 2 warppoints
Format settings, Matrix : Default
Muxing mode : Packed bitstream
Codec ID : DX50
Codec ID/Hint : DivX 5
Duration : 11mn 57s
Bit rate : 1 979 Kbps
Width : 640 pixels
Height : 464 pixels
Display aspect ratio : 1.379
Frame rate : 29.970 fps
Resolution : 24 bits
Scan type : Progressive
Bits/(Pixel*Frame) : 0.222
Stream size : 169 MiB (93%)
Writing library : DivX 5.0.5 (UTC 2003-04-24)

Audio
Format : MPEG Audio
Format version : Version 1
Format profile : Layer 3
Codec ID : 55
Codec ID/Hint : MP3
Duration : 11mn 57s
Bit rate mode : Constant
Bit rate : 128 Kbps
Channel(s) : 2 channels
Sampling rate : 44.1 KHz
Resolution : 16 bits
Video delay : 8ms
Stream size : 10.9 MiB (6%)
Alignment : Split accross interleaves
Interleave, duration : 33 ms (1.00 video frame)
Interleave, preload duration : 500 ms

General
Complete name : D:\илья\tp-new\Various\Forbidden Tales sc4.avi
Format : AVI
Format/Info : Audio Video Interleave
File size : 202 MiB
Duration : 11mn 48s
Overall bit rate : 2 390 Kbps
Writing library : Boilsoft Joiner build 2411/release

Video
Format : MPEG-4 Visual
Format settings, BVOP : Yes
Format settings, QPel : No
Format settings, GMC : 2 warppoints
Format settings, Matrix : Default
Muxing mode : Packed bitstream
Codec ID : DX50
Codec ID/Hint : DivX 5
Duration : 11mn 48s
Bit rate : 2 251 Kbps
Width : 640 pixels
Height : 464 pixels
Display aspect ratio : 1.379
Frame rate : 29.970 fps
Resolution : 24 bits
Scan type : Progressive
Bits/(Pixel*Frame) : 0.253
Stream size : 190 MiB (94%)
Writing library : DivX 5.0.5 (UTC 2003-04-24)

Audio
Format : MPEG Audio
Format version : Version 1
Format profile : Layer 3
Codec ID : 55
Codec ID/Hint : MP3
Duration : 11mn 48s
Bit rate mode : Constant
Bit rate : 128 Kbps
Channel(s) : 2 channels
Sampling rate : 44.1 KHz
Resolution : 16 bits
Video delay : 23ms
Stream size : 10.8 MiB (5%)
Alignment : Split accross interleaves
Interleave, duration : 33 ms (1.00 video frame)
Interleave, preload duration : 500 ms

General
Complete name : D:\илья\tp-new\Various\Harem of Big Tits.avi
Format : AVI
Format/Info : Audio Video Interleave
File size : 265 MiB
Duration : 29mn 44s
Overall bit rate : 1 244 Kbps
Writing application : Nandub v1.0rc2
Writing library : Nandub build 1853/release

Video
Format : MPEG-4 Visual
Format profile : Streaming Video@L1
Format settings, BVOP : Yes
Format settings, QPel : No
Format settings, GMC : No warppoints
Format settings, Matrix : Default
Codec ID : XVID
Codec ID/Hint : XviD
Duration : 29mn 44s
Bit rate : 1 099 Kbps
Width : 512 pixels
Height : 384 pixels
Display aspect ratio : 4/3
Frame rate : 29.970 fps
Resolution : 24 bits
Colorimetry : 4:2:0
Scan type : Progressive
Bits/(Pixel*Frame) : 0.186
Stream size : 234 MiB (88%)
Writing library : XviD 1.2.0SMP (UTC 2006-01-08)

Audio
Format : MPEG Audio
Format version : Version 1
Format profile : Layer 3
Codec ID : 55
Codec ID/Hint : MP3
Duration : 29mn 44s
Bit rate mode : Variable
Bit rate : 131 Kbps
Channel(s) : 2 channels
Sampling rate : 48.0 KHz
Resolution : 16 bits
Stream size : 27.9 MiB (11%)
Alignment : Aligned on interleaves
Interleave, duration : 24 ms (0.72 video frame)
Interleave, preload duration : 497 ms

General
Complete name : D:\илья\tp-new\Various\Huge Cumshot.wmv
Format : Windows Media
File size : 23.1 MiB
Duration : 4mn 44s
Overall bit rate mode : Constant
Overall bit rate : 683 Kbps
Maximum Overall bit rate : 1 197 Kbps
Encoded date : UTC 2006-03-20 17:33:51.484

Video #1
Format : VC-1
Codec ID : WMV3
Codec ID/Info : Windows Media Video 9
Codec ID/Hint : WMV3
Bit rate mode : Constant
Bit rate : 650 Kbps
Width : 400 pixels
Height : 300 pixels
Display aspect ratio : 4/3
Frame rate : VFR fps
Nominal frame rate : 24.000 fps
Resolution : 24 bits
Language : German

Video #2
Format : VC-1
Codec ID : WMV3
Codec ID/Info : Windows Media Video 9
Codec ID/Hint : WMV3
Duration : 4mn 44s
Bit rate mode : Constant
Bit rate : 500 Kbps
Width : 400 pixels
Height : 300 pixels
Display aspect ratio : 4/3
Frame rate : 24.000 fps
Resolution : 24 bits
Bits/(Pixel*Frame) : 0.174
Language : German

Audio
Format : WMA2
Codec ID : 161
Codec ID/Info : Windows Media Audio 2
Duration : 4mn 44s
Bit rate mode : Constant
Bit rate : 32.0 Kbps
Channel(s) : 2 channels
Sampling rate : 32.0 KHz
Language : German

General
Complete name : D:\илья\tp-new\Various\Island Fever sc1.avi
Format : AVI
Format/Info : Audio Video Interleave
File size : 89.8 MiB
Duration : 10mn 4s
Overall bit rate : 1 246 Kbps
Writing library : Boilsoft Joiner build 2411/release

Video
Format : MPEG-4 Visual
Codec ID : DIV3
Codec ID/Hint : DivX 3 Low
Duration : 10mn 4s
Bit rate : 1 107 Kbps
Width : 576 pixels
Height : 432 pixels
Display aspect ratio : 4/3
Frame rate : 29.970 fps
Resolution : 24 bits
Bits/(Pixel*Frame) : 0.148
Stream size : 79.7 MiB (89%)

Audio
Format : MPEG Audio
Format version : Version 1
Format profile : Layer 3
Codec ID : 55
Codec ID/Hint : MP3
Duration : 10mn 4s
Bit rate mode : Constant
Bit rate : 128 Kbps
Channel(s) : 2 channels
Sampling rate : 48.0 KHz
Resolution : 16 bits
Video delay : 2ms
Stream size : 9.22 MiB (10%)
Alignment : Split accross interleaves
Interleave, duration : 33 ms (1.00 video frame)
Interleave, preload duration : 500 ms

General
Complete name : D:\илья\tp-new\Various\Island Fever sc3.avi
Format : AVI
Format/Info : Audio Video Interleave
File size : 93.9 MiB
Duration : 13mn 28s
Overall bit rate : 974 Kbps
Writing library : Boilsoft Joiner build 2411/release

Video
Format : MPEG-4 Visual
Codec ID : DIV3
Codec ID/Hint : DivX 3 Low
Duration : 13mn 28s
Bit rate : 834 Kbps
Width : 576 pixels
Height : 432 pixels
Display aspect ratio : 4/3
Frame rate : 29.970 fps
Resolution : 24 bits
Bits/(Pixel*Frame) : 0.112
Stream size : 80.4 MiB (86%)

Audio
Format : MPEG Audio
Format version : Version 1
Format profile : Layer 3
Codec ID : 55
Codec ID/Hint : MP3
Duration : 13mn 28s
Bit rate mode : Constant
Bit rate : 128 Kbps
Channel(s) : 2 channels
Sampling rate : 48.0 KHz
Resolution : 16 bits
Video delay : 20ms
Stream size : 12.3 MiB (13%)
Alignment : Split accross interleaves
Interleave, duration : 33 ms (1.00 video frame)
Interleave, preload duration : 500 ms

General
Complete name : D:\илья\tp-new\Various\Island Fever sc5.avi
Format : AVI
Format/Info : Audio Video Interleave
File size : 56.7 MiB
Duration : 6mn 48s
Overall bit rate : 1 163 Kbps
Writing library : Boilsoft Joiner build 2411/release

Video
Format : MPEG-4 Visual
Codec ID : DIV3
Codec ID/Hint : DivX 3 Low
Duration : 6mn 48s
Bit rate : 1 023 Kbps
Width : 576 pixels
Height : 432 pixels
Display aspect ratio : 4/3
Frame rate : 29.970 fps
Resolution : 24 bits
Bits/(Pixel*Frame) : 0.137
Stream size : 49.9 MiB (88%)

Audio
Format : MPEG Audio
Format version : Version 1
Format profile : Layer 3
Codec ID : 55
Codec ID/Hint : MP3
Duration : 6mn 48s
Bit rate mode : Constant
Bit rate : 128 Kbps
Channel(s) : 2 channels
Sampling rate : 48.0 KHz
Resolution : 16 bits
Video delay : 22ms
Stream size : 6.24 MiB (11%)
Alignment : Split accross interleaves
Interleave, duration : 33 ms (1.00 video frame)
Interleave, preload duration : 500 ms

General
Complete name : D:\илья\tp-new\Various\Jack's Playground 25.avi
Format : AVI
Format/Info : Audio Video Interleave
File size : 80.8 MiB
Duration : 13mn 39s
Overall bit rate : 827 Kbps
Writing library : Boilsoft Joiner build 2411/release

Video
Format : MPEG-4 Visual
Format profile : Streaming Video@L1
Format settings, BVOP : Yes
Format settings, QPel : No
Format settings, GMC : No warppoints
Format settings, Matrix : Default
Muxing mode : Packed bitstream
Codec ID : XVID
Codec ID/Hint : XviD
Duration : 13mn 39s
Bit rate : 655 Kbps
Width : 512 pixels
Height : 288 pixels
Display aspect ratio : 16/9
Frame rate : 29.979 fps
Original frame rate : 29.970 fps
Resolution : 24 bits
Colorimetry : 4:2:0
Scan type : Progressive
Bits/(Pixel*Frame) : 0.148
Stream size : 64.0 MiB (79%)
Writing library : XviD 1.0.3 (UTC 2004-12-20)

Audio
Format : MPEG Audio
Format version : Version 1
Format profile : Layer 3
Codec ID : 55
Codec ID/Hint : MP3
Duration : 13mn 39s
Bit rate mode : Constant
Bit rate : 160 Kbps
Channel(s) : 2 channels
Sampling rate : 48.0 KHz
Resolution : 16 bits
Video delay : 14ms
Stream size : 15.6 MiB (19%)
Alignment : Split accross interleaves
Interleave, duration : 33 ms (1.00 video frame)
Interleave, preload duration : 500 ms

General
Complete name : D:\илья\tp-new\Various\Let's Fuck Please 5.avi
Format : AVI
Format/Info : Audio Video Interleave
File size : 74.4 MiB
Duration : 17mn 44s
Overall bit rate : 586 Kbps
Writing library : VirtualDub build 18160/release

Video
Format : MPEG-4 Visual
Format profile : Streaming Video@L1
Format settings, BVOP : Yes
Format settings, QPel : No
Format settings, GMC : No warppoints
Format settings, Matrix : Default
Muxing mode : Packed bitstream
Codec ID : XVID
Codec ID/Hint : XviD
Duration : 17mn 44s
Bit rate : 555 Kbps
Width : 352 pixels
Height : 240 pixels
Display aspect ratio : 1.467
Frame rate : 29.970 fps
Resolution : 24 bits
Colorimetry : 4:2:0
Scan type : Progressive
Bits/(Pixel*Frame) : 0.219
Stream size : 70.5 MiB (95%)
Writing library : XviD 1.0.2 (UTC 2004-08-29)

Audio
Format : MPEG Audio
Format version : Version 2.5
Format profile : Layer 3
Codec ID : 55
Codec ID/Hint : MP3
Duration : 17mn 44s
Bit rate mode : Variable
Bit rate : 17.9 Kbps
Channel(s) : 1 channel
Sampling rate : 11.025 KHz
Resolution : 16 bits
Stream size : 2.27 MiB (3%)
Alignment : Split accross interleaves
Interleave, duration : 29 ms (0.86 video frame)
Interleave, preload duration : 502 ms

General
Complete name : D:\илья\tp-new\Various\My Plaything Tera Patrick (naughty blowjob).avi
Format : AVI
Format/Info : Audio Video Interleave
File size : 15.7 MiB
Duration : 1mn 55s
Overall bit rate : 1 141 Kbps
Writing application : VirtualDubMod 1.5.10.1 (build 2366/release)
Writing library : VirtualDubMod build 2366/release

Video
Format : MPEG-4 Visual
Format settings, BVOP : Yes
Format settings, QPel : No
Format settings, GMC : No warppoints
Format settings, Matrix : Default
Muxing mode : Packed bitstream
Codec ID : DX50
Codec ID/Hint : DivX 5
Duration : 1mn 55s
Bit rate : 1 000 Kbps
Width : 656 pixels
Height : 480 pixels
Display aspect ratio : 4/3
Frame rate : 29.970 fps
Resolution : 24 bits
Colorimetry : 4:2:0
Scan type : Progressive
Bits/(Pixel*Frame) : 0.106
Stream size : 13.8 MiB (88%)
Writing library : DivX 5.1.1 (Maupiti) (UTC 2003-11-19)

Audio
Format : MPEG Audio
Format version : Version 1
Format profile : Layer 3
Codec ID : 55
Codec ID/Hint : MP3
Duration : 1mn 55s
Bit rate mode : Constant
Bit rate : 128 Kbps
Channel(s) : 2 channels
Sampling rate : 44.1 KHz
Resolution : 16 bits
Stream size : 1.76 MiB (11%)
Alignment : Split accross interleaves
Interleave, duration : 34 ms (1.00 video frame)
Interleave, preload duration : 500 ms

General
Complete name : D:\илья\tp-new\Various\My Plaything Tera Patrick (nice blowjob).avi
Format : AVI
Format/Info : Audio Video Interleave
File size : 15.3 MiB
Duration : 2mn 4s
Overall bit rate : 1 034 Kbps
Writing application : VirtualDubMod 1.5.10.1 (build 2366/release)
Writing library : VirtualDubMod build 2366/release

Video
Format : MPEG-4 Visual
Format settings, BVOP : Yes
Format settings, QPel : No
Format settings, GMC : No warppoints
Format settings, Matrix : Default
Muxing mode : Packed bitstream
Codec ID : DX50
Codec ID/Hint : DivX 5
Duration : 2mn 4s
Bit rate : 894 Kbps
Width : 656 pixels
Height : 480 pixels
Display aspect ratio : 4/3
Frame rate : 29.970 fps
Resolution : 24 bits
Colorimetry : 4:2:0
Scan type : Progressive
Bits/(Pixel*Frame) : 0.095
Stream size : 13.2 MiB (86%)
Writing library : DivX 5.1.1 (Maupiti) (UTC 2003-11-19)

Audio
Format : MPEG Audio
Format version : Version 1
Format profile : Layer 3
Codec ID : 55
Codec ID/Hint : MP3
Duration : 2mn 3s
Bit rate mode : Constant
Bit rate : 128 Kbps
Channel(s) : 2 channels
Sampling rate : 44.1 KHz
Resolution : 16 bits
Stream size : 1.89 MiB (12%)
Alignment : Split accross interleaves
Interleave, duration : 34 ms (1.01 video frame)
Interleave, preload duration : 500 ms

General
Complete name : D:\илья\tp-new\Various\Nice Rack 4.avi
Format : AVI
Format/Info : Audio Video Interleave
File size : 134 MiB
Duration : 23mn 0s
Overall bit rate : 814 Kbps

Video
Format : S-Mpeg 4 v2
Codec ID : MP42
Codec ID/Info : Microsoft MPEG-4 V2
Duration : 23mn 0s
Bit rate : 617 Kbps
Width : 320 pixels
Height : 240 pixels
Display aspect ratio : 4/3
Frame rate : 14.983 fps
Resolution : 24 bits
Bits/(Pixel*Frame) : 0.536
Stream size : 102 MiB (76%)
Title : ???

Audio
Format : MPEG Audio
Format version : Version 1
Format profile : Layer 3
Codec ID : 55
Codec ID/Hint : MP3
Duration : 23mn 0s
Bit rate mode : Constant
Bit rate : 192 Kbps
Channel(s) : 2 channels
Sampling rate : 44.1 KHz
Resolution : 16 bits
Stream size : 31.6 MiB (24%)
Alignment : Split accross interleaves
Interleave, duration : 67 ms (1.00 video frame)
Title : ???

General
Complete name : D:\илья\tp-new\Various\Open Wide And Say Ahh 6.avi
Format : AVI
Format/Info : Audio Video Interleave
File size : 59.6 MiB
Duration : 5mn 50s
Overall bit rate : 1 427 Kbps
Writing application : VirtualDubMod 1.5.10.1 (build 2366/release)
Writing library : VirtualDubMod build 2366/release

Video
Format : MPEG-4 Visual
Format settings, BVOP : No
Format settings, QPel : No
Format settings, GMC : No warppoints
Format settings, Matrix : Default
Codec ID : XVID
Codec ID/Hint : XviD
Duration : 5mn 50s
Bit rate : 1 321 Kbps
Width : 480 pixels
Height : 360 pixels
Display aspect ratio : 4/3
Frame rate : 23.976 fps
Resolution : 24 bits
Colorimetry : 4:2:0
Scan type : Progressive
Bits/(Pixel*Frame) : 0.319
Stream size : 55.2 MiB (93%)
Writing library : XviD 0.0.03 (UTC 2002-12-09)

Audio
Format : MPEG Audio
Format version : Version 1
Format profile : Layer 3
Codec ID : 55
Codec ID/Hint : MP3
Duration : 5mn 50s
Bit rate mode : Constant
Bit rate : 96.0 Kbps
Channel(s) : 2 channels
Sampling rate : 32.0 KHz
Resolution : 16 bits
Stream size : 4.01 MiB (7%)
Alignment : Aligned on interleaves
Interleave, duration : 36 ms (0.86 video frame)
Interleave, preload duration : 504 ms

General
Complete name : D:\илья\tp-new\Various\Payback.avi
Format : AVI
Format/Info : Audio Video Interleave
File size : 230 MiB
Duration : 12mn 48s
Overall bit rate : 2 511 Kbps
Writing library : Boilsoft Joiner build 2411/release

Video
Format : MPEG-4 Visual
Format profile : Streaming Video@L1
Format settings, BVOP : Yes
Format settings, QPel : No
Format settings, GMC : No warppoints
Format settings, Matrix : Custom
Codec ID : XVID
Codec ID/Hint : XviD
Duration : 12mn 48s
Bit rate : 2 277 Kbps
Width : 688 pixels
Height : 512 pixels
Display aspect ratio : 4/3
Frame rate : 25.000 fps
Resolution : 24 bits
Colorimetry : 4:2:0
Scan type : Progressive
Bits/(Pixel*Frame) : 0.259
Stream size : 209 MiB (91%)
Writing library : XviD 1.2.0SMP (UTC 2006-01-08)

Audio
Format : AC-3
Format/Info : Audio Coding 3
Codec ID : 2000
Duration : 12mn 48s
Bit rate mode : Constant
Bit rate : 224 Kbps
Channel(s) : 2 channels
Channel positions : L R
Sampling rate : 48.0 KHz
Video delay : 24ms
Stream size : 20.5 MiB (9%)
Alignment : Split accross interleaves
Interleave, duration : 40 ms (1.00 video frame)
Interleave, preload duration : 500 ms

General
Complete name : D:\илья\tp-new\Various\Penthouse Girls Volume 4.avi
Format : AVI
Format/Info : Audio Video Interleave
File size : 404 MiB
Duration : 14mn 42s
Overall bit rate : 3 842 Kbps
Writing application : VirtualDubMod 1.5.4.1 (build 2178/release)
Writing library : VirtualDub build 23774/release

Video
Format : MPEG-4 Visual
Format profile : Simple@L3
Format settings, BVOP : Yes
Format settings, QPel : No
Format settings, GMC : No warppoints
Format settings, Matrix : Custom
Codec ID : XVID
Codec ID/Hint : XviD
Duration : 14mn 42s
Bit rate : 3 606 Kbps
Width : 704 pixels
Height : 544 pixels
Display aspect ratio : 1.294
Frame rate : 29.970 fps
Resolution : 24 bits
Colorimetry : 4:2:0
Scan type : Progressive
Bits/(Pixel*Frame) : 0.314
Stream size : 379 MiB (94%)
Writing library : XviD 0.0.09 (UTC 2003-03-25)

Audio
Format : AC-3
Format/Info : Audio Coding 3
Codec ID : 2000
Duration : 14mn 42s
Bit rate mode : Constant
Bit rate : 224 Kbps
Channel(s) : 2 channels
Channel positions : L R
Sampling rate : 48.0 KHz
Video delay : 2ms
Stream size : 23.6 MiB (6%)
Alignment : Split accross interleaves
Interleave, duration : 33 ms (1.00 video frame)
Interleave, preload duration : 500 ms

General
Complete name : D:\илья\tp-new\Various\Real Sex Magazine 23 A.mpg
Format : MPEG-PS
File size : 234 MiB
Duration : 23mn 17s
Overall bit rate : 1 405 Kbps

Video
Format : MPEG Video
Format version : Version 1
Format settings, Matrix : Standard
Duration : 23mn 17s
Bit rate mode : Constant
Bit rate : 1 083 Kbps
Nominal bit rate : 1 150 Kbps
Width : 352 pixels
Height : 240 pixels
Display aspect ratio : 4/3
Frame rate : 29.970 fps
Scan type : Progressive
Bits/(Pixel*Frame) : 0.454

Audio
Format : MPEG Audio
Format version : Version 1
Format profile : Layer 2
Duration : 23mn 16s
Bit rate mode : Constant
Bit rate : 224 Kbps
Channel(s) : 2 channels
Sampling rate : 44.1 KHz
Resolution : 16 bits
Video delay : 14ms

General
Complete name : D:\илья\tp-new\Various\Real Sex Magazine 23 B.mpg
Format : MPEG-PS
File size : 25.6 MiB
Duration : 2mn 37s
Overall bit rate : 1 365 Kbps

Video
Format : MPEG Video
Format version : Version 1
Format settings, Matrix : Standard
Duration : 2mn 37s
Bit rate mode : Constant
Bit rate : 1 078 Kbps
Nominal bit rate : 1 150 Kbps
Width : 320 pixels
Height : 240 pixels
Display aspect ratio : 4/3
Frame rate : 30.000 fps
Scan type : Progressive
Bits/(Pixel*Frame) : 0.499

Audio
Format : MPEG Audio
Format version : Version 1
Format profile : Layer 2
Duration : 2mn 37s
Bit rate mode : Constant
Bit rate : 192 Kbps
Channel(s) : 2 channels
Sampling rate : 44.1 KHz
Resolution : 16 bits
Video delay : -67ms

General
Complete name : D:\илья\tp-new\Various\Sex Island.avi
Format : AVI
Format/Info : Audio Video Interleave
File size : 178 MiB
Duration : 11mn 26s
Overall bit rate : 2 179 Kbps
Writing application : VirtualDubMod 1.5.10.1 (build 2366/release)
Writing library : VirtualDubMod build 2366/release

Video
Format : MPEG-4 Visual
Format profile : Streaming Video@L1
Format settings, BVOP : Yes
Format settings, QPel : No
Format settings, GMC : No warppoints
Format settings, Matrix : Default
Codec ID : XVID
Codec ID/Hint : XviD
Duration : 11mn 26s
Bit rate : 2 039 Kbps
Width : 512 pixels
Height : 384 pixels
Display aspect ratio : 4/3
Frame rate : 29.970 fps
Resolution : 24 bits
Colorimetry : 4:2:0
Scan type : Progressive
Bits/(Pixel*Frame) : 0.346
Stream size : 167 MiB (94%)
Writing library : XviD 1.0.0 RC4 (Hola) (UTC 2004-04-05)

Audio
Format : MPEG Audio
Format version : Version 1
Format profile : Layer 3
Codec ID : 55
Codec ID/Hint : MP3
Duration : 11mn 26s
Bit rate mode : Constant
Bit rate : 128 Kbps
Channel(s) : 2 channels
Sampling rate : 48.0 KHz
Resolution : 16 bits
Video delay : 17ms
Stream size : 10.5 MiB (6%)
Alignment : Split accross interleaves
Interleave, duration : 33 ms (1.00 video frame)
Interleave, preload duration : 500 ms

General
Complete name : D:\илья\tp-new\Various\Suze Randall photoshoot 2.asf
Format : Windows Media
File size : 82.3 MiB
Duration : 16mn 34s
Overall bit rate mode : Constant
Overall bit rate : 694 Kbps
Maximum Overall bit rate : 699 Kbps
Movie name : Suze Randall Presents - 2040 - Tera Patrick & TT Boy
Album : 2040 - Tera Patrick & TT Boy
Performer : Suze Randall
Recorded date : 2004
Encoded date : UTC 2004-04-05 19:03:42.656
Copyright : © 2004 Suze Randall

Video
Format : WMV2
Codec ID : WMV2
Codec ID/Info : Windows Media Video 8
Description of the codec : Windows Media Video V8
Duration : 16mn 33s
Bit rate mode : Constant
Bit rate : 670 Kbps
Width : 320 pixels
Height : 240 pixels
Display aspect ratio : 4/3
Frame rate : 29.970 fps
Resolution : 24 bits
Bits/(Pixel*Frame) : 0.291
Language : en-us

Audio
Format : WMA2
Format profile : L2
Codec ID : 161
Codec ID/Info : Windows Media Audio 2
Description of the codec : Windows Media Audio 9 - 20 kbps, 22 kHz, mono 2-pass CBR
Duration : 16mn 34s
Bit rate mode : Constant
Bit rate : 20.0 Kbps
Channel(s) : 1 channel
Sampling rate : 22.05 KHz
Language : en-us

General
Complete name : D:\илья\tp-new\Various\Suze Randall photoshoot 3.asf
Format : Windows Media
File size : 120 MiB
Duration : 23mn 25s
Overall bit rate : 718 Kbps
Maximum Overall bit rate : 722 Kbps
Movie name : 2050 - Tara Patrick & Nacho
Performer : Suze Randall
Encoded date : UTC 2003-03-28 00:48:01.234
Copyright : © 2003 Suze Randall
Comment : Chicks on Dicks
ToolName : Windows Media Encoding Utility
ToolVersion : 8.00.00.0343

Video
Format : WMV2
Codec ID : WMV2
Codec ID/Info : Windows Media Video 8
Description of the codec : Windows Media Video V8 -
Duration : 23mn 23s
Bit rate : 664 Kbps
Width : 320 pixels
Height : 240 pixels
Display aspect ratio : 4/3
Frame rate : 29.970 fps
Resolution : 24 bits

Audio
Format : WMA2
Codec ID : 161
Codec ID/Info : Windows Media Audio 2
Description of the codec : Windows Media Audio V8 - 16 kbps, 22 kHz, mono
Duration : 23mn 25s
Bit rate : 16.0 Kbps
Channel(s) : 1 channel
Sampling rate : 22.05 KHz

General
Complete name : D:\илья\tp-new\Various\Suze Randall photoshoot.asf
Format : Windows Media
File size : 43.3 MiB
Duration : 8mn 18s
Overall bit rate : 728 Kbps
Maximum Overall bit rate : 722 Kbps
Movie name : 2182 - Tera Patrick & Randy Spears
Performer : Suze Randall
Encoded date : UTC 2003-08-21 01:52:34.109
Copyright : © 2003 Suze Randall
ToolName : Windows Media Encoding Utility
ToolVersion : 8.00.00.0343

Video
Format : WMV2
Codec ID : WMV2
Codec ID/Info : Windows Media Video 8
Description of the codec : Windows Media Video V8 -
Duration : 8mn 18s
Bit rate : 674 Kbps
Width : 320 pixels
Height : 240 pixels
Display aspect ratio : 4/3
Frame rate : 29.970 fps
Resolution : 24 bits

Audio
Format : WMA2
Codec ID : 161
Codec ID/Info : Windows Media Audio 2
Description of the codec : Windows Media Audio V8 - 16 kbps, 22 kHz, mono
Duration : 8mn 18s
Bit rate : 16.0 Kbps
Channel(s) : 1 channel
Sampling rate : 22.05 KHz

General
Complete name : D:\илья\tp-new\Various\Tera Fille Sublime.avi
Format : AVI
Format/Info : Audio Video Interleave
File size : 70.2 MiB
Duration : 12mn 54s
Overall bit rate : 760 Kbps
Writing library : VirtualDub build 28312/release

Video
Format : MPEG-4 Visual
Codec ID : DIV3
Codec ID/Hint : DivX 3 Low
Duration : 12mn 54s
Bit rate : 652 Kbps
Width : 512 pixels
Height : 384 pixels
Display aspect ratio : 4/3
Frame rate : 29.970 fps
Resolution : 24 bits
Bits/(Pixel*Frame) : 0.111
Stream size : 60.2 MiB (86%)

Audio
Format : MPEG Audio
Format version : Version 1
Format profile : Layer 3
Codec ID : 55
Codec ID/Hint : MP3
Duration : 12mn 54s
Bit rate mode : Constant
Bit rate : 96.0 Kbps
Channel(s) : 2 channels
Sampling rate : 48.0 KHz
Resolution : 16 bits
Video delay : 10ms
Stream size : 8.87 MiB (13%)
Alignment : Split accross interleaves
Interleave, duration : 33 ms (1.00 video frame)
Interleave, preload duration : 500 ms

General
Complete name : D:\илья\tp-new\Various\Tera Goes Gonzo (blowjob).avi
Format : AVI
Format/Info : Audio Video Interleave
File size : 156 MiB
Duration : 8mn 55s
Overall bit rate : 2 439 Kbps
Writing library : D:\Torrent\Download\Tera.Goes.Gonzo.XXX.DVDRip.XviD-DoggPound\dp-tgg.cd1.avi

Video
Format : MPEG-4 Visual
Format profile : Streaming Video@L1
Format settings, BVOP : Yes
Format settings, QPel : No
Format settings, GMC : No warppoints
Format settings, Matrix : Default
Codec ID : XVID
Codec ID/Hint : XviD
Duration : 8mn 55s
Bit rate : 2 290 Kbps
Width : 624 pixels
Height : 352 pixels
Display aspect ratio : 16/9
Frame rate : 29.970 fps
Resolution : 24 bits
Colorimetry : 4:2:0
Scan type : Progressive
Bits/(Pixel*Frame) : 0.348
Stream size : 146 MiB (94%)
Writing library : XviD 1.2.0SMP (UTC 2006-01-08)

Audio
Format : MPEG Audio
Format version : Version 1
Format profile : Layer 3
Codec ID : 55
Codec ID/Hint : MP3
Duration : 8mn 55s
Bit rate mode : Variable
Bit rate : 125 Kbps
Channel(s) : 2 channels
Sampling rate : 48.0 KHz
Resolution : 16 bits
Stream size : 8.25 MiB (5%)
Alignment : Aligned on interleaves
Interleave, duration : 24 ms (0.72 video frame)

General
Complete name : D:\илья\tp-new\Various\Tera Goes Gonzo (solo).avi
Format : AVI
Format/Info : Audio Video Interleave
File size : 357 MiB
Duration : 21mn 2s
Overall bit rate : 2 374 Kbps
Writing application : Nandub v1.0rc2
Writing library : Nandub build 1853/release

Video
Format : MPEG-4 Visual
Format profile : Streaming Video@L1
Format settings, BVOP : Yes
Format settings, QPel : No
Format settings, GMC : No warppoints
Format settings, Matrix : Default
Codec ID : XVID
Codec ID/Hint : XviD
Duration : 21mn 2s
Bit rate : 2 237 Kbps
Width : 624 pixels
Height : 352 pixels
Display aspect ratio : 16/9
Frame rate : 29.970 fps
Resolution : 24 bits
Colorimetry : 4:2:0
Scan type : Progressive
Bits/(Pixel*Frame) : 0.340
Stream size : 337 MiB (94%)
Writing library : XviD 1.2.0SMP (UTC 2006-01-08)

Audio
Format : MPEG Audio
Format version : Version 1
Format profile : Layer 3
Codec ID : 55
Codec ID/Hint : MP3
Duration : 21mn 2s
Bit rate mode : Variable
Bit rate : 125 Kbps
Channel(s) : 2 channels
Sampling rate : 48.0 KHz
Resolution : 16 bits
Stream size : 18.5 MiB (5%)
Alignment : Aligned on interleaves
Interleave, duration : 24 ms (0.72 video frame)
Interleave, preload duration : 474 ms

General
Complete name : D:\илья\tp-new\Various\Tera Goes Gonzo - With Kelle Marie & Stefani Morgan.avi
Format : AVI
Format/Info : Audio Video Interleave
File size : 404 MiB
Duration : 30mn 33s
Overall bit rate : 1 846 Kbps
Writing application : Nandub v1.0rc2
Writing library : Nandub build 1853/release

Video
Format : MPEG-4 Visual
Format profile : Streaming Video@L1
Format settings, BVOP : Yes
Format settings, QPel : No
Format settings, GMC : No warppoints
Format settings, Matrix : Default
Codec ID : XVID
Codec ID/Hint : XviD
Duration : 30mn 33s
Bit rate : 1 707 Kbps
Width : 624 pixels
Height : 352 pixels
Display aspect ratio : 16/9
Frame rate : 29.970 fps
Resolution : 24 bits
Colorimetry : 4:2:0
Scan type : Progressive
Bits/(Pixel*Frame) : 0.259
Stream size : 373 MiB (92%)
Writing library : XviD 1.2.0SMP (UTC 2006-01-08)

Audio
Format : MPEG Audio
Format version : Version 1
Format profile : Layer 3
Codec ID : 55
Codec ID/Hint : MP3
Duration : 30mn 33s
Bit rate mode : Variable
Bit rate : 125 Kbps
Channel(s) : 2 channels
Sampling rate : 48.0 KHz
Resolution : 16 bits
Stream size : 27.5 MiB (7%)
Alignment : Aligned on interleaves
Interleave, duration : 24 ms (0.72 video frame)
Interleave, preload duration : 520 ms

General
Complete name : D:\илья\tp-new\Various\Tera Goes Gonzo.avi
Format : AVI
Format/Info : Audio Video Interleave
File size : 133 MiB
Duration : 14mn 59s
Overall bit rate : 1 243 Kbps

Video
Format : MPEG-4 Visual
Format profile : Simple Streaming Video@L1
Format settings, BVOP : Yes
Format settings, QPel : No
Format settings, GMC : No warppoints
Format settings, Matrix : Default
Codec ID : XVID
Codec ID/Hint : XviD
Duration : 14mn 59s
Bit rate : 1 103 Kbps
Width : 624 pixels
Height : 352 pixels
Display aspect ratio : 16/9
Frame rate : 29.970 fps
Resolution : 24 bits
Colorimetry : 4:2:0
Scan type : Progressive
Bits/(Pixel*Frame) : 0.168
Stream size : 118 MiB (89%)
Writing library : Lavc51.40.4

Audio
Format : MPEG Audio
Format version : Version 1
Format profile : Layer 3
Codec ID : 55
Codec ID/Hint : MP3
Duration : 14mn 59s
Bit rate mode : Variable
Bit rate : 125 Kbps
Channel(s) : 2 channels
Sampling rate : 48.0 KHz
Resolution : 16 bits
Stream size : 13.5 MiB (10%)
Alignment : Aligned on interleaves
Interleave, duration : 24 ms (0.72 video frame)

General
Complete name : D:\илья\tp-new\Various\Up & Cummers 73.avi
Format : AVI
Format/Info : Audio Video Interleave
File size : 242 MiB
Duration : 48mn 26s
Overall bit rate : 698 Kbps
Writing application : VirtualDubMod 1.5.10.1 (build 2366/release)
Writing library : VirtualDubMod build 2366/release

Video
Format : MPEG-4 Visual
Codec ID : DIV3
Codec ID/Hint : DivX 3 Low
Duration : 48mn 26s
Bit rate : 662 Kbps
Width : 352 pixels
Height : 288 pixels
Display aspect ratio : 1.222
Frame rate : 30.000 fps
Resolution : 24 bits
Bits/(Pixel*Frame) : 0.218
Stream size : 229 MiB (95%)

Audio
Format : MPEG Audio
Format version : Version 2
Format profile : Layer 3
Codec ID : 55
Codec ID/Hint : MP3
Duration : 48mn 26s
Bit rate mode : Constant
Bit rate : 24.0 Kbps
Channel(s) : 1 channel
Sampling rate : 22.05 KHz
Resolution : 16 bits
Video delay : 10ms
Stream size : 8.28 MiB (3%)
Alignment : Split accross interleaves
Interleave, duration : 33 ms (1.00 video frame)
Interleave, preload duration : 497 ms

General
Complete name : D:\илья\tp-new\Various\Up & Cummers 80.divx
Format : DivX
Format/Info : Hack of AVI
File size : 368 MiB
Duration : 26mn 58s
Overall bit rate : 1 908 Kbps

Video
Format : MPEG-4 Visual
Format settings, BVOP : Yes
Format settings, QPel : No
Format settings, GMC : No warppoints
Format settings, Matrix : Default
Muxing mode : Packed bitstream
Codec ID : DX50
Codec ID/Hint : DivX 5
Duration : 26mn 58s
Bit rate : 1 800 Kbps
Width : 640 pixels
Height : 480 pixels
Display aspect ratio : 4/3
Frame rate : 29.970 fps
Resolution : 24 bits
Colorimetry : 4:2:0
Scan type : Progressive
Bits/(Pixel*Frame) : 0.196
Stream size : 347 MiB (94%)
Title : Video
Writing library : DivX 1670

Audio
Format : MPEG Audio
Format version : Version 1
Format profile : Layer 3
Codec ID : 55
Codec ID/Hint : MP3
Duration : 26mn 58s
Bit rate mode : Constant
Bit rate : 96.0 Kbps
Channel(s) : 2 channels
Sampling rate : 44.1 KHz
Resolution : 16 bits
Stream size : 18.5 MiB (5%)
Alignment : Split accross interleaves
Interleave, duration : 33 ms (1.00 video frame)
Interleave, preload duration : 500 ms
Title : Audio - en

General
Complete name : D:\илья\tp-new\Various\Virtual Sex With Tera Patrick (blowjob).avi
Format : AVI
Format/Info : Audio Video Interleave
File size : 70.0 MiB
Duration : 4mn 50s
Overall bit rate : 2 019 Kbps
Writing application : VirtualDubMod 1.5.4.1 (build 2178/release)
Writing library : VirtualDubMod build 2178/release

Video
Format : MPEG-4 Visual
Format settings, BVOP : Yes
Format settings, QPel : No
Format settings, GMC : No warppoints
Format settings, Matrix : Default
Muxing mode : Packed bitstream
Codec ID : DX50
Codec ID/Hint : DivX 5
Duration : 4mn 50s
Bit rate : 1 880 Kbps
Width : 720 pixels
Height : 480 pixels
Display aspect ratio : 1.500
Frame rate : 29.970 fps
Standard : NTSC
Resolution : 24 bits
Colorimetry : 4:2:0
Scan type : Progressive
Bits/(Pixel*Frame) : 0.182
Stream size : 65.2 MiB (93%)
Writing library : DivX 5.1.1 (Maupiti) (UTC 2003-11-19)

Audio
Format : MPEG Audio
Format version : Version 1
Format profile : Layer 3
Codec ID : 55
Codec ID/Hint : MP3
Duration : 4mn 50s
Bit rate mode : Variable
Bit rate : 125 Kbps
Minimum bit rate : 128 Kbps
Channel(s) : 2 channels
Sampling rate : 48.0 KHz
Resolution : 16 bits
Stream size : 4.32 MiB (6%)
Alignment : Aligned on interleaves
Interleave, duration : 24 ms (0.72 video frame)
Interleave, preload duration : 526 ms
Writing library : LAME3.96r
Encoding settings : ABR

General
Complete name : D:\илья\tp-new\Various\Virtual Sex With Tera Patrick (sex).avi
Format : AVI
Format/Info : Audio Video Interleave
File size : 70.0 MiB
Duration : 4mn 34s
Overall bit rate : 2 139 Kbps
Writing application : VirtualDubMod 1.5.4.1 (build 2178/release)
Writing library : VirtualDubMod build 2178/release

Video
Format : MPEG-4 Visual
Format settings, BVOP : Yes
Format settings, QPel : No
Format settings, GMC : No warppoints
Format settings, Matrix : Default
Muxing mode : Packed bitstream
Codec ID : DX50
Codec ID/Hint : DivX 5
Duration : 4mn 34s
Bit rate : 2 000 Kbps
Width : 720 pixels
Height : 544 pixels
Display aspect ratio : 4/3
Frame rate : 29.970 fps
Resolution : 24 bits
Colorimetry : 4:2:0
Scan type : Progressive
Bits/(Pixel*Frame) : 0.170
Stream size : 65.4 MiB (94%)
Writing library : DivX 5.1.1 (Maupiti) (UTC 2003-11-19)

Audio
Format : MPEG Audio
Format version : Version 1
Format profile : Layer 3
Codec ID : 55
Codec ID/Hint : MP3
Duration : 4mn 34s
Bit rate mode : Variable
Bit rate : 125 Kbps
Minimum bit rate : 128 Kbps
Channel(s) : 2 channels
Sampling rate : 48.0 KHz
Resolution : 16 bits
Stream size : 4.08 MiB (6%)
Alignment : Aligned on interleaves
Interleave, duration : 24 ms (0.72 video frame)
Interleave, preload duration : 498 ms
Writing library : LAME3.96r
Encoding settings : ABR

General
Complete name : D:\илья\tp-new\Various\Wild Honey 2.avi
Format : AVI
Format/Info : Audio Video Interleave
File size : 251 MiB
Duration : 18mn 47s
Overall bit rate : 1 871 Kbps
Writing library : Boilsoft Joiner build 2411/release

Video
Format : MPEG-4 Visual
Format settings, BVOP : Yes
Format settings, QPel : No
Format settings, GMC : No warppoints
Format settings, Matrix : Default
Codec ID : DX50
Codec ID/Hint : DivX 5
Duration : 18mn 47s
Bit rate : 1 740 Kbps
Width : 544 pixels
Height : 416 pixels
Display aspect ratio : 4/3
Frame rate : 29.970 fps
Resolution : 24 bits
Scan type : Progressive
Bits/(Pixel*Frame) : 0.257
Stream size : 234 MiB (93%)
Writing library : DivX 5.2.1 (DrDivX 106) (UTC 2004-09-08)

Audio
Format : MPEG Audio
Format version : Version 1
Format profile : Layer 3
Codec ID : 55
Codec ID/Hint : MP3
Duration : 18mn 47s
Bit rate mode : Variable
Bit rate : 119 Kbps
Channel(s) : 2 channels
Sampling rate : 48.0 KHz
Resolution : 16 bits
Video delay : 7ms
Stream size : 16.0 MiB (6%)
Alignment : Split accross interleaves
Interleave, duration : 33 ms (1.00 video frame)
Interleave, preload duration : 500 ms


Внимание! AdBlock блокирует показ скриншотов, все вопросы к разработчикам )))
Трекер:  [ 04-Окт-2011 12:50 ]

  

Скачать .torrent

Размер .torrent файла 123 KB


Размер: 21.34 GB
Хэш (hash) релиза: dd36833f82552d61bc58cba359730ac6e4b38814

Торренты, похожие на Tera Patrick скачать торрент

Форум Название Автор Размер S L Добавлен
Сайтрипы 2014 / SiteRip's 2014 ·· [CherryPimps.com / WildOnCam.com] Tera Patrick (Tera Patrick LIVE 02.07.2014) [2014 г., Big Tits, Black Hair, Exclusive, Fake Tits, Lingerie, Live Show Archives, Masturbation, Mature, MILF, Solo, Toys, 1080p] Galfimbul ghost 21928260862.04 GB 2 0 1451891429

10:10

4-Янв-16

Фильмы без сюжета 1991-2010 / All Sex & Amateur 1991-2010 ·· Tera Patrick Loves TT / Тера Патрик любит ТТ (TT Boy, T.T. Boy Productions) [1999 г., Naturally Busty, Straight, Big Boobs, Compilation, DVDRip] (Tera Patrick, TT Boy) Galfimbul ghost 13174532451.23 GB 0 0 1420817054

18:24

9-Янв-15

Сайтрипы 2013 / SiteRip's 2013 ·· [CherryPimps.com / WildOnCam.com] Tera Patrick (Tera Patrick LIVE 08.19.2013) [2013 г., Lingerie, Solo, MILF, Mature, Fake Tits, Toys, Masturbation, Big Tits, 1080p] Galfimbul ghost 21786728972.03 GB 0 0 1388280633

04:30

29-Дек-13

Сайтрипы 2013 / SiteRip's 2013 ·· [CherryPimps.com / WildOnCam.com] Tera Patrick (Tera Patrick LIVE 10.22.2013) [2013 г., Solo, Toys, MILF, Mature, Masturbation, Big Tits, 1080p] Galfimbul ghost 19689577641.83 GB 0 0 1387958758

11:05

25-Дек-13

Русское любительское видео ·· Tera Patrick (сцена из "Tera Patrick Has Sex In Dangerous Places" ) / Экстремальный Секс во время ограбления банка [2009 г., Classic,rape,cumshot, DVDRip] LinGr 275537609263 MB 0 0 1374864225

21:43

26-Июл-13

Фильмы без сюжета 1991-2010 / All Sex & Amateur 1991-2010 ·· On The Set with Tera Patrick / На съемочной площадке с Tera Patrick (Xtraordinary Pictures)[1999 г., Outdoor, One On One, Big Boobs, Behind The Scenes, Reality Porn, Brunette, 480p] LinGr 11482040921.07 GB 0 0 1372603137

17:38

30-Июн-13

Фильмы без сюжета 1991-2010 / All Sex & Amateur 1991-2010 ·· Tera Patrick Superstar / Tera Patrick - СуперЗвезда порно (Unknown, Teravision, Vivid Intertainment Group) [2008 г., All Sex, Gonzo, Hardcore, Blowjob, Deep throat, Toys, Tits fuck, Foot, DVDRip] Galfimbul ghost 36135083283.37 GB 0 0 1364555828

14:17

29-Мар-13

Фильмы без сюжета 1991-2010 / All Sex & Amateur 1991-2010 ·· Tera Patrick's POV Party. / Tera Patrick's POV Партия. (Hustler.) [All Sex, P.O.V. - Point of View. DVDRip] *(Release Date: Oct 11, 2010) Galfimbul ghost 14689965001.37 GB 0 0 1364492083

20:34

28-Мар-13

Фильмы без сюжета 1991-2010 / All Sex & Amateur 1991-2010 ·· Tera Patrick AKA Filthy Whore #1 / Tera Patrick AKA Filthy Whore #1 (разбит на эпизоды) (Legend) [2001 г., Straight, Compilation, Hardcore, All Sex, VOD] Galfimbul ghost 583721751557 MB 0 0 1361904555

21:49

26-Фев-13

Сайтрипы 1991-2010 / SiteRip's 1991-2010 ·· [Terapatrick.com] Tera Patrick,Alexis Amore,Carmen Luvana,Lacie,Lucy Lee,Mercedes (Tera и ее подружки-лесбиянки) / Tera and her lesbo friends (5 роликов) [15.09.10), Lesbians,big tits,toys] Galfimbul ghost 10915286751.02 GB 0 0 1383927448

19:17

8-Ноя-13

Сцены из фильмов / Movie Scenes ·· Tera Parick & Spyder Jonez ("Desperate"), Maria Bellucci, Brian Surewood & Evan Stone ("Miles From Needles"), Tera Patrick & Jean Valjean ("Fashion Underground"), Austin Kincaid & Justine Joli ("Pipe Galfimbul ghost 11156169101.04 GB 0 6 1595789409

21:50

26-Июл-20

Сайтрипы 1991-2010 / SiteRip's 1991-2010 ·· [Terapatrick.com] Tera Patrick (Tera And Her Glass Dildo) / Тера и ее стеклянное дилдо [09.02.10, Solo,posing,masturbation,toys] Galfimbul ghost 7062236267 MB 0 0 1383905073

13:04

8-Ноя-13

Фильмы с сюжетом / Feature & Vignettes ·· Tera Patrick a L'Asian Palace / Reign of Tera / Тера Патрик и Азиатский дворец [2006 г., Spyder Jones, (MARC DORCEL), All Sex, DVDRip] spider91 14664705181.37 GB 0 0 1364311228

18:20

26-Мар-13

Фильмы без сюжета 1991-2010 / All Sex & Amateur 1991-2010 ·· Tera Patrick Has Sex In Dangerous Places / Тера Патрик Трахается в Опасных Местах (Paul Thomas, Vivid & Tera Vision) [2004 г., All sex, Anal, Foreign, Oral, Lesbians, Toys, Group, DVD9] Galfimbul ghost 80745062407.52 GB 1 2 1315992874

12:34

14-Сен-11

Фильмы без сюжета 1991-2010 / All Sex & Amateur 1991-2010 ·· Ecstasy Girls Platinum 1 (Jon Yuma, Nic Cramer, Odyssey) [2002 г., All Sex, Anal, VOD] (Asia Carrera, Jessica Drake, Nikki Anderson, Silvia Saint, Tera Patrick) Galfimbul ghost 12145607401.13 GB 2 0 1580210410

14:20

28-Янв-20

Фетиш / Fetish ·%· [TeraPatrick.com] Anastasia Pierce & Tera Patrick (Smoking / 66622 / 15-09-2017) [Pornstar, Asian, Big Tits, Brunette, Tattoo & Piercing, Fetish, Fishnets, Lingerie, Dirty Talk, POV, 720p, WEB-DL] Galfimbul ghost 139779990133 MB 1 2 1572556006

00:06

1-Ноя-19

Фетиш / Fetish ·%· [TeraPatrick.com] Anastasia Pierce & Tera Patrick (Smoking / 66622 / 15-09-2017) [Pornstar, Asian, Big Tits, Brunette, Tattoo & Piercing, Fetish, Fishnets, Lingerie, Dirty Talk, POV, 1080p, WEB-DL] Galfimbul ghost 340004066324 MB 1 3 1572555927

00:05

1-Ноя-19

Фильмы без сюжета 1991-2010 / All Sex & Amateur 1991-2010 ·%· Tera Patrick Aka Living Legend (Dru Capone, Legend) [2000 г., All Sex, VOD] Galfimbul ghost 18584811601.73 GB 0 0 1552425461

00:17

13-Мар-19

Сайтрипы 2018 / SiteRip's 2018 ·%· [WoodRocket.com] Charlotte Sartre, Veronica Chaos, Tera Patrick (The Puppet Inside Me / 16.09.2018) [Blowjob, Cosplay, Cumshot, Fetish, HD Porn, Tattoo, Hardcore, Parody, Pornstar, Tattooed Women, Threesome , 720p] Galfimbul ghost 247656835236 MB 0 0 1552080513

00:28

9-Мар-19

Сайтрипы 2018 / SiteRip's 2018 ·· [PegasProductions.com] Amy Lee et Roxy Lane (TERA PATRICK, AMY ET ROXY, LES PLOTTES À GAZ ) [13.02.2018 г., Gonzo, Facial Cumshot, Lingerie, Swallow, Tattoo, 720p] Galfimbul ghost 571630231545 MB 0 0 1518687879

12:44

15-Фев-18

Еще никто не оставлял запись к записи скачать торрент Tera Patrick . Будь первым!

!Обратная связь