Скачать порно через торрент Claudia Ferrari UnionPeer.org бесплатно онлайн HD качество

Скачать новое порно 2015, 2014 новинки через торрент UnionPeer.org

Порно торрент бесплатно ЮнионПир.орг

Статистика раздачи
Размер:  6.17 GB   |    Зарегистрирован:  9 лет 6 месяцев   |    .torrent скачан:  1921 раз   |   
Раздают:  1  
 

Скачать Claudia Ferrari (36 роликов) (Angel Madrid, Tina Crystal) Pack / Клаудиа Феррари [All Sex, Masturbation, Lesbian] через torrent

 
 
Автор Сообщение

Galfimbul ghost

avatar Galfimbul ghost


CLAUDIA FERRARI

Имя актрисы: Claudia Ferrari
Псевдонимы актрисы: Angel Madrid, Tina Crystal
Жанр: All Sex, Masturbation, Lesbian

Тип ПАКа: В ПАКе от 15 до 50 роликов (Pack)
Количество роликов: 36 роликов
Длинноногая и длинноволосая брюнетка с гипнотизирующими глазами.
Родилась в Венгрии, начала сниматься в возрасте 25 лет, потом ушла из бизнеса,
но недавно увеличила себе грудь и вернулась в кинематограф!


Торрент будет обновляться по мере поступления новых сцен!
Ее краткая фильмография:

http://www.egafd.com/actresses/details.php/id/c0367
General
Format : MPEG-PS
File size : 120 MiB
Duration : 7mn 44s
Overall bit rate : 2 164 Kbps
Writing library : encoded by TMPGEnc 4.0 XPress Version. 4.2.3.193

Video
ID : 224 (0xE0)
Format : MPEG Video
Format version : Version 1
Format settings, Matrix : Default
Duration : 7mn 44s
Bit rate mode : Variable
Bit rate : 1 950 Kbps
Nominal bit rate : 2 000 Kbps
Width : 640 pixels
Height : 368 pixels
Display aspect ratio : 1.855
Frame rate : 25.000 fps
Scan type : Progressive
Bits/(Pixel*Frame) : 0.331
Stream size : 108 MiB (90%)
Writing library : TMPGEnc XPress 4.2.3.193

Audio
ID : 192 (0xC0)
Format : MPEG Audio
Format version : Version 1
Format profile : Layer 2
Duration : 7mn 44s
Bit rate mode : Constant
Bit rate : 128 Kbps
Channel(s) : 2 channels
Sampling rate : 48.0 KHz
Resolution : 16 bits
Stream size : 7.09 MiB (6%)

General
Format : Windows Media
File size : 78.1 MiB
Duration : 8mn 7s
Overall bit rate mode : Constant
Overall bit rate : 1 343 Kbps
Maximum Overall bit rate : 1 342 Kbps
Encoded date : UTC 2009-06-20 03:23:19.890

Video
ID : 2
Format : VC-1
Format profile : MP
Codec ID : WMV3
Codec ID/Info : Windows Media Video 9
Codec ID/Hint : WMV3
Description of the codec : Windows Media Video 9 - Professional
Duration : 8mn 7s
Bit rate mode : Constant
Bit rate : 1 200 Kbps
Width : 800 pixels
Height : 450 pixels
Display aspect ratio : 16/9
Frame rate : 29.970 fps
Resolution : 24 bits
Scan type : Progressive
Bits/(Pixel*Frame) : 0.111
Stream size : 69.7 MiB (89%)
Language : en-US

Audio
ID : 1
Format : WMA3
Codec ID : 162
Codec ID/Info : Windows Media Audio 3
Description of the codec : Windows Media Audio 10 Professional - 128 kbps, 48 kHz, 2 channel 24 bit 1-pass CBR
Duration : 8mn 7s
Bit rate mode : Constant
Bit rate : 128 Kbps
Channel(s) : 2 channels
Sampling rate : 48.0 KHz
Resolution : 24 bits
Stream size : 7.44 MiB (10%)
Language : en-US

General
Format : MPEG-PS
File size : 223 MiB
Writing library : encoded by TMPGEnc 4.0 XPress Version. 4.2.3.193

Video
ID : 224 (0xE0)
Format : MPEG Video
Format version : Version 1
Format settings, Matrix : Default
Bit rate mode : Variable
Bit rate : 2 000 Kbps
Width : 640 pixels
Height : 480 pixels
Display aspect ratio : 4/3
Frame rate : 25.000 fps
Scan type : Progressive
Bits/(Pixel*Frame) : 0.260
Writing library : TMPGEnc XPress 4.2.3.193

Audio
ID : 192 (0xC0)
Format : MPEG Audio
Format version : Version 1
Format profile : Layer 2
Bit rate mode : Constant
Bit rate : 128 Kbps
Channel(s) : 2 channels
Sampling rate : 32.0 KHz
Resolution : 16 bits

General
Format : AVI
Format/Info : Audio Video Interleave
File size : 115 MiB
Duration : 14mn 21s
Overall bit rate : 1 121 Kbps
Writing application : VirtualDubMod 1.5.10.2 (build 2540/release)
Writing library : VirtualDubMod build 2540/release

Video
Format : MPEG-4 Visual
Format profile : Streaming Video@L1
Format settings, BVOP : Yes
Format settings, QPel : No
Format settings, GMC : No warppoints
Format settings, Matrix : Default (H.263)
Muxing mode : Packed bitstream
Codec ID : XVID
Codec ID/Hint : XviD
Duration : 14mn 21s
Bit rate : 1 016 Kbps
Width : 480 pixels
Height : 360 pixels
Display aspect ratio : 4/3
Frame rate : 25.000 fps
Resolution : 24 bits
Colorimetry : 4:2:0
Scan type : Progressive
Bits/(Pixel*Frame) : 0.235
Stream size : 104 MiB (91%)
Writing library : XviD 1.1.2 (UTC 2006-11-01)

Audio
Format : MPEG Audio
Format version : Version 1
Format profile : Layer 3
Codec ID : 55
Codec ID/Hint : MP3
Duration : 14mn 21s
Bit rate mode : Constant
Bit rate : 96.0 Kbps
Channel(s) : 2 channels
Sampling rate : 32.0 KHz
Resolution : 16 bits
Stream size : 9.86 MiB (9%)
Alignment : Aligned on interleaves
Interleave, duration : 40 ms (1.00 video frame)
Interleave, preload duration : 504 ms
Writing library : LAME3.97b
Encoding settings : -m j -V 4 -q 3 -lowpass 15.1 -b 96

General
Format : AVI
Format/Info : Audio Video Interleave
File size : 163 MiB
Duration : 19mn 29s
Overall bit rate : 1 166 Kbps
Writing application : VirtualDubMod 1.5.10.2 (build 2540/release)
Writing library : VirtualDubMod build 2540/release

Video
Format : MPEG-4 Visual
Format profile : Simple@L1
Format settings, BVOP : No
Format settings, QPel : No
Format settings, GMC : No warppoints
Format settings, Matrix : Default (H.263)
Codec ID : DIVX
Codec ID/Info : Project Mayo
Codec ID/Hint : DivX 4
Duration : 19mn 29s
Bit rate : 1 100 Kbps
Width : 640 pixels
Height : 480 pixels
Display aspect ratio : 4/3
Frame rate : 25.000 fps
Resolution : 24 bits
Colorimetry : 4:2:0
Scan type : Progressive
Bits/(Pixel*Frame) : 0.143
Stream size : 153 MiB (94%)
Writing library : avc2.0.11.1110

Audio
Format : MPEG Audio
Format version : Version 1
Format profile : Layer 3
Codec ID : 55
Codec ID/Hint : MP3
Duration : 19mn 29s
Bit rate mode : Constant
Bit rate : 56.0 Kbps
Channel(s) : 2 channels
Sampling rate : 44.1 KHz
Resolution : 16 bits
Video delay : 3ms
Stream size : 7.81 MiB (5%)
Alignment : Split accross interleaves
Interleave, duration : 40 ms (1.00 video frame)
Interleave, preload duration : 500 ms

General
Format : AVI
Format/Info : Audio Video Interleave
File size : 114 MiB
Duration : 6mn 8s
Overall bit rate : 2 598 Kbps
Writing application : VirtualDubMod 1.5.10.2 (build 2540/release)
Writing library : VirtualDubMod build 2540/release

Video
Format : MPEG-4 Visual
Format profile : Streaming Video@L1
Format settings, BVOP : Yes
Format settings, QPel : No
Format settings, GMC : No warppoints
Format settings, Matrix : Custom
Codec ID : XVID
Codec ID/Hint : XviD
Duration : 6mn 8s
Bit rate : 2 456 Kbps
Width : 512 pixels
Height : 384 pixels
Display aspect ratio : 4/3
Frame rate : 29.970 fps
Resolution : 24 bits
Colorimetry : 4:2:0
Scan type : Progressive
Bits/(Pixel*Frame) : 0.417
Stream size : 108 MiB (95%)
Writing library : XviD 1.1.0 Beta2 (UTC 2005-04-04)

Audio
Format : MPEG Audio
Format version : Version 1
Format profile : Layer 3
Codec ID : 55
Codec ID/Hint : MP3
Duration : 6mn 8s
Bit rate mode : Variable
Bit rate : 128 Kbps
Channel(s) : 2 channels
Sampling rate : 48.0 KHz
Resolution : 16 bits
Stream size : 5.62 MiB (5%)
Alignment : Aligned on interleaves
Interleave, duration : 24 ms (0.72 video frame)
Interleave, preload duration : 498 ms

General
Format : AVI
Format/Info : Audio Video Interleave
File size : 278 MiB
Duration : 24mn 28s
Overall bit rate : 1 589 Kbps
Writing application : VirtualDubMod 1.5.10.2 (build 2540/release)
Writing library : VirtualDubMod build 2540/release

Video
Format : MPEG-4 Visual
Format settings, BVOP : Yes
Format settings, QPel : No
Format settings, GMC : No warppoints
Format settings, Matrix : Default (H.263)
Muxing mode : Packed bitstream
Codec ID : DX50
Codec ID/Hint : DivX 5
Duration : 24mn 28s
Bit rate : 1 465 Kbps
Width : 512 pixels
Height : 384 pixels
Display aspect ratio : 4/3
Frame rate : 29.970 fps
Resolution : 24 bits
Scan type : Progressive
Bits/(Pixel*Frame) : 0.249
Stream size : 257 MiB (92%)
Writing library : DivX 5.1.1 (Maupiti) (UTC 2003-11-19)

Audio
Format : MPEG Audio
Format version : Version 1
Format profile : Layer 3
Codec ID : 55
Codec ID/Hint : MP3
Duration : 24mn 28s
Bit rate mode : Constant
Bit rate : 112 Kbps
Channel(s) : 2 channels
Sampling rate : 44.1 KHz
Resolution : 16 bits
Video delay : 10ms
Stream size : 19.6 MiB (7%)
Alignment : Split accross interleaves
Interleave, duration : 33 ms (1.00 video frame)
Interleave, preload duration : 500 ms

General
Format : AVI
Format/Info : Audio Video Interleave
File size : 103 MiB
Duration : 11mn 35s
Overall bit rate : 1 244 Kbps
Writing application : VirtualDubMod 1.5.10.2 (build 2540/release)
Writing library : VirtualDubMod build 2540/release

Video
Format : MPEG-4 Visual
Format profile : Streaming Video@L1
Format settings, BVOP : Yes
Format settings, QPel : No
Format settings, GMC : No warppoints
Format settings, Matrix : Default (H.263)
Codec ID : XVID
Codec ID/Hint : XviD
Duration : 11mn 35s
Bit rate : 1 106 Kbps
Width : 576 pixels
Height : 432 pixels
Display aspect ratio : 4/3
Frame rate : 25.000 fps
Resolution : 24 bits
Colorimetry : 4:2:0
Scan type : Progressive
Bits/(Pixel*Frame) : 0.178
Stream size : 91.8 MiB (89%)
Writing library : XviD 1.0.3 (UTC 2004-12-20)

Audio
Format : MPEG Audio
Format version : Version 1
Format profile : Layer 3
Codec ID : 55
Codec ID/Hint : MP3
Duration : 11mn 35s
Bit rate mode : Constant
Bit rate : 128 Kbps
Channel(s) : 2 channels
Sampling rate : 48.0 KHz
Resolution : 16 bits
Video delay : 8ms
Stream size : 10.6 MiB (10%)
Alignment : Split accross interleaves
Interleave, duration : 40 ms (1.00 video frame)
Interleave, preload duration : 500 ms

General
Format : AVI
Format/Info : Audio Video Interleave
File size : 120 MiB
Duration : 10mn 29s
Overall bit rate : 1 597 Kbps
Writing application : VirtualDubMod 1.5.10.2 (build 2540/release)
Writing library : VirtualDubMod build 2540/release

Video
Format : MPEG-4 Visual
Format settings, BVOP : Yes
Format settings, QPel : No
Format settings, GMC : No warppoints
Format settings, Matrix : Default (H.263)
Codec ID : DX50
Codec ID/Hint : DivX 5
Duration : 10mn 29s
Bit rate : 1 460 Kbps
Width : 640 pixels
Height : 464 pixels
Display aspect ratio : 1.379
Frame rate : 25.000 fps
Resolution : 24 bits
Scan type : Progressive
Bits/(Pixel*Frame) : 0.197
Stream size : 109 MiB (91%)
Writing library : DivX 5.2.1 (WaffleDay) (UTC 2004-09-08)

Audio
Format : MPEG Audio
Format version : Version 1
Format profile : Layer 3
Codec ID : 55
Codec ID/Hint : MP3
Duration : 10mn 29s
Bit rate mode : Constant
Bit rate : 128 Kbps
Channel(s) : 2 channels
Sampling rate : 48.0 KHz
Resolution : 16 bits
Video delay : 18ms
Stream size : 9.60 MiB (8%)
Alignment : Split accross interleaves
Interleave, duration : 40 ms (1.00 video frame)
Interleave, preload duration : 500 ms

General
Format : AVI
Format/Info : Audio Video Interleave
File size : 99.1 MiB
Duration : 14mn 46s
Overall bit rate : 938 Kbps
Writing application : VirtualDubMod 1.5.10.2 (build 2540/release)
Writing library : VirtualDubMod build 2540/release

Video
Format : MPEG-4 Visual
Format settings, BVOP : No
Format settings, QPel : No
Format settings, GMC : No warppoints
Format settings, Matrix : Default (H.263)
Codec ID : XVID
Codec ID/Hint : XviD
Duration : 14mn 46s
Bit rate : 797 Kbps
Width : 512 pixels
Height : 384 pixels
Display aspect ratio : 4/3
Frame rate : 29.970 fps
Resolution : 24 bits
Colorimetry : 4:2:0
Scan type : Progressive
Bits/(Pixel*Frame) : 0.135
Stream size : 84.2 MiB (85%)

Audio
Format : MPEG Audio
Format version : Version 1
Format profile : Layer 3
Codec ID : 55
Codec ID/Hint : MP3
Duration : 14mn 46s
Bit rate mode : Variable
Bit rate : 125 Kbps
Channel(s) : 2 channels
Sampling rate : 48.0 KHz
Resolution : 16 bits
Stream size : 13.4 MiB (14%)
Alignment : Aligned on interleaves
Interleave, duration : 24 ms (0.72 video frame)
Interleave, preload duration : 466 ms

General
Format : Windows Media
File size : 356 MiB
Duration : 24mn 38s
Overall bit rate mode : Constant
Overall bit rate : 2 018 Kbps
Maximum Overall bit rate : 2 027 Kbps
Encoded date : UTC 2008-06-23 16:10:29.890
AspectRatioX : 1
AspectRatioY : 1

Video
ID : 2
Format : VC-1
Format profile : MP@HL
Codec ID : WMV3
Codec ID/Info : Windows Media Video 9
Codec ID/Hint : WMV3
Description of the codec : Windows Media Video 9 - Professional
Duration : 24mn 37s
Bit rate mode : Constant
Bit rate : 2 000 Kbps
Width : 852 pixels
Height : 480 pixels
Display aspect ratio : 16/9
Frame rate : 29.970 fps
Resolution : 24 bits
Scan type : Progressive
Bits/(Pixel*Frame) : 0.163
Stream size : 352 MiB (99%)
Language : en-us

Audio
ID : 1
Format : WMA2
Format profile : L2
Codec ID : 161
Codec ID/Info : Windows Media Audio 2
Description of the codec : Windows Media Audio 9.1 - 8 kbps, 8 kHz, mono 1-pass CBR
Duration : 24mn 38s
Bit rate mode : Constant
Bit rate : 8 000 bps
Channel(s) : 1 channel
Sampling rate : 8 000 Hz
Resolution : 16 bits
Stream size : 1.41 MiB (0%)
Language : Hungarian

General
Format : AVI
Format/Info : Audio Video Interleave
File size : 302 MiB
Duration : 21mn 29s
Overall bit rate : 1 964 Kbps
Writing application : VirtualDubMod 1.5.10.2 (build 2540/release)
Writing library : VirtualDubMod build 2540/release

Video
Format : MPEG-4 Visual
Format profile : Simple@L3
Format settings, BVOP : Yes
Format settings, QPel : No
Format settings, GMC : No warppoints
Format settings, Matrix : Custom
Codec ID : XVID
Codec ID/Hint : XviD
Duration : 21mn 29s
Bit rate : 1 763 Kbps
Width : 512 pixels
Height : 400 pixels
Display aspect ratio : 1.280
Frame rate : 25.000 fps
Resolution : 24 bits
Colorimetry : 4:2:0
Scan type : Progressive
Bits/(Pixel*Frame) : 0.344
Stream size : 271 MiB (90%)
Writing library : XviD 0.0.09 (UTC 2003-03-25)

Audio
Format : AC-3
Format/Info : Audio Coding 3
Codec ID : 2000
Duration : 21mn 29s
Bit rate mode : Constant
Bit rate : 192 Kbps
Channel(s) : 2 channels
Channel positions : L R
Sampling rate : 48.0 KHz
Stream size : 29.5 MiB (10%)
Alignment : Split accross interleaves
Interleave, duration : 40 ms (1.00 video frame)
Interleave, preload duration : 500 ms

General
Format : AVI
Format/Info : Audio Video Interleave
File size : 367 MiB
Duration : 29mn 30s
Overall bit rate : 1 741 Kbps
Writing application : VirtualDubMod 1.5.10.2 (build 2540/release)
Writing library : VirtualDubMod build 2540/release

Video
Format : MPEG-4 Visual
Format profile : Simple@L1
Format settings, BVOP : No
Format settings, QPel : No
Format settings, GMC : No warppoints
Format settings, Matrix : Default (H.263)
Codec ID : DX50
Codec ID/Hint : DivX 5
Duration : 29mn 30s
Bit rate : 1 600 Kbps
Width : 720 pixels
Height : 416 pixels
Display aspect ratio : 16/9
Frame rate : 25.000 fps
Resolution : 24 bits
Colorimetry : 4:2:0
Scan type : Progressive
Bits/(Pixel*Frame) : 0.214
Stream size : 338 MiB (92%)
Writing library : Lavc51.40.4

Audio
Format : MPEG Audio
Format version : Version 1
Format profile : Layer 3
Codec ID : 55
Codec ID/Hint : MP3
Duration : 29mn 30s
Bit rate mode : Constant
Bit rate : 128 Kbps
Channel(s) : 2 channels
Sampling rate : 48.0 KHz
Resolution : 16 bits
Stream size : 27.0 MiB (7%)
Alignment : Aligned on interleaves
Interleave, duration : 24 ms (0.60 video frame)
Interleave, preload duration : 504 ms

General
Format : AVI
Format/Info : Audio Video Interleave
File size : 286 MiB
Duration : 21mn 57s
Overall bit rate : 1 821 Kbps
Writing application : VirtualDubMod 1.5.10.2 (build 2540/release)
Writing library : VirtualDubMod build 2540/release

Video
Format : MPEG-4 Visual
Format settings, BVOP : No
Format settings, QPel : No
Format settings, GMC : No warppoints
Format settings, Matrix : Default (H.263)
Codec ID : XVID
Codec ID/Hint : XviD
Duration : 21mn 57s
Bit rate : 1 676 Kbps
Width : 512 pixels
Height : 384 pixels
Display aspect ratio : 4/3
Frame rate : 29.970 fps
Resolution : 24 bits
Colorimetry : 4:2:0
Scan type : Progressive
Bits/(Pixel*Frame) : 0.284
Stream size : 263 MiB (92%)
Writing library : XviD 1.0.3 (UTC 2004-12-20)

Audio
Format : MPEG Audio
Format version : Version 1
Format profile : Layer 3
Codec ID : 55
Codec ID/Hint : MP3
Duration : 21mn 57s
Bit rate mode : Variable
Bit rate : 130 Kbps
Channel(s) : 2 channels
Sampling rate : 48.0 KHz
Resolution : 16 bits
Stream size : 20.6 MiB (7%)
Alignment : Aligned on interleaves
Interleave, duration : 24 ms (0.72 video frame)
Interleave, preload duration : 448 ms

General
Format : AVI
Format/Info : Audio Video Interleave
File size : 203 MiB
Duration : 13mn 14s
Overall bit rate : 2 142 Kbps
Writing application : VirtualDubMod 1.5.10.2 (build 2540/release)
Writing library : VirtualDubMod build 2540/release

Video
Format : MPEG-4 Visual
Format profile : Simple@L1
Format settings, BVOP : No
Format settings, QPel : No
Format settings, GMC : No warppoints
Format settings, Matrix : Default (H.263)
Codec ID : DX50
Codec ID/Hint : DivX 5
Duration : 13mn 14s
Bit rate : 2 000 Kbps
Width : 640 pixels
Height : 480 pixels
Display aspect ratio : 4/3
Frame rate : 29.970 fps
Resolution : 24 bits
Colorimetry : 4:2:0
Scan type : Progressive
Bits/(Pixel*Frame) : 0.217
Stream size : 189 MiB (93%)
Writing library : Lavc51.40.4

Audio
Format : MPEG Audio
Format version : Version 1
Format profile : Layer 3
Codec ID : 55
Codec ID/Hint : MP3
Duration : 13mn 14s
Bit rate mode : Constant
Bit rate : 128 Kbps
Channel(s) : 2 channels
Sampling rate : 48.0 KHz
Resolution : 16 bits
Stream size : 12.1 MiB (6%)
Alignment : Aligned on interleaves
Interleave, duration : 24 ms (0.72 video frame)
Interleave, preload duration : 504 ms

General
Format : AVI
Format/Info : Audio Video Interleave
File size : 274 MiB
Duration : 19mn 49s
Overall bit rate : 1 933 Kbps
Writing application : VirtualDubMod 1.5.10.2 (build 2540/release)
Writing library : VirtualDubMod build 2540/release

Video
Format : MPEG-4 Visual
Format profile : Simple@L3
Format settings, BVOP : Yes
Format settings, QPel : No
Format settings, GMC : No warppoints
Format settings, Matrix : Custom
Codec ID : XVID
Codec ID/Hint : XviD
Duration : 19mn 49s
Bit rate : 1 793 Kbps
Width : 512 pixels
Height : 384 pixels
Display aspect ratio : 4/3
Frame rate : 29.970 fps
Resolution : 24 bits
Colorimetry : 4:2:0
Scan type : Progressive
Bits/(Pixel*Frame) : 0.304
Stream size : 254 MiB (93%)
Writing library : XviD 1.0.3 (UTC 2004-12-20)

Audio
Format : MPEG Audio
Format version : Version 1
Format profile : Layer 3
Codec ID : 55
Codec ID/Hint : MP3
Duration : 19mn 49s
Bit rate mode : Constant
Bit rate : 128 Kbps
Channel(s) : 2 channels
Sampling rate : 48.0 KHz
Resolution : 16 bits
Stream size : 18.1 MiB (7%)
Alignment : Split accross interleaves
Interleave, duration : 33 ms (1.00 video frame)
Interleave, preload duration : 500 ms

General
Format : AVI
Format/Info : Audio Video Interleave
File size : 180 MiB
Duration : 17mn 2s
Overall bit rate : 1 475 Kbps
Writing application : VirtualDubMod 1.5.10.2 (build 2540/release)
Writing library : VirtualDubMod build 2540/release

Video
Format : MPEG-4 Visual
Format settings, BVOP : Yes
Format settings, QPel : No
Format settings, GMC : No warppoints
Format settings, Matrix : Default (H.263)
Codec ID : XVID
Codec ID/Hint : XviD
Duration : 17mn 2s
Bit rate : 1 325 Kbps
Width : 512 pixels
Height : 368 pixels
Display aspect ratio : 1.391
Frame rate : 29.970 fps
Resolution : 24 bits
Scan type : Progressive
Bits/(Pixel*Frame) : 0.235
Stream size : 162 MiB (90%)

Audio
Format : MPEG Audio
Format version : Version 1
Format profile : Layer 3
Codec ID : 55
Codec ID/Hint : MP3
Duration : 17mn 2s
Bit rate mode : Variable
Bit rate : 134 Kbps
Channel(s) : 2 channels
Sampling rate : 48.0 KHz
Resolution : 16 bits
Stream size : 16.5 MiB (9%)
Alignment : Aligned on interleaves
Interleave, duration : 24 ms (0.72 video frame)
Interleave, preload duration : 504 ms

General
Format : AVI
Format/Info : Audio Video Interleave
File size : 93.7 MiB
Duration : 10mn 56s
Overall bit rate : 1 197 Kbps
Writing application : VirtualDubMod 1.5.10.2 (build 2540/release)
Writing library : VirtualDubMod build 2540/release

Video
Format : MPEG-4 Visual
Format settings, BVOP : Yes
Format settings, QPel : No
Format settings, GMC : No warppoints
Format settings, Matrix : Default (H.263)
Codec ID : XVID
Codec ID/Hint : XviD
Duration : 10mn 56s
Bit rate : 1 059 Kbps
Width : 640 pixels
Height : 352 pixels
Display aspect ratio : 16/9
Frame rate : 25.000 fps
Resolution : 24 bits
Scan type : Progressive
Bits/(Pixel*Frame) : 0.188
Stream size : 82.9 MiB (88%)

Audio
Format : MPEG Audio
Format version : Version 1
Format profile : Layer 3
Codec ID : 55
Codec ID/Hint : MP3
Duration : 10mn 56s
Bit rate mode : Constant
Bit rate : 128 Kbps
Channel(s) : 2 channels
Sampling rate : 48.0 KHz
Resolution : 16 bits
Video delay : 7ms
Stream size : 10.0 MiB (11%)
Alignment : Split accross interleaves
Interleave, duration : 40 ms (1.00 video frame)
Interleave, preload duration : 500 ms

General
Format : AVI
Format/Info : Audio Video Interleave
File size : 165 MiB
Duration : 8mn 42s
Overall bit rate : 2 642 Kbps
Writing application : VirtualDubMod 1.5.10.2 (build 2540/release)
Writing library : VirtualDubMod build 2540/release

Video
Format : MPEG-4 Visual
Format profile : Streaming Video@L1
Format settings, BVOP : Yes
Format settings, QPel : Yes
Format settings, GMC : 3 warppoints
Format settings, Matrix : Default (MPEG)
Muxing mode : Packed bitstream
Codec ID : XVID
Codec ID/Hint : XviD
Duration : 8mn 42s
Bit rate : 2 182 Kbps
Width : 720 pixels
Height : 406 pixels
Display aspect ratio : 16/9
Frame rate : 29.970 fps
Resolution : 24 bits
Colorimetry : 4:2:0
Scan type : Progressive
Bits/(Pixel*Frame) : 0.249
Stream size : 136 MiB (83%)
Writing library : XviD 1.1.2 (UTC 2006-11-01)

Audio
Format : AC-3
Format/Info : Audio Coding 3
Codec ID : 2000
Duration : 8mn 42s
Bit rate mode : Constant
Bit rate : 448 Kbps
Channel(s) : 6 channels
Channel positions : Front: L C R, Surround: L R, LFE
Sampling rate : 48.0 KHz
Stream size : 27.9 MiB (17%)
Alignment : Aligned on interleaves
Interleave, duration : 33 ms (1.00 video frame)
Interleave, preload duration : 512 ms

General
Format : AVI
Format/Info : Audio Video Interleave
File size : 97.8 MiB
Duration : 12mn 54s
Overall bit rate : 1 060 Kbps
Writing application : VirtualDubMod 1.5.10.2 (build 2540/release)
Writing library : VirtualDubMod build 2540/release

Video
Format : MPEG-4 Visual
Format profile : Streaming Video@L1
Format settings, BVOP : Yes
Format settings, QPel : No
Format settings, GMC : No warppoints
Format settings, Matrix : Default (H.263)
Muxing mode : Packed bitstream
Codec ID : XVID
Codec ID/Hint : XviD
Duration : 12mn 54s
Bit rate : 919 Kbps
Width : 576 pixels
Height : 320 pixels
Display aspect ratio : 16/9
Frame rate : 25.000 fps
Resolution : 24 bits
Colorimetry : 4:2:0
Scan type : Progressive
Bits/(Pixel*Frame) : 0.199
Stream size : 84.8 MiB (87%)
Writing library : XviD 1.0.2 (UTC 2004-08-29)

Audio
Format : MPEG Audio
Format version : Version 1
Format profile : Layer 3
Codec ID : 55
Codec ID/Hint : MP3
Duration : 12mn 54s
Bit rate mode : Variable
Bit rate : 126 Kbps
Channel(s) : 2 channels
Sampling rate : 48.0 KHz
Resolution : 16 bits
Stream size : 11.9 MiB (12%)
Alignment : Aligned on interleaves
Interleave, duration : 24 ms (0.60 video frame)
Interleave, preload duration : 512 ms

General
Format : AVI
Format/Info : Audio Video Interleave
File size : 132 MiB
Duration : 15mn 29s
Overall bit rate : 1 190 Kbps
Writing application : VirtualDubMod 1.5.10.2 (build 2540/release)
Writing library : VirtualDubMod build 2540/release

Video
Format : MPEG-4 Visual
Format profile : Streaming Video@L1
Format settings, BVOP : Yes
Format settings, QPel : No
Format settings, GMC : No warppoints
Format settings, Matrix : Default (H.263)
Muxing mode : Packed bitstream
Codec ID : XVID
Codec ID/Hint : XviD
Duration : 15mn 29s
Bit rate : 1 051 Kbps
Width : 576 pixels
Height : 320 pixels
Display aspect ratio : 16/9
Frame rate : 25.000 fps
Resolution : 24 bits
Colorimetry : 4:2:0
Scan type : Progressive
Bits/(Pixel*Frame) : 0.228
Stream size : 116 MiB (88%)
Writing library : XviD 1.0.2 (UTC 2004-08-29)

Audio
Format : MPEG Audio
Format version : Version 1
Format profile : Layer 3
Codec ID : 55
Codec ID/Hint : MP3
Duration : 15mn 29s
Bit rate mode : Variable
Bit rate : 126 Kbps
Channel(s) : 2 channels
Sampling rate : 48.0 KHz
Resolution : 16 bits
Stream size : 14.0 MiB (11%)
Alignment : Aligned on interleaves
Interleave, duration : 24 ms (0.60 video frame)
Interleave, preload duration : 505 ms

General
Format : AVI
Format/Info : Audio Video Interleave
File size : 233 MiB
Duration : 33mn 9s
Overall bit rate : 984 Kbps
Writing application : VirtualDubMod 1.5.10.2 (build 2540/release)
Writing library : VirtualDubMod build 2540/release

Video
Format : MPEG-4 Visual
Format profile : Streaming Video@L1
Format settings, BVOP : Yes
Format settings, QPel : No
Format settings, GMC : No warppoints
Format settings, Matrix : Default (H.263)
Muxing mode : Packed bitstream
Codec ID : XVID
Codec ID/Hint : XviD
Duration : 33mn 9s
Bit rate : 844 Kbps
Width : 576 pixels
Height : 320 pixels
Display aspect ratio : 16/9
Frame rate : 25.000 fps
Resolution : 24 bits
Colorimetry : 4:2:0
Scan type : Progressive
Bits/(Pixel*Frame) : 0.183
Stream size : 200 MiB (86%)
Writing library : XviD 1.0.2 (UTC 2004-08-29)

Audio
Format : MPEG Audio
Format version : Version 1
Format profile : Layer 3
Codec ID : 55
Codec ID/Hint : MP3
Duration : 33mn 9s
Bit rate mode : Variable
Bit rate : 126 Kbps
Channel(s) : 2 channels
Sampling rate : 48.0 KHz
Resolution : 16 bits
Stream size : 30.0 MiB (13%)
Alignment : Aligned on interleaves
Interleave, duration : 24 ms (0.60 video frame)
Interleave, preload duration : 472 ms

General
Format : AVI
Format/Info : Audio Video Interleave
File size : 175 MiB
Duration : 13mn 21s
Overall bit rate : 1 832 Kbps
Writing application : VirtualDubMod 1.5.10.2 (build 2540/release)
Writing library : VirtualDubMod build 2540/release

Video
Format : MPEG-4 Visual
Format settings, BVOP : Yes
Format settings, QPel : No
Format settings, GMC : No warppoints
Format settings, Matrix : Default (H.263)
Codec ID : DX50
Codec ID/Hint : DivX 5
Duration : 13mn 21s
Bit rate : 1 694 Kbps
Width : 640 pixels
Height : 480 pixels
Display aspect ratio : 4/3
Frame rate : 25.000 fps
Resolution : 24 bits
Scan type : Progressive
Bits/(Pixel*Frame) : 0.221
Stream size : 162 MiB (92%)
Writing library : DivX 5.2.1 Alpha (UTC 2004-09-08)

Audio
Format : MPEG Audio
Format version : Version 1
Format profile : Layer 3
Codec ID : 55
Codec ID/Hint : MP3
Duration : 13mn 21s
Bit rate mode : Constant
Bit rate : 128 Kbps
Channel(s) : 2 channels
Sampling rate : 44.1 KHz
Resolution : 16 bits
Video delay : 23ms
Stream size : 12.2 MiB (7%)
Alignment : Split accross interleaves
Interleave, duration : 40 ms (1.00 video frame)
Interleave, preload duration : 500 ms

General
Format : AVI
Format/Info : Audio Video Interleave
File size : 115 MiB
Duration : 14mn 14s
Overall bit rate : 1 128 Kbps
Writing application : VirtualDubMod 1.5.10.2 (build 2540/release)
Writing library : VirtualDubMod build 2540/release

Video
Format : MPEG-4 Visual
Format settings, BVOP : Yes
Format settings, QPel : No
Format settings, GMC : No warppoints
Format settings, Matrix : Default (MPEG)
Codec ID : XVID
Codec ID/Hint : XviD
Duration : 14mn 14s
Bit rate : 991 Kbps
Width : 720 pixels
Height : 400 pixels
Display aspect ratio : 16/9
Frame rate : 23.976 fps
Resolution : 24 bits
Scan type : Progressive
Bits/(Pixel*Frame) : 0.144
Stream size : 101 MiB (88%)

Audio
Format : MPEG Audio
Format version : Version 1
Format profile : Layer 3
Codec ID : 55
Codec ID/Hint : MP3
Duration : 14mn 14s
Bit rate mode : Constant
Bit rate : 128 Kbps
Channel(s) : 2 channels
Sampling rate : 48.0 KHz
Resolution : 16 bits
Video delay : 18ms
Stream size : 13.0 MiB (11%)
Alignment : Split accross interleaves
Interleave, duration : 42 ms (1.00 video frame)
Interleave, preload duration : 500 ms

General
Format : AVI
Format/Info : Audio Video Interleave
File size : 447 MiB
Duration : 19mn 55s
Overall bit rate : 3 137 Kbps
Writing application : VirtualDubMod 1.5.10.2 (build 2540/release)
Writing library : VirtualDubMod build 2540/release

Video
Format : MPEG-4 Visual
Format settings, BVOP : No
Format settings, QPel : No
Format settings, GMC : No warppoints
Format settings, Matrix : Default (H.263)
Codec ID : DX50
Codec ID/Hint : DivX 5
Duration : 19mn 55s
Bit rate : 2 998 Kbps
Width : 720 pixels
Height : 480 pixels
Display aspect ratio : 1.500
Frame rate : 29.970 fps
Standard : NTSC
Resolution : 24 bits
Colorimetry : 4:2:0
Scan type : Interlaced
Scan order : Top Field First
Bits/(Pixel*Frame) : 0.289
Stream size : 427 MiB (96%)
Writing library : DivX 5.1.1 (Maupiti) (UTC 2003-11-19)

Audio
Format : MPEG Audio
Format version : Version 1
Format profile : Layer 3
Codec ID : 55
Codec ID/Hint : MP3
Duration : 19mn 55s
Bit rate mode : Constant
Bit rate : 128 Kbps
Channel(s) : 2 channels
Sampling rate : 48.0 KHz
Resolution : 16 bits
Stream size : 18.2 MiB (4%)
Alignment : Split accross interleaves
Interleave, duration : 33 ms (1.00 video frame)
Interleave, preload duration : 500 ms

General
Format : AVI
Format/Info : Audio Video Interleave
File size : 183 MiB
Duration : 17mn 15s
Overall bit rate : 1 483 Kbps
Writing application : VirtualDubMod 1.5.10.2 (build 2540/release)
Writing library : VirtualDubMod build 2540/release

Video
Format : MPEG-4 Visual
Format settings, BVOP : No
Format settings, QPel : No
Format settings, GMC : No warppoints
Format settings, Matrix : Default (H.263)
Codec ID : DX50
Codec ID/Hint : DivX 5
Duration : 17mn 15s
Bit rate : 1 249 Kbps
Width : 720 pixels
Height : 576 pixels
Display aspect ratio : 5/4
Frame rate : 25.000 fps
Standard : PAL
Resolution : 24 bits
Colorimetry : 4:2:0
Scan type : Progressive
Bits/(Pixel*Frame) : 0.120
Stream size : 154 MiB (84%)
Writing library : DivX 1586

Audio
Format : MPEG Audio
Format version : Version 1
Format profile : Layer 3
Codec ID : 55
Codec ID/Hint : MP3
Duration : 17mn 15s
Bit rate mode : Constant
Bit rate : 224 Kbps
Channel(s) : 2 channels
Sampling rate : 48.0 KHz
Resolution : 16 bits
Video delay : 4ms
Stream size : 27.6 MiB (15%)
Alignment : Split accross interleaves
Interleave, duration : 40 ms (1.00 video frame)
Interleave, preload duration : 500 ms

General
Format : AVI
Format/Info : Audio Video Interleave
File size : 80.8 MiB
Duration : 10mn 34s
Overall bit rate : 1 069 Kbps
Writing application : VirtualDubMod 1.5.10.2 (build 2540/release)
Writing library : VirtualDubMod build 2540/release

Video
Format : MPEG-4 Visual
Format profile : Streaming Video@L1
Format settings, BVOP : Yes
Format settings, QPel : No
Format settings, GMC : No warppoints
Format settings, Matrix : Default (H.263)
Muxing mode : Packed bitstream
Codec ID : XVID
Codec ID/Hint : XviD
Duration : 10mn 34s
Bit rate : 918 Kbps
Width : 512 pixels
Height : 384 pixels
Display aspect ratio : 4/3
Frame rate : 25.000 fps
Resolution : 24 bits
Colorimetry : 4:2:0
Scan type : Progressive
Bits/(Pixel*Frame) : 0.187
Stream size : 69.4 MiB (86%)
Writing library : XviD 1.1.0 (UTC 2005-11-22)

Audio
Format : MPEG Audio
Format version : Version 1
Format profile : Layer 3
Codec ID : 55
Codec ID/Hint : MP3
Duration : 10mn 34s
Bit rate mode : Variable
Bit rate : 136 Kbps
Channel(s) : 2 channels
Sampling rate : 48.0 KHz
Resolution : 16 bits
Stream size : 10.4 MiB (13%)
Alignment : Aligned on interleaves
Interleave, duration : 24 ms (0.60 video frame)
Interleave, preload duration : 527 ms

General
Format : AVI
Format/Info : Audio Video Interleave
File size : 168 MiB
Duration : 18mn 58s
Overall bit rate : 1 235 Kbps
Writing application : VirtualDubMod 1.5.10.2 (build 2540/release)
Writing library : VirtualDubMod build 2540/release

Video
Format : MPEG-4 Visual
Format profile : Streaming Video@L1
Format settings, BVOP : Yes
Format settings, QPel : No
Format settings, GMC : No warppoints
Format settings, Matrix : Custom
Codec ID : XVID
Codec ID/Hint : XviD
Duration : 18mn 58s
Bit rate : 1 097 Kbps
Width : 512 pixels
Height : 384 pixels
Display aspect ratio : 4/3
Frame rate : 25.000 fps
Resolution : 24 bits
Colorimetry : 4:2:0
Scan type : Progressive
Bits/(Pixel*Frame) : 0.223
Stream size : 149 MiB (89%)
Writing library : XviD 1.2.1 (UTC 2008-12-04)

Audio
Format : MPEG Audio
Format version : Version 1
Format profile : Layer 3
Codec ID : 55
Codec ID/Hint : MP3
Duration : 18mn 58s
Bit rate mode : Constant
Bit rate : 128 Kbps
Channel(s) : 2 channels
Sampling rate : 48.0 KHz
Resolution : 16 bits
Stream size : 17.4 MiB (10%)
Alignment : Aligned on interleaves
Interleave, duration : 40 ms (1.00 video frame)
Interleave, preload duration : 504 ms

General
Format : AVI
Format/Info : Audio Video Interleave
File size : 80.0 MiB
Duration : 7mn 50s
Overall bit rate : 1 426 Kbps
Writing application : VirtualDubMod 1.5.10.2 (build 2540/release)
Writing library : VirtualDubMod build 2540/release

Video
Format : MPEG-4 Visual
Format settings, BVOP : Yes
Format settings, QPel : No
Format settings, GMC : No warppoints
Format settings, Matrix : Default (H.263)
Muxing mode : Packed bitstream
Codec ID : DX50
Codec ID/Hint : DivX 5
Duration : 7mn 50s
Bit rate : 1 284 Kbps
Width : 720 pixels
Height : 384 pixels
Display aspect ratio : 1.875
Frame rate : 25.000 fps
Resolution : 24 bits
Scan type : Progressive
Bits/(Pixel*Frame) : 0.186
Stream size : 72.1 MiB (90%)
Writing library : DivX 5.2.1 Alpha (UTC 2004-09-08)

Audio
Format : MPEG Audio
Format version : Version 1
Format profile : Layer 3
Codec ID : 55
Codec ID/Hint : MP3
Duration : 7mn 50s
Bit rate mode : Variable
Bit rate : 128 Kbps
Channel(s) : 2 channels
Sampling rate : 44.1 KHz
Resolution : 16 bits
Stream size : 7.22 MiB (9%)
Alignment : Aligned on interleaves
Interleave, duration : 26 ms (0.65 video frame)
Interleave, preload duration : 544 ms

General
Format : AVI
Format/Info : Audio Video Interleave
File size : 37.9 MiB
Duration : 14mn 43s
Overall bit rate : 360 Kbps
Writing application : VirtualDubMod 1.5.10.2 (build 2540/release)
Writing library : VirtualDubMod build 2540/release

Video
Format : VP6F
Codec ID : VP6F
Duration : 14mn 43s
Bit rate : 284 Kbps
Width : 640 pixels
Height : 480 pixels
Display aspect ratio : 4/3
Frame rate : 29.767 fps
Resolution : 24 bits
Bits/(Pixel*Frame) : 0.031
Stream size : 29.9 MiB (79%)

Audio
Format : MPEG Audio
Format version : Version 1
Format profile : Layer 3
Codec ID : 55
Codec ID/Hint : MP3
Duration : 14mn 42s
Bit rate mode : Constant
Bit rate : 64.0 Kbps
Channel(s) : 2 channels
Sampling rate : 44.1 KHz
Resolution : 16 bits
Stream size : 6.74 MiB (18%)
Alignment : Split accross interleaves
Interleave, duration : 34 ms (1.00 video frame)
Interleave, preload duration : 500 ms

General
Format : AVI
Format/Info : Audio Video Interleave
File size : 169 MiB
Duration : 17mn 36s
Overall bit rate : 1 344 Kbps
Writing application : transcode-1.0.2
Writing library : VirtualDub build 24469/release

Video
Format : MPEG-4 Visual
Format profile : Streaming Video@L1
Format settings, BVOP : Yes
Format settings, QPel : No
Format settings, GMC : No warppoints
Format settings, Matrix : Default (H.263)
Muxing mode : Packed bitstream
Codec ID : XVID
Codec ID/Hint : XviD
Duration : 17mn 36s
Bit rate : 1 140 Kbps
Width : 544 pixels
Height : 416 pixels
Display aspect ratio : 4/3
Frame rate : 29.970 fps
Resolution : 24 bits
Colorimetry : 4:2:0
Scan type : Progressive
Bits/(Pixel*Frame) : 0.168
Stream size : 144 MiB (85%)
Writing library : XviD 1.0.3 (UTC 2004-12-20)

Audio
Format : AC-3
Format/Info : Audio Coding 3
Codec ID : 2000
Duration : 17mn 36s
Bit rate mode : Constant
Bit rate : 192 Kbps
Channel(s) : 2 channels
Channel positions : L R
Sampling rate : 48.0 KHz
Video delay : 6ms
Stream size : 24.2 MiB (14%)
Alignment : Split accross interleaves
Interleave, duration : 33 ms (1.00 video frame)
Interleave, preload duration : 500 ms

General
Format : AVI
Format/Info : Audio Video Interleave
File size : 86.3 MiB
Duration : 8mn 3s
Overall bit rate : 1 497 Kbps

Video
Format : MPEG-4 Visual
Format profile : Streaming Video@L1
Format settings, BVOP : Yes
Format settings, QPel : No
Format settings, GMC : No warppoints
Format settings, Matrix : Default (H.263)
Codec ID : XVID
Codec ID/Hint : XviD
Duration : 8mn 3s
Bit rate : 1 392 Kbps
Width : 640 pixels
Height : 480 pixels
Display aspect ratio : 4/3
Frame rate : 25.000 fps
Resolution : 24 bits
Colorimetry : 4:2:0
Scan type : Progressive
Bits/(Pixel*Frame) : 0.181
Stream size : 80.1 MiB (93%)
Writing library : XviD 1.0.1 (UTC 2004-06-05)

Audio
Format : MPEG Audio
Format version : Version 1
Format profile : Layer 3
Codec ID : 55
Codec ID/Hint : MP3
Duration : 8mn 3s
Bit rate mode : Constant
Bit rate : 96.0 Kbps
Channel(s) : 2 channels
Sampling rate : 44.1 KHz
Resolution : 16 bits
Stream size : 5.53 MiB (6%)
Alignment : Split accross interleaves
Interleave, duration : 40 ms (1.00 video frame)

General
Format : AVI
Format/Info : Audio Video Interleave
File size : 147 MiB
Duration : 15mn 56s
Overall bit rate : 1 285 Kbps
Writing application : VirtualDubMod 1.5.10.2 (build 2540/release)
Writing library : VirtualDubMod build 2540/release

Video
Format : MPEG-4 Visual
Format profile : Simple@L3
Format settings, BVOP : No
Format settings, QPel : No
Format settings, GMC : No warppoints
Format settings, Matrix : Default (H.263)
Codec ID : XVID
Codec ID/Hint : XviD
Duration : 15mn 56s
Bit rate : 1 085 Kbps
Width : 512 pixels
Height : 384 pixels
Display aspect ratio : 4/3
Frame rate : 23.976 fps
Resolution : 24 bits
Colorimetry : 4:2:0
Scan type : Progressive
Bits/(Pixel*Frame) : 0.230
Stream size : 124 MiB (84%)
Writing library : XviD 0.0.09 (UTC 2003-03-25)

Audio
Format : AC-3
Format/Info : Audio Coding 3
Codec ID : 2000
Duration : 15mn 49s
Bit rate mode : Constant
Bit rate : 192 Kbps
Channel(s) : 2 channels
Channel positions : L R
Sampling rate : 48.0 KHz
Video delay : 16ms
Stream size : 21.7 MiB (15%)
Alignment : Split accross interleaves
Interleave, duration : 42 ms (1.01 video frame)
Interleave, preload duration : 500 ms

General
Format : AVI
Format/Info : Audio Video Interleave
File size : 38.0 MiB
Duration : 14mn 26s
Overall bit rate : 368 Kbps
Writing application : VirtualDubMod 1.5.10.2 (build 2540/release)
Writing library : VirtualDubMod build 2540/release

Video
Format : VP6F
Codec ID : VP6F
Duration : 14mn 26s
Bit rate : 293 Kbps
Width : 640 pixels
Height : 480 pixels
Display aspect ratio : 4/3
Frame rate : 29.174 fps
Resolution : 24 bits
Bits/(Pixel*Frame) : 0.033
Stream size : 30.2 MiB (80%)

Audio
Format : MPEG Audio
Format version : Version 1
Format profile : Layer 3
Codec ID : 55
Codec ID/Hint : MP3
Duration : 14mn 26s
Bit rate mode : Constant
Bit rate : 64.0 Kbps
Channel(s) : 2 channels
Sampling rate : 44.1 KHz
Resolution : 16 bits
Stream size : 6.61 MiB (17%)
Alignment : Split accross interleaves
Interleave, duration : 34 ms (1.00 video frame)
Interleave, preload duration : 500 ms

General
Format : Windows Media
File size : 118 MiB
Duration : 7mn 52s
Overall bit rate mode : Variable
Overall bit rate : 2 089 Kbps
Maximum Overall bit rate : 2 771 Kbps
Encoded date : UTC 2006-01-21 00:08:06.234

Video
ID : 2
Format : VC-1
Format profile : MP@ML
Codec ID : WMV3
Codec ID/Info : Windows Media Video 9
Codec ID/Hint : WMV3
Description of the codec : Windows Media Video 9 - Professional
Duration : 7mn 51s
Bit rate mode : Variable
Bit rate : 2 000 Kbps
Width : 720 pixels
Height : 480 pixels
Display aspect ratio : 1.500
Frame rate : 29.970 fps
Standard : NTSC
Resolution : 24 bits
Scan type : Progressive
Bits/(Pixel*Frame) : 0.193
Stream size : 113 MiB (96%)
Language : en-ca

Audio
ID : 1
Format : WMA2
Format profile : L2
Codec ID : 161
Codec ID/Info : Windows Media Audio 2
Description of the codec : Windows Media Audio 9.1 - 32 kbps, 44 kHz, mono (A/V) 1-pass CBR
Duration : 7mn 52s
Bit rate mode : Constant
Bit rate : 32.0 Kbps
Channel(s) : 1 channel
Sampling rate : 44.1 KHz
Resolution : 16 bits
Stream size : 1.80 MiB (2%)
Language : en-ca

General
Format : Windows Media
File size : 360 MiB
Duration : 24mn 4s
Overall bit rate mode : Variable
Overall bit rate : 2 090 Kbps
Maximum Overall bit rate : 3 171 Kbps
Encoded date : UTC 2006-07-08 09:20:44.343

Video
ID : 2
Format : VC-1
Format profile : MP@ML
Codec ID : WMV3
Codec ID/Info : Windows Media Video 9
Codec ID/Hint : WMV3
Description of the codec : Windows Media Video 9 - Professional
Duration : 24mn 3s
Bit rate mode : Variable
Bit rate : 2 000 Kbps
Width : 720 pixels
Height : 480 pixels
Display aspect ratio : 1.500
Frame rate : 29.970 fps
Standard : NTSC
Resolution : 24 bits
Scan type : Progressive
Bits/(Pixel*Frame) : 0.193
Stream size : 344 MiB (96%)
Language : en-ca

Audio
ID : 1
Format : WMA2
Format profile : L2
Codec ID : 161
Codec ID/Info : Windows Media Audio 2
Description of the codec : Windows Media Audio 9.1 - 32 kbps, 44 kHz, mono (A/V) 1-pass CBR
Duration : 24mn 4s
Bit rate mode : Constant
Bit rate : 32.0 Kbps
Channel(s) : 1 channel
Sampling rate : 44.1 KHz
Resolution : 16 bits
Stream size : 5.52 MiB (2%)
Language : en-ca


Внимание! AdBlock блокирует показ скриншотов, все вопросы к разработчикам )))
Трекер:  [ 04-Окт-2011 12:48 ]

  

Скачать .torrent

Размер .torrent файла 36 KB


Размер: 6.17 GB
Хэш (hash) релиза: 9f02871f95612ea970df0ec34e2c4c4a3e19303b

Торренты, похожие на Claudia Ferrari скачать торрент

Форум Название Автор Размер S L Добавлен
Паки порнороликов по актрисам / Actresses Clips Packs ·· Claudia Ferrari (86 роликов) (Hanna, Claudia, Romana, Vanessa, Angel, Angel Madrid, Christina, Tina Crystal) MegaPack [2002-2009, Anal, Facial, DP, Bald, A2M, Busty, Big Tits, MILF] Galfimbul ghost 1792898827516.7 GB 1 1 1438730331

02:18

5-Авг-15

Гонзо, Лесбо и Фильмы без сюжета (DVD) / Gonzo, All Girl & Solo, All Sex (DVD) ·%· Christoph's Beautiful Girls 12 / Красивые девушки Кристофа Кларка 12 (Christoph Clark, Evil Angel) [2003 г., Gonzo, Anal, DP, Hardcore, DVD9] (Carrie Cruise, Melissa Black, Sabina Black, Sarah Twain, Simony Diamond, Claudia Ferrari, Jennifer Lon Galfimbul ghost 84108003507.83 GB 2 0 1564520829

00:07

31-Июл-19

Гонзо-фильмы 2011-2021 / Gonzo 2011-2021 ·%· Asses Up 2 / Кверху Жопами 2 (Matt Ass, Metro) [2006 г., All Sex, Anal, Gonzo, VOD] Claudia Ferrari, Valentina Velasques, Victoria Slim, Vanessa Hill Galfimbul ghost 23958386232.23 GB 0 0 1536081607

20:20

4-Сен-18

Фильмы с сюжетом / Feature & Vignettes ·· Une Nuit porno avec Melanie / A night with Melanie / Ночь с Мелани (Mike Foster, Marc Dorcel) [2003 г., Feature, Anal, DP, Lesbian, HDTV, 1080p] Angie Scott, Asmaret, Claudia Ferrari, Esther Fine, Kelli, Mandy Bright, Melanie Coste, Myli Galfimbul ghost 53219539694.96 GB 2 0 1497080854

10:47

10-Июн-17

Фильмы с сюжетом / Feature & Vignettes ·· Private Life of 25: Private Life of Silvia Lancome / Частная Жизнь Сильвии Ланком (с русским переводом) (Private) [2005 г., European, All Sex, Anal, DP, DVDRip] Silvia Lancome, Claudia Ferrari, Sandy Style, Jennifer Dark, Tera Joy [rus] Galfimbul ghost 52755945194.91 GB 0 0 1496957643

00:34

9-Июн-17

Фильмы без сюжета 1991-2010 / All Sex & Amateur 1991-2010 ·· Abgepflastert / Заклеенные Пластырем (Moli, Magma) [2003 г., All Sex, Anal, DVDRip] Claudia Ferrari, Simony Diamond Galfimbul ghost 14889131201.39 GB 0 0 1495278826

14:13

20-Май-17

Гонзо-фильмы 2011-2021 / Gonzo 2011-2021 ·· Mr. Beaver Checks In 13 / Goes To Afghanistan / Мистер Бивер 13 (Frank Thring, Hustler) [2002 г., All Sex, Anal, DVDRip] Claudia Ferrari, Cynthia Paul, Esther Fine, Jenny Blair, Sandy Style Galfimbul ghost 12404082311.16 GB 0 0 1491032383

10:39

1-Апр-17

Фильмы с сюжетом / Feature & Vignettes ·· Private Gold 83: Porn Wars 2 / Порно Войны: Эпизод 2 (2 перевода) (Kovi, Private) [2006 г, Parody, Feature, European, Anal, DP, A2M, DVDRip] Victoria Swinger, Tera Bond, Vanessa Hill, Barbara Summer, Angelina Crow, Roxy Panther, Claudia Ferrari [rus] Galfimbul ghost 20152984741.88 GB 3 0 1489768343

19:32

17-Мар-17

Фильмы с сюжетом / Feature & Vignettes ·· Pirate Fetish Machine 8: Fetish Academy / Академия фетиша (с русским переводом) (Kovi, Private) [2002 г., Feature, European, Anal, DP, A2M, Fetish, Leather, DVDRip] Sandra Iron, Mandy Bright, Michelle Wild, Dina Pearl, Nicol, Claudia Ferrari [rus] Galfimbul ghost 15241236481.42 GB 1 1 1453336873

03:41

21-Янв-16

Фильмы с сюжетом / Feature & Vignettes ·· Decadence / Упадок (Michelle Wild, Jessica Fiorentino, Claudia Ferrari, Jennifer Dark, Gina Blue [Francesco Fanelli, H2 Video]) [2004 г., Features, DVDRip] (Split Scenes) Galfimbul ghost 46800875954.36 GB 1 2 1420093276

09:21

1-Янв-15

Фильмы с сюжетом / Feature & Vignettes ·· Porn Wars ep.-2 / Звездатые войны (эпизод 2) (С Русским переводом) (Kovi / Private) (Angelina Crow, Barbara Summer, Claudia Ferrari, Roxy Panther (as Roxy), Tera Bond, Vanessa Hill, Victoria Swinger) [2006 г., Порно пародия, DVDRip] renzi 733980672700 MB 0 0 1399316301

21:58

5-Май-14

Фильмы с сюжетом / Feature & Vignettes ·· Private Movies 24: Tribal Fantasies / Племенные фантазии (с русским переводом) (Kovi / Private) [2006 г., Feature, DVDRip] (Bianca, Judith Fox, Victoria Swinger, Claudia Ferrari, Sarah James, Janet Joy, Nikki Rider, Caroline De Jaie) [rus] LinGr 15307325441.43 GB 0 0 1379249265

15:47

15-Сен-13

Фильмы с сюжетом / Feature & Vignettes ·· Red Passion / Пелена страсти (с русским переводом) (D'Salvo / Moonlight) [2006 г., Feature, DVDRip] [rus] (Claudia Ferrari, Maria Bellucci, Katy Caro, Lara Stevens, Tera Bond) LinGr 885553152845 MB 0 0 1366431570

07:19

20-Апр-13

Фильмы без сюжета 1991-2010 / All Sex & Amateur 1991-2010 ·· The Best by Private 128: Outdoor Whores / Уличные Шлюхи (Private) [2010, All sex, Anal, DP, DVDRip] (Angel Dark, Black Angelika, Claudia Ferrari, Stacy Silver) Release Date: Sep 19, 2010! Galfimbul ghost 733470720699 MB 0 0 1364550753

12:52

29-Мар-13

Фильмы без сюжета 1991-2010 / All Sex & Amateur 1991-2010 ·· The Best By Private Vol. 140: Best Of The Decade. / Лучшеe Из Десятилетия. (Private.)[Gonzo., DVDRip](Aletta Ocean, Alexa May, Angel Dark, Carla Cox, Claudia Ferrari, Lady Mai, Laura Angel, Nikky Rider, Patricia.) *(Release Date:Feb. 17th, 2011) L 22089279862.06 GB 0 0 1364500558

22:55

28-Мар-13

Гонзо-фильмы 2011-2021 / Gonzo 2011-2021 ·· Anal Thrills 2 / Анальный трепет 2 / Lex Drill's Anal Thrills 2 (Jerome Tanner, Legend Video) [2004 г., Gonzo, anal, DP, DVDRip] (Lara Stevens, Katsumi, Ashley Long, Janet Peron, Claudia Ferrari) [split scenes] Galfimbul ghost 24895311282.32 GB 0 0 1364388485

15:48

27-Мар-13

Гонзо-фильмы 2011-2021 / Gonzo 2011-2021 ·· V8 12 (Ashley Long, Claudia Ferrari, Laura Lyons, Janet Peron, Lola, Monica) / Восемь поршней 12 (Разбит на эпизоды) (Kid Tea, Legend) [2004 г., Anal, Big Boobs, Facial, DP, Threesome, DVDRip] Galfimbul ghost 26710808782.49 GB 1 1 1364382461

14:07

27-Мар-13

Гонзо-фильмы 2011-2021 / Gonzo 2011-2021 ·· Three For All 4 / Сообразим Hа Tроих 4 (Denys Defrancesco, New Sensations) [2004 г., Gonzo, Anal, DP, Facial, VOD] (Claudia Ferrari, Karina Play, Thalia Festiny, Kristina Blonde, Jenny Blair) Galfimbul ghost 12032227741.12 GB 1 2 1364382192

14:03

27-Мар-13

Фильмы с сюжетом / Feature & Vignettes ·· Private Gold 68: Millionaire 2 / Миллионерша 2 (с русским переводом) (Alessandro del Mar, Private) [2004 г., Feature, Story, DVDRip-MKV] [rus] (Claudia Ferrari, Katryn, Kathy Anderson, Stacy Silver, Katsumi, Silvia Lancome, Simony Diamond) Galfimbul ghost 18122157101.69 GB 1 1 1364313898

19:04

26-Мар-13

Фильмы с сюжетом / Feature & Vignettes ·· Private Gold 67: Millionaire / Миллионерша (с русским переводом) (Alessandro del Mar, Private) [2004 г., Feature, Story, DVDRip-MKV] [rus] (Claudia Ferrari, Elen Nevaril, Cindy Lord, Lenny Power, Sarah Blue, Jessica May,Ellen Saint) Galfimbul ghost 18394804811.71 GB 0 0 1364313898

19:04

26-Мар-13

Еще никто не оставлял запись к записи скачать торрент Claudia Ferrari . Будь первым!

!Обратная связь