Скачать порно через торрент Nikita Denise UnionPeer.org бесплатно онлайн HD качество

Скачать новое порно 2015, 2014 новинки через торрент UnionPeer.org

Порно торрент бесплатно ЮнионПир.орг

Статистика раздачи
Размер:  12.24 GB   |    Зарегистрирован:  9 лет 6 месяцев   |    .torrent скачан:  1604 раза   |   
Раздают:  1  
 

Скачать Nikita Denise (64 ролика) МегаПАК / Ненасытная красотка из Чехии [All Sex, Anal, Cumshot, Double Penetration, Hardcore, Interracial, Lesbian, Lingerie] через torrent

 
 
Автор Сообщение

Galfimbul ghost

avatar Galfimbul ghost


Nikita Denise Mega Pack


Страна: Czech Republic
Жанр: All Sex, Anal, Cumshot, Double Penetration, Hardcore, Interracial, Lesbian, Lingerie
Качество: CAMRip; VHSRip; DVDRip

Скриншоты приложены к торренту
Complete name Nikita Denise\a devils tail.avi
Format : AVI
Format/Info : Audio Video Interleave
File size : 127 MiB
Duration : 19mn 38s
Overall bit rate : 903 Kbps
Writing application : transcode-0.6.9

Video
Format : MPEG-4 Visual
Format settings, BVOP : No
Format settings, QPel : No
Format settings, GMC : No warppoints
Format settings, Matrix : Default
Codec ID : XVID
Codec ID/Hint : XviD
Duration : 19mn 38s
Bit rate : 794 Kbps
Width : 480 pixels
Height : 360 pixels
Display aspect ratio : 4/3
Frame rate : 23.976 fps
Resolution : 24 bits
Colorimetry : 4:2:0
Scan type : Progressive
Bits/(Pixel*Frame) : 0.192
Stream size : 112 MiB (88%)

Audio
Format : MPEG Audio
Format version : Version 1
Format profile : Layer 3
Codec ID : 55
Codec ID/Hint : MP3
Duration : 19mn 38s
Bit rate mode : Constant
Bit rate : 96.0 Kbps
Channel(s) : 2 channels
Sampling rate : 48.0 KHz
Resolution : 16 bits
Stream size : 13.5 MiB (11%)
Alignment : Aligned on interleaves
Interleave, duration : 24 ms (0.58 video frame)

General
Complete name Nikita Denise\aholes4nikita.wmv
Format : Windows Media
File size : 57.7 MiB
Duration : 19mn 39s
Overall bit rate mode : Variable
Overall bit rate : 410 Kbps
Maximum Overall bit rate : 667 Kbps
Encoded date : UTC 2003-11-15 00:54:04.796

Video
Format : VC-1
Format profile : MP@LL
Codec ID : WMV3
Codec ID/Info : Windows Media Video 9
Codec ID/Hint : WMV3
Duration : 19mn 38s
Bit rate mode : Variable
Bit rate : 350 Kbps
Width : 320 pixels
Height : 240 pixels
Display aspect ratio : 4/3
Frame rate : 29.970 fps
Resolution : 24 bits
Bits/(Pixel*Frame) : 0.152
Language : en-us

Audio
Format : WMA2
Format profile : L2
Codec ID : 161
Codec ID/Info : Windows Media Audio 2
Description of the codec : Windows Media Audio 9 - 48 kbps, 44 kHz, stereo 2-pass VBR
Duration : 19mn 39s
Bit rate mode : Variable
Bit rate : 48.0 Kbps
Channel(s) : 2 channels
Sampling rate : 44.1 KHz
Language : en-us

General
Complete name Nikita Denise\air tight 8.avi
Format : AVI
Format/Info : Audio Video Interleave
Format settings : rec
File size : 124 MiB
Duration : 18mn 42s
Overall bit rate : 930 Kbps

Video
Format : MPEG-4 Visual
Format settings, BVOP : Yes
Format settings, QPel : No
Format settings, GMC : No warppoints
Format settings, Matrix : Default
Muxing mode : Packed bitstream
Codec ID : DX50
Codec ID/Hint : DivX 5
Duration : 18mn 42s
Bit rate : 782 Kbps
Width : 640 pixels
Height : 480 pixels
Display aspect ratio : 4/3
Frame rate : 29.970 fps
Resolution : 24 bits
Scan type : Progressive
Bits/(Pixel*Frame) : 0.085
Stream size : 105 MiB (84%)
Writing library : DivX 5.2.1 (WaffleDay) (UTC 2004-09-08)

Audio
Format : MPEG Audio
Format version : Version 1
Format profile : Layer 3
Codec ID : 55
Codec ID/Hint : MP3
Duration : 18mn 42s
Bit rate mode : Variable
Bit rate : 134 Kbps
Channel(s) : 2 channels
Sampling rate : 48.0 KHz
Resolution : 16 bits
Stream size : 17.9 MiB (14%)
Alignment : Aligned on interleaves
Interleave, duration : 24 ms (0.72 video frame)

General
Complete name Nikita Denise\american-nymphette-5-scene4.avi
Format : AVI
Format/Info : Audio Video Interleave
File size : 165 MiB
Duration : 9mn 53s
Overall bit rate : 2 338 Kbps

Video
Format : MPEG-4 Visual
Format profile : Simple@L3
Format settings, BVOP : No
Format settings, QPel : No
Format settings, GMC : No warppoints
Format settings, Matrix : Default
Codec ID : XVID
Codec ID/Hint : XviD
Duration : 9mn 53s
Bit rate : 2 200 Kbps
Width : 640 pixels
Height : 480 pixels
Display aspect ratio : 4/3
Frame rate : 29.970 fps
Resolution : 24 bits
Colorimetry : 4:2:0
Scan type : Progressive
Bits/(Pixel*Frame) : 0.239
Stream size : 156 MiB (94%)
Writing library : XviD 0.0.09 (UTC 2003-03-25)

Audio
Format : MPEG Audio
Format version : Version 1
Format profile : Layer 3
Codec ID : 55
Codec ID/Hint : MP3
Duration : 9mn 53s
Bit rate mode : Constant
Bit rate : 128 Kbps
Channel(s) : 2 channels
Sampling rate : 48.0 KHz
Resolution : 16 bits
Stream size : 9.06 MiB (5%)
Alignment : Split accross interleaves
Interleave, duration : 500 ms (14.99 video frames)
Interleave, preload duration : 750 ms

General
Complete name Nikita Denise\anal addicts 7.wmv
Format : Windows Media
File size : 300 MiB
Duration : 19mn 53s
Overall bit rate mode : Constant
Overall bit rate : 2 105 Kbps
Maximum Overall bit rate : 2 116 Kbps
Encoded date : UTC 2006-07-05 05:31:35.437

Video
Format : VC-1
Format profile : MP@ML
Codec ID : WMV3
Codec ID/Info : Windows Media Video 9
Codec ID/Hint : WMV3
Description of the codec : Windows Media Video 9 - Professional
Duration : 19mn 52s
Bit rate mode : Constant
Bit rate : 2 000 Kbps
Width : 720 pixels
Height : 528 pixels
Display aspect ratio : 4/3
Frame rate : 29.970 fps
Resolution : 24 bits
Bits/(Pixel*Frame) : 0.176
Language : English
NumberOfFrames : 35755

Audio
Format : WMA2
Format profile : L1
Codec ID : 161
Codec ID/Info : Windows Media Audio 2
Description of the codec : Windows Media Audio 9.1 - 96 kbps, 44 kHz, stereo 1-pass CBR
Duration : 19mn 53s
Bit rate mode : Constant
Bit rate : 96.0 Kbps
Channel(s) : 2 channels
Sampling rate : 44.1 KHz
Language : English
NumberOfFrames : 3212

General
Complete name Nikita Denise\ass lovers 2.avi
Format : AVI
Format/Info : Audio Video Interleave
Format settings : rec
File size : 183 MiB
Duration : 19mn 12s
Overall bit rate : 1 333 Kbps

Video
Format : MPEG-4 Visual
Format settings, BVOP : Yes
Format settings, QPel : Yes
Format settings, GMC : 2 warppoints
Format settings, Matrix : Default
Muxing mode : Packed bitstream
Codec ID : DX50
Codec ID/Hint : DivX 5
Duration : 19mn 12s
Bit rate : 1 199 Kbps
Width : 400 pixels
Height : 320 pixels
Display aspect ratio : 5/4
Frame rate : 29.970 fps
Resolution : 24 bits
Scan type : Progressive
Bits/(Pixel*Frame) : 0.313
Stream size : 165 MiB (90%)
Writing library : DivX 5.0.2 (UTC 2002-05-16)

Audio
Format : MPEG Audio
Format version : Version 1
Format profile : Layer 3
Codec ID : 55
Codec ID/Hint : MP3
Duration : 19mn 12s
Bit rate mode : Constant
Bit rate : 128 Kbps
Channel(s) : 2 channels
Sampling rate : 44.1 KHz
Resolution : 16 bits
Video delay : 19ms
Stream size : 17.5 MiB (10%)
Alignment : Split accross interleaves
Interleave, duration : 2500 ms (74.91 video frames)

General
Complete name Nikita Denise\asses in the air 3.wmv
Format : Windows Media
File size : 49.3 MiB
Duration : 19mn 47s
Overall bit rate mode : Constant
Overall bit rate : 348 Kbps
Maximum Overall bit rate : 355 Kbps
Encoded date : UTC 2004-11-11 16:26:55.609
AspectRatioX : 1
AspectRatioY : 1

Video
Format : VC-1
Format profile : MP@LL
Codec ID : WMV3
Codec ID/Info : Windows Media Video 9
Codec ID/Hint : WMV3
Duration : 19mn 46s
Bit rate mode : Constant
Bit rate : 280 Kbps
Width : 320 pixels
Height : 240 pixels
Display aspect ratio : 4/3
Frame rate : 29.970 fps
Resolution : 24 bits
Bits/(Pixel*Frame) : 0.122

Audio
Format : WMA2
Format profile : L1
Codec ID : 161
Codec ID/Info : Windows Media Audio 2
Description of the codec : Windows Media Audio 9.1 - 64 kbps, 44 kHz, stereo 1-pass CBR
Duration : 19mn 47s
Bit rate mode : Constant
Bit rate : 64.0 Kbps
Channel(s) : 2 channels
Sampling rate : 44.1 KHz

General
Complete name Nikita Denise\balls deep 1.avi
Format : AVI
Format/Info : Audio Video Interleave
Format settings : rec
File size : 195 MiB
Duration : 20mn 20s
Overall bit rate : 1 338 Kbps

Video
Format : MPEG-4 Visual
Format settings, BVOP : Yes
Format settings, QPel : No
Format settings, GMC : No warppoints
Format settings, Matrix : Default
Codec ID : DX50
Codec ID/Hint : DivX 5
Duration : 20mn 20s
Bit rate : 1 171 Kbps
Width : 352 pixels
Height : 288 pixels
Display aspect ratio : 1.222
Frame rate : 29.970 fps
Resolution : 24 bits
Scan type : Progressive
Bits/(Pixel*Frame) : 0.386
Stream size : 170 MiB (88%)
Writing library : DivX 5.0.2 (UTC 2002-05-16)

Audio
Format : MPEG Audio
Format version : Version 1
Format profile : Layer 3
Codec ID : 55
Codec ID/Hint : MP3
Duration : 20mn 20s
Bit rate mode : Constant
Bit rate : 160 Kbps
Channel(s) : 2 channels
Sampling rate : 48.0 KHz
Resolution : 16 bits
Video delay : 21ms
Stream size : 23.3 MiB (12%)
Alignment : Split accross interleaves
Interleave, duration : 2502 ms (74.98 video frames)

General
Complete name Nikita Denise\ca sex patrol.wmv
Format : Windows Media
File size : 287 MiB
Duration : 19mn 13s
Overall bit rate mode : Variable
Overall bit rate : 2 089 Kbps
Maximum Overall bit rate : 3 038 Kbps
Encoded date : UTC 2006-05-23 17:16:16.780

Video
Format : VC-1
Format profile : MP@ML
Codec ID : WMV3
Codec ID/Info : Windows Media Video 9
Codec ID/Hint : WMV3
Description of the codec : Windows Media Video 9 - Professional
Duration : 19mn 12s
Bit rate mode : Variable
Bit rate : 2 000 Kbps
Width : 720 pixels
Height : 480 pixels
Display aspect ratio : 1.500
Frame rate : 29.970 fps
Standard : NTSC
Resolution : 24 bits
Bits/(Pixel*Frame) : 0.193
Language : en-ca

Audio
Format : WMA2
Format profile : L2
Codec ID : 161
Codec ID/Info : Windows Media Audio 2
Description of the codec : Windows Media Audio 9.1 - 32 kbps, 44 kHz, mono (A/V) 1-pass CBR
Duration : 19mn 13s
Bit rate mode : Constant
Bit rate : 32.0 Kbps
Channel(s) : 1 channel
Sampling rate : 44.1 KHz
Language : en-ca

General
Complete name Nikita Denise\center of sex.avi
Format : AVI
Format/Info : Audio Video Interleave
File size : 85.6 MiB
Duration : 13mn 2s
Overall bit rate : 917 Kbps
Writing library : Boilsoft Joiner build 2411/release

Video
Format : MPEG-4 Visual
Codec ID : DIV3
Codec ID/Hint : DivX 3 Low
Duration : 13mn 2s
Bit rate : 779 Kbps
Width : 576 pixels
Height : 432 pixels
Display aspect ratio : 4/3
Frame rate : 25.000 fps
Resolution : 24 bits
Bits/(Pixel*Frame) : 0.125
Stream size : 72.7 MiB (85%)

Audio
Format : MPEG Audio
Format version : Version 1
Format profile : Layer 3
Codec ID : 55
Codec ID/Hint : MP3
Duration : 13mn 2s
Bit rate mode : Constant
Bit rate : 128 Kbps
Channel(s) : 2 channels
Sampling rate : 48.0 KHz
Resolution : 16 bits
Video delay : 8ms
Stream size : 11.9 MiB (14%)
Alignment : Split accross interleaves
Interleave, duration : 40 ms (1.00 video frame)
Interleave, preload duration : 499 ms

General
Complete name Nikita Denise\chasing the big ones 12.avi
Format : AVI
Format/Info : Audio Video Interleave
Format settings : rec
File size : 303 MiB
Duration : 25mn 18s
Overall bit rate : 1 674 Kbps

Video
Format : MPEG-4 Visual
Format profile : Streaming Video@L1
Format settings, BVOP : Yes
Format settings, QPel : No
Format settings, GMC : No warppoints
Format settings, Matrix : Custom
Codec ID : XVID
Codec ID/Hint : XviD
Duration : 25mn 18s
Bit rate : 1 542 Kbps
Width : 576 pixels
Height : 432 pixels
Display aspect ratio : 4/3
Frame rate : 29.970 fps
Resolution : 24 bits
Colorimetry : 4:2:0
Scan type : Progressive
Bits/(Pixel*Frame) : 0.207
Stream size : 279 MiB (92%)
Writing library : XviD 1.2.0.dev47 (UTC 2006-11-01)

Audio
Format : MPEG Audio
Format version : Version 1
Format profile : Layer 3
Codec ID : 55
Codec ID/Hint : MP3
Duration : 25mn 18s
Bit rate mode : Variable
Bit rate : 118 Kbps
Channel(s) : 2 channels
Sampling rate : 48.0 KHz
Resolution : 16 bits
Stream size : 21.4 MiB (7%)
Alignment : Aligned on interleaves
Interleave, duration : 24 ms (0.72 video frame)

General
Complete name Nikita Denise\cheating housewives 5.avi
Format : AVI
Format/Info : Audio Video Interleave
File size : 283 MiB
Duration : 33mn 5s
Overall bit rate : 1 198 Kbps
Writing library : Boilsoft Joiner build 2411/release

Video
Format : MPEG-4 Visual
Format profile : Simple@L3
Format settings, BVOP : No
Format settings, QPel : No
Format settings, GMC : No warppoints
Format settings, Matrix : Default
Codec ID : XVID
Codec ID/Hint : XviD
Duration : 33mn 5s
Bit rate : 1 074 Kbps
Width : 512 pixels
Height : 288 pixels
Display aspect ratio : 16/9
Frame rate : 29.979 fps
Original frame rate : 29.970 fps
Resolution : 24 bits
Colorimetry : 4:2:0
Scan type : Progressive
Bits/(Pixel*Frame) : 0.243
Stream size : 254 MiB (90%)
Writing library : XviD 0.0.09 (UTC 2003-03-25)

Audio
Format : MPEG Audio
Format version : Version 1
Format profile : Layer 3
Codec ID : 55
Codec ID/Hint : MP3
Duration : 33mn 5s
Bit rate mode : Constant
Bit rate : 112 Kbps
Channel(s) : 2 channels
Sampling rate : 48.0 KHz
Resolution : 16 bits
Video delay : 11ms
Stream size : 26.5 MiB (9%)
Alignment : Split accross interleaves
Interleave, duration : 33 ms (1.00 video frame)
Interleave, preload duration : 500 ms

General
Complete name Nikita Denise\cheeks 12.wmv
Format : Windows Media
File size : 121 MiB
Duration : 18mn 11s
Overall bit rate mode : Variable
Overall bit rate : 926 Kbps
Maximum Overall bit rate : 1 495 Kbps
Movie name : Cheeks #12
Encoded date : UTC 2007-11-06 03:33:31.343

Video
Format : WMV2
Codec ID : WMV2
Codec ID/Info : Windows Media Video 8
Duration : 18mn 10s
Bit rate mode : Variable
Bit rate : 741 Kbps
Width : 480 pixels
Height : 352 pixels
Display aspect ratio : 4/3
Frame rate : 23.976 fps
Resolution : 24 bits
Bits/(Pixel*Frame) : 0.183
Language : en-us

Audio
Format : WMA2
Codec ID : 161
Codec ID/Info : Windows Media Audio 2
Duration : 18mn 11s
Bit rate mode : Constant
Bit rate : 64.0 Kbps
Channel(s) : 2 channels
Sampling rate : 44.1 KHz
Language : en-us

General
Complete name Nikita Denise\chica boom 8.avi
Format : AVI
Format/Info : Audio Video Interleave
File size : 133 MiB
Duration : 18mn 9s
Overall bit rate : 1 024 Kbps

Video
Format : MPEG-4 Visual
Codec ID : DIV3
Codec ID/Hint : DivX 3 Low
Duration : 18mn 9s
Bit rate : 924 Kbps
Width : 320 pixels
Height : 240 pixels
Display aspect ratio : 4/3
Frame rate : 29.970 fps
Resolution : 24 bits
Bits/(Pixel*Frame) : 0.402
Stream size : 120 MiB (90%)
Title : ???????????????? ????

Audio
Format : PCM
Format settings, Endianness : Little
Format settings, Sign : Unsigned
Codec ID : 1
Codec ID/Hint : Microsoft
Duration : 18mn 9s
Bit rate mode : Constant
Bit rate : 88.2 Kbps
Channel(s) : 1 channel
Sampling rate : 11.025 KHz
Resolution : 8 bits
Stream size : 11.5 MiB (9%)
Interleave, duration : 33 ms (1.00 video frame)
Title : ???????????????? ????

General
Complete name Nikita Denise\cum in my mouth.wmv
Format : Windows Media
File size : 76.1 MiB
Duration : 12mn 54s
Overall bit rate mode : Variable
Overall bit rate : 824 Kbps
Maximum Overall bit rate : 2 039 Kbps
Movie name : Stick In In My Face! #1
Encoded date : UTC 2007-02-22 06:50:11.843

Video
Format : WMV2
Codec ID : WMV2
Codec ID/Info : Windows Media Video 8
Duration : 12mn 53s
Bit rate mode : Variable
Bit rate : 754 Kbps
Width : 480 pixels
Height : 352 pixels
Display aspect ratio : 4/3
Frame rate : 23.976 fps
Resolution : 24 bits
Bits/(Pixel*Frame) : 0.186
Language : en-us

Audio
Format : WMA2
Codec ID : 161
Codec ID/Info : Windows Media Audio 2
Duration : 12mn 54s
Bit rate mode : Constant
Bit rate : 64.0 Kbps
Channel(s) : 2 channels
Sampling rate : 44.1 KHz
Language : en-us

General
Complete name Nikita Denise\cumback pussy 47.avi
Format : DivX
Format/Info : Hack of AVI
File size : 73.7 MiB
Duration : 19mn 56s
Overall bit rate : 517 Kbps

Video
Format : MPEG-4 Visual
Format settings, BVOP : Yes
Format settings, QPel : No
Format settings, GMC : No warppoints
Format settings, Matrix : Default
Muxing mode : Packed bitstream
Codec ID : DX50
Codec ID/Hint : DivX 5
Duration : 19mn 56s
Bit rate : 427 Kbps
Width : 464 pixels
Height : 336 pixels
Display aspect ratio : 1.381
Frame rate : 23.975 fps
Resolution : 24 bits
Colorimetry : 4:2:0
Scan type : Progressive
Bits/(Pixel*Frame) : 0.114
Stream size : 60.9 MiB (83%)
Title : Video
Writing library : DivX 6.2.5 (UTC 2006-07)

Audio
Format : MPEG Audio
Format version : Version 1
Format profile : Layer 3
Codec ID : 55
Codec ID/Hint : MP3
Duration : 19mn 56s
Bit rate mode : Constant
Bit rate : 80.0 Kbps
Channel(s) : 2 channels
Sampling rate : 32.0 KHz
Resolution : 16 bits
Stream size : 11.4 MiB (15%)
Alignment : Split accross interleaves
Interleave, duration : 42 ms (1.00 video frame)
Interleave, preload duration : 500 ms
Title : Audio

General
Complete name Nikita Denise\devil-in-disguise-scene4.avi
Format : AVI
Format/Info : Audio Video Interleave
File size : 186 MiB
Duration : 15mn 47s
Overall bit rate : 1 647 Kbps
Writing application : Nandub v1.0rc2
Writing library : Nandub build 1852/release

Video
Format : MPEG-4 Visual
Format settings, BVOP : No
Format settings, QPel : No
Format settings, GMC : No warppoints
Format settings, Matrix : Default
Codec ID : XVID
Codec ID/Hint : XviD
Duration : 15mn 47s
Bit rate : 1 509 Kbps
Width : 480 pixels
Height : 360 pixels
Display aspect ratio : 4/3
Frame rate : 23.976 fps
Resolution : 24 bits
Colorimetry : 4:2:0
Scan type : Progressive
Bits/(Pixel*Frame) : 0.364
Stream size : 171 MiB (92%)
Writing library : XviD 0.0.03 (UTC 2002-12-09)

Audio
Format : MPEG Audio
Format version : Version 1
Format profile : Layer 3
Codec ID : 55
Codec ID/Hint : MP3
Duration : 15mn 47s
Bit rate mode : Constant
Bit rate : 128 Kbps
Channel(s) : 2 channels
Sampling rate : 48.0 KHz
Resolution : 16 bits
Video delay : 1ms
Stream size : 14.5 MiB (8%)
Alignment : Split accross interleaves
Interleave, duration : 42 ms (1.00 video frame)
Interleave, preload duration : 500 ms

General
Complete name Nikita Denise\devoured-scene1-2048.avi
Format : AVI
Format/Info : Audio Video Interleave
File size : 238 MiB
Duration : 20mn 16s
Overall bit rate : 1 642 Kbps

Video
Format : MPEG-4 Visual
Format profile : Simple@L3
Format settings, BVOP : Yes
Format settings, QPel : No
Format settings, GMC : No warppoints
Format settings, Matrix : Default
Codec ID : XVID
Codec ID/Hint : XviD
Duration : 20mn 16s
Bit rate : 1 501 Kbps
Width : 640 pixels
Height : 480 pixels
Display aspect ratio : 4/3
Frame rate : 29.970 fps
Resolution : 24 bits
Scan type : Progressive
Bits/(Pixel*Frame) : 0.163
Stream size : 218 MiB (91%)

Audio
Format : MPEG Audio
Format version : Version 1
Format profile : Layer 3
Codec ID : 55
Codec ID/Hint : MP3
Duration : 20mn 16s
Bit rate mode : Constant
Bit rate : 128 Kbps
Channel(s) : 2 channels
Sampling rate : 44.1 KHz
Resolution : 16 bits
Stream size : 18.5 MiB (8%)
Alignment : Aligned on interleaves
Interleave, duration : 26 ms (0.78 video frame)
Interleave, preload duration : 104 ms
Writing library : LAME3.97

General
Complete name Nikita Denise\fast-times-at-deep-crack-high-4-scene4.avi
Format : AVI
Format/Info : Audio Video Interleave
File size : 389 MiB
Duration : 23mn 6s
Overall bit rate : 2 357 Kbps
Writing library : VirtualDub build 24463/release

Video
Format : MPEG-4 Visual
Format settings, BVOP : No
Format settings, QPel : No
Format settings, GMC : No warppoints
Format settings, Matrix : Default
Codec ID : XVID
Codec ID/Hint : XviD
Duration : 23mn 6s
Bit rate : 2 217 Kbps
Width : 576 pixels
Height : 432 pixels
Display aspect ratio : 4/3
Frame rate : 29.970 fps
Original frame rate : 25.000 fps
Resolution : 24 bits
Colorimetry : 4:2:0
Scan type : Progressive
Bits/(Pixel*Frame) : 0.297
Stream size : 366 MiB (94%)

Audio
Format : MPEG Audio
Format version : Version 1
Format profile : Layer 3
Codec ID : 55
Codec ID/Hint : MP3
Duration : 23mn 6s
Bit rate mode : Constant
Bit rate : 128 Kbps
Channel(s) : 2 channels
Sampling rate : 48.0 KHz
Resolution : 16 bits
Stream size : 21.2 MiB (5%)
Alignment : Split accross interleaves
Interleave, duration : 33 ms (1.00 video frame)
Interleave, preload duration : 500 ms

General
Complete name Nikita Denise\gallery-of-sin-3-scene3.avi
Format : AVI
Format/Info : Audio Video Interleave
File size : 264 MiB
Duration : 15mn 46s
Overall bit rate : 2 338 Kbps

Video
Format : MPEG-4 Visual
Format profile : Simple@L3
Format settings, BVOP : No
Format settings, QPel : No
Format settings, GMC : No warppoints
Format settings, Matrix : Default
Codec ID : XVID
Codec ID/Hint : XviD
Duration : 15mn 46s
Bit rate : 2 201 Kbps
Width : 640 pixels
Height : 480 pixels
Display aspect ratio : 4/3
Frame rate : 29.970 fps
Resolution : 24 bits
Colorimetry : 4:2:0
Scan type : Progressive
Bits/(Pixel*Frame) : 0.239
Stream size : 248 MiB (94%)
Writing library : XviD 0.0.09 (UTC 2003-03-25)

Audio
Format : MPEG Audio
Format version : Version 1
Format profile : Layer 3
Codec ID : 55
Codec ID/Hint : MP3
Duration : 15mn 46s
Bit rate mode : Constant
Bit rate : 128 Kbps
Channel(s) : 2 channels
Sampling rate : 48.0 KHz
Resolution : 16 bits
Stream size : 14.4 MiB (5%)
Alignment : Split accross interleaves
Interleave, duration : 500 ms (14.98 video frames)
Interleave, preload duration : 750 ms

General
Complete name Nikita Denise\gallery-of-sin-4-scene3.avi
Format : AVI
Format/Info : Audio Video Interleave
File size : 250 MiB
Duration : 14mn 58s
Overall bit rate : 2 338 Kbps

Video
Format : MPEG-4 Visual
Format profile : Simple@L3
Format settings, BVOP : No
Format settings, QPel : No
Format settings, GMC : No warppoints
Format settings, Matrix : Default
Codec ID : XVID
Codec ID/Hint : XviD
Duration : 14mn 58s
Bit rate : 2 201 Kbps
Width : 640 pixels
Height : 480 pixels
Display aspect ratio : 4/3
Frame rate : 29.970 fps
Resolution : 24 bits
Colorimetry : 4:2:0
Scan type : Progressive
Bits/(Pixel*Frame) : 0.239
Stream size : 236 MiB (94%)
Writing library : XviD 0.0.09 (UTC 2003-03-25)

Audio
Format : MPEG Audio
Format version : Version 1
Format profile : Layer 3
Codec ID : 55
Codec ID/Hint : MP3
Duration : 14mn 58s
Bit rate mode : Constant
Bit rate : 128 Kbps
Channel(s) : 2 channels
Sampling rate : 48.0 KHz
Resolution : 16 bits
Stream size : 13.7 MiB (5%)
Alignment : Split accross interleaves
Interleave, duration : 500 ms (14.98 video frames)
Interleave, preload duration : 750 ms

General
Complete name Nikita Denise\gangland-13-scene1.avi
Format : AVI
Format/Info : Audio Video Interleave
File size : 353 MiB
Duration : 30mn 7s
Overall bit rate : 1 637 Kbps
Writing application : Nandub v1.0rc2
Writing library : Nandub build 1852/release

Video
Format : MPEG-4 Visual
Format profile : Simple@L3
Format settings, BVOP : No
Format settings, QPel : No
Format settings, GMC : No warppoints
Format settings, Matrix : Default
Codec ID : XVID
Codec ID/Hint : XviD
Duration : 30mn 7s
Bit rate : 1 500 Kbps
Width : 480 pixels
Height : 360 pixels
Display aspect ratio : 4/3
Frame rate : 23.976 fps
Resolution : 24 bits
Colorimetry : 4:2:0
Scan type : Progressive
Bits/(Pixel*Frame) : 0.362
Stream size : 323 MiB (92%)
Writing library : XviD 0.0.09 (UTC 2003-03-25)

Audio
Format : MPEG Audio
Format version : Version 1
Format profile : Layer 3
Codec ID : 55
Codec ID/Hint : MP3
Duration : 30mn 7s
Bit rate mode : Constant
Bit rate : 128 Kbps
Channel(s) : 2 channels
Sampling rate : 48.0 KHz
Resolution : 16 bits
Stream size : 27.6 MiB (8%)
Alignment : Split accross interleaves
Interleave, duration : 42 ms (1.00 video frame)
Interleave, preload duration : 500 ms

General
Complete name Nikita Denise\hot-bods-and-tail-pipe-21-scene4.avi
Format : AVI
Format/Info : Audio Video Interleave
File size : 461 MiB
Duration : 30mn 8s
Overall bit rate : 2 140 Kbps
Writing library : VirtualDub-MPEG2 build 24600/release

Video
Format : MPEG-4 Visual
Format settings, BVOP : No
Format settings, QPel : No
Format settings, GMC : No warppoints
Format settings, Matrix : Default
Codec ID : XVID
Codec ID/Hint : XviD
Duration : 30mn 8s
Bit rate : 2 000 Kbps
Width : 576 pixels
Height : 432 pixels
Display aspect ratio : 4/3
Frame rate : 29.970 fps
Resolution : 24 bits
Colorimetry : 4:2:0
Scan type : Progressive
Bits/(Pixel*Frame) : 0.268
Stream size : 431 MiB (93%)

Audio
Format : MPEG Audio
Format version : Version 1
Format profile : Layer 3
Codec ID : 55
Codec ID/Hint : MP3
Duration : 30mn 8s
Bit rate mode : Constant
Bit rate : 128 Kbps
Channel(s) : 2 channels
Sampling rate : 48.0 KHz
Resolution : 16 bits
Stream size : 27.6 MiB (6%)
Alignment : Split accross interleaves
Interleave, duration : 33 ms (1.00 video frame)
Interleave, preload duration : 500 ms

General
Complete name Nikita Denise\i love your cock.avi
Format : AVI
Format/Info : Audio Video Interleave
File size : 326 MiB
Duration : 20mn 12s
Overall bit rate : 2 254 Kbps
Writing library : Boilsoft Joiner build 2411/release

Video
Format : MPEG-4 Visual
Format profile : Streaming Video@L1
Format settings, BVOP : Yes
Format settings, QPel : No
Format settings, GMC : No warppoints
Format settings, Matrix : Default
Codec ID : XVID
Codec ID/Hint : XviD
Duration : 20mn 12s
Bit rate : 2 114 Kbps
Width : 512 pixels
Height : 288 pixels
Display aspect ratio : 16/9
Frame rate : 29.979 fps
Original frame rate : 29.970 fps
Resolution : 24 bits
Colorimetry : 4:2:0
Scan type : Progressive
Bits/(Pixel*Frame) : 0.478
Stream size : 306 MiB (94%)
Writing library : XviD 1.2.0.dev47 (UTC 2006-11-01)

Audio
Format : MPEG Audio
Format version : Version 1
Format profile : Layer 3
Codec ID : 55
Codec ID/Hint : MP3
Duration : 20mn 12s
Bit rate mode : Constant
Bit rate : 128 Kbps
Channel(s) : 2 channels
Sampling rate : 48.0 KHz
Resolution : 16 bits
Video delay : 19ms
Stream size : 18.5 MiB (6%)
Alignment : Split accross interleaves
Interleave, duration : 33 ms (1.00 video frame)
Interleave, preload duration : 500 ms

General
Complete name Nikita Denise\inside myself.avi
Format : AVI
Format/Info : Audio Video Interleave
File size : 289 MiB
Duration : 18mn 38s
Overall bit rate : 2 168 Kbps
Writing library : Boilsoft Joiner build 2411/release

Video
Format : MPEG-4 Visual
Format settings, BVOP : Yes
Format settings, QPel : No
Format settings, GMC : No warppoints
Format settings, Matrix : Default
Muxing mode : Packed bitstream
Codec ID : DX50
Codec ID/Hint : DivX 5
Duration : 18mn 38s
Bit rate : 1 964 Kbps
Width : 512 pixels
Height : 368 pixels
Display aspect ratio : 1.391
Frame rate : 29.970 fps
Resolution : 24 bits
Scan type : Progressive
Bits/(Pixel*Frame) : 0.348
Stream size : 262 MiB (91%)
Writing library : DivX 5.1.1 (Maupiti) (UTC 2003-11-19)

Audio
Format : MPEG Audio
Format version : Version 1
Format profile : Layer 3
Codec ID : 55
Codec ID/Hint : MP3
Duration : 18mn 38s
Bit rate mode : Constant
Bit rate : 192 Kbps
Channel(s) : 2 channels
Sampling rate : 48.0 KHz
Resolution : 16 bits
Video delay : 5ms
Stream size : 25.6 MiB (9%)
Alignment : Split accross interleaves
Interleave, duration : 33 ms (1.00 video frame)
Interleave, preload duration : 500 ms
Writing library : Gogo <3.0

General
Complete name Nikita Denise\jade-lo-scene4.avi
Format : AVI
Format/Info : Audio Video Interleave
File size : 180 MiB
Duration : 15mn 23s
Overall bit rate : 1 638 Kbps
Writing application : Nandub v1.0rc2
Writing library : Nandub build 1852/release

Video
Format : MPEG-4 Visual
Format profile : Simple@L3
Format settings, BVOP : No
Format settings, QPel : No
Format settings, GMC : No warppoints
Format settings, Matrix : Default
Codec ID : XVID
Codec ID/Hint : XviD
Duration : 15mn 23s
Bit rate : 1 501 Kbps
Width : 480 pixels
Height : 360 pixels
Display aspect ratio : 4/3
Frame rate : 23.976 fps
Resolution : 24 bits
Colorimetry : 4:2:0
Scan type : Progressive
Bits/(Pixel*Frame) : 0.362
Stream size : 165 MiB (92%)
Writing library : XviD 0.0.09 (UTC 2003-03-25)

Audio
Format : MPEG Audio
Format version : Version 1
Format profile : Layer 3
Codec ID : 55
Codec ID/Hint : MP3
Duration : 15mn 23s
Bit rate mode : Constant
Bit rate : 128 Kbps
Channel(s) : 2 channels
Sampling rate : 48.0 KHz
Resolution : 16 bits
Video delay : 16ms
Stream size : 14.1 MiB (8%)
Alignment : Split accross interleaves
Interleave, duration : 42 ms (1.00 video frame)
Interleave, preload duration : 500 ms

General
Complete name Nikita Denise\la-femme-nikita-denise-2-scene3.avi
Format : AVI
Format/Info : Audio Video Interleave
File size : 272 MiB
Duration : 16mn 17s
Overall bit rate : 2 337 Kbps

Video
Format : MPEG-4 Visual
Format profile : Simple@L3
Format settings, BVOP : No
Format settings, QPel : No
Format settings, GMC : No warppoints
Format settings, Matrix : Default
Codec ID : XVID
Codec ID/Hint : XviD
Duration : 16mn 17s
Bit rate : 2 200 Kbps
Width : 640 pixels
Height : 480 pixels
Display aspect ratio : 4/3
Frame rate : 29.970 fps
Resolution : 24 bits
Colorimetry : 4:2:0
Scan type : Progressive
Bits/(Pixel*Frame) : 0.239
Stream size : 256 MiB (94%)
Writing library : XviD 0.0.09 (UTC 2003-03-25)

Audio
Format : MPEG Audio
Format version : Version 1
Format profile : Layer 3
Codec ID : 55
Codec ID/Hint : MP3
Duration : 16mn 17s
Bit rate mode : Constant
Bit rate : 128 Kbps
Channel(s) : 2 channels
Sampling rate : 48.0 KHz
Resolution : 16 bits
Stream size : 14.9 MiB (5%)
Alignment : Split accross interleaves
Interleave, duration : 500 ms (14.98 video frames)
Interleave, preload duration : 750 ms

General
Complete name Nikita Denise\lost angels sc1.avi
Format : AVI
Format/Info : Audio Video Interleave
File size : 171 MiB
Duration : 10mn 7s
Overall bit rate : 2 362 Kbps
Writing library : Boilsoft Joiner build 2411/release

Video
Format : MPEG-4 Visual
Format settings, BVOP : Yes
Format settings, QPel : No
Format settings, GMC : No warppoints
Format settings, Matrix : Default
Muxing mode : Packed bitstream
Codec ID : DX50
Codec ID/Hint : DivX 5
Duration : 10mn 7s
Bit rate : 2 224 Kbps
Width : 720 pixels
Height : 544 pixels
Display aspect ratio : 4/3
Frame rate : 25.000 fps
Resolution : 24 bits
Scan type : Progressive
Bits/(Pixel*Frame) : 0.227
Stream size : 161 MiB (94%)
Writing library : DivX 5.1.1 (Maupiti) (UTC 2003-11-19)

Audio
Format : MPEG Audio
Format version : Version 1
Format profile : Layer 3
Codec ID : 55
Codec ID/Hint : MP3
Duration : 10mn 7s
Bit rate mode : Constant
Bit rate : 128 Kbps
Channel(s) : 2 channels
Sampling rate : 44.1 KHz
Resolution : 16 bits
Video delay : 20ms
Stream size : 9.27 MiB (5%)
Alignment : Split accross interleaves
Interleave, duration : 40 ms (1.00 video frame)
Interleave, preload duration : 500 ms

General
Complete name Nikita Denise\lost angels sc2.avi
Format : AVI
Format/Info : Audio Video Interleave
File size : 208 MiB
Duration : 12mn 16s
Overall bit rate : 2 368 Kbps
Writing library : Boilsoft Joiner build 2411/release

Video
Format : MPEG-4 Visual
Format settings, BVOP : Yes
Format settings, QPel : No
Format settings, GMC : No warppoints
Format settings, Matrix : Default
Muxing mode : Packed bitstream
Codec ID : DX50
Codec ID/Hint : DivX 5
Duration : 12mn 16s
Bit rate : 2 231 Kbps
Width : 720 pixels
Height : 544 pixels
Display aspect ratio : 4/3
Frame rate : 25.000 fps
Resolution : 24 bits
Scan type : Progressive
Bits/(Pixel*Frame) : 0.228
Stream size : 196 MiB (94%)
Writing library : DivX 5.1.1 (Maupiti) (UTC 2003-11-19)

Audio
Format : MPEG Audio
Format version : Version 1
Format profile : Layer 3
Codec ID : 55
Codec ID/Hint : MP3
Duration : 12mn 16s
Bit rate mode : Constant
Bit rate : 128 Kbps
Channel(s) : 2 channels
Sampling rate : 44.1 KHz
Resolution : 16 bits
Video delay : 12ms
Stream size : 11.2 MiB (5%)
Alignment : Split accross interleaves
Interleave, duration : 40 ms (1.00 video frame)
Interleave, preload duration : 500 ms

General
Complete name Nikita Denise\lost angels sc3.avi
Format : AVI
Format/Info : Audio Video Interleave
File size : 330 MiB
Duration : 19mn 9s
Overall bit rate : 2 408 Kbps
Writing library : Boilsoft Joiner build 2411/release

Video
Format : MPEG-4 Visual
Format settings, BVOP : Yes
Format settings, QPel : No
Format settings, GMC : No warppoints
Format settings, Matrix : Default
Muxing mode : Packed bitstream
Codec ID : DX50
Codec ID/Hint : DivX 5
Duration : 19mn 9s
Bit rate : 2 270 Kbps
Width : 720 pixels
Height : 544 pixels
Display aspect ratio : 4/3
Frame rate : 25.000 fps
Resolution : 24 bits
Scan type : Progressive
Bits/(Pixel*Frame) : 0.232
Stream size : 311 MiB (94%)
Writing library : DivX 5.1.1 (Maupiti) (UTC 2003-11-19)

Audio
Format : MPEG Audio
Format version : Version 1
Format profile : Layer 3
Codec ID : 55
Codec ID/Hint : MP3
Duration : 19mn 9s
Bit rate mode : Constant
Bit rate : 128 Kbps
Channel(s) : 2 channels
Sampling rate : 44.1 KHz
Resolution : 16 bits
Video delay : 21ms
Stream size : 17.5 MiB (5%)
Alignment : Split accross interleaves
Interleave, duration : 40 ms (1.00 video frame)
Interleave, preload duration : 500 ms

General
Complete name Nikita Denise\lost angels sc4.avi
Format : AVI
Format/Info : Audio Video Interleave
File size : 240 MiB
Duration : 14mn 27s
Overall bit rate : 2 320 Kbps
Writing library : Boilsoft Joiner build 2411/release

Video
Format : MPEG-4 Visual
Format settings, BVOP : Yes
Format settings, QPel : No
Format settings, GMC : No warppoints
Format settings, Matrix : Default
Muxing mode : Packed bitstream
Codec ID : DX50
Codec ID/Hint : DivX 5
Duration : 14mn 27s
Bit rate : 2 182 Kbps
Width : 720 pixels
Height : 544 pixels
Display aspect ratio : 4/3
Frame rate : 25.000 fps
Resolution : 24 bits
Scan type : Progressive
Bits/(Pixel*Frame) : 0.223
Stream size : 226 MiB (94%)
Writing library : DivX 5.1.1 (Maupiti) (UTC 2003-11-19)

Audio
Format : MPEG Audio
Format version : Version 1
Format profile : Layer 3
Codec ID : 55
Codec ID/Hint : MP3
Duration : 14mn 27s
Bit rate mode : Constant
Bit rate : 128 Kbps
Channel(s) : 2 channels
Sampling rate : 44.1 KHz
Resolution : 16 bits
Video delay : 21ms
Stream size : 13.2 MiB (6%)
Alignment : Split accross interleaves
Interleave, duration : 40 ms (1.00 video frame)
Interleave, preload duration : 500 ms

General
Complete name Nikita Denise\lost angels sc5.avi
Format : AVI
Format/Info : Audio Video Interleave
File size : 216 MiB
Duration : 13mn 43s
Overall bit rate : 2 202 Kbps
Writing library : Boilsoft Joiner build 2411/release

Video
Format : MPEG-4 Visual
Format settings, BVOP : Yes
Format settings, QPel : No
Format settings, GMC : No warppoints
Format settings, Matrix : Default
Muxing mode : Packed bitstream
Codec ID : DX50
Codec ID/Hint : DivX 5
Duration : 13mn 43s
Bit rate : 2 064 Kbps
Width : 720 pixels
Height : 544 pixels
Display aspect ratio : 4/3
Frame rate : 25.000 fps
Resolution : 24 bits
Scan type : Progressive
Bits/(Pixel*Frame) : 0.211
Stream size : 203 MiB (94%)
Writing library : DivX 5.1.1 (Maupiti) (UTC 2003-11-19)

Audio
Format : MPEG Audio
Format version : Version 1
Format profile : Layer 3
Codec ID : 55
Codec ID/Hint : MP3
Duration : 13mn 43s
Bit rate mode : Constant
Bit rate : 128 Kbps
Channel(s) : 2 channels
Sampling rate : 44.1 KHz
Resolution : 16 bits
Video delay : 12ms
Stream size : 12.6 MiB (6%)
Alignment : Split accross interleaves
Interleave, duration : 40 ms (1.00 video frame)
Interleave, preload duration : 500 ms

General
Complete name Nikita Denise\mail order.mpg
Format : MPEG-PS
File size : 99.6 MiB
Duration : 11mn 43s
Overall bit rate : 1 188 Kbps
Writing library : encoded by TMPGEnc (ver. 2.521.58.169)

Video
Format : MPEG Video
Format version : Version 1
Format settings, Matrix : Standard
Duration : 11mn 43s
Bit rate mode : Variable
Bit rate : 881 Kbps
Width : 352 pixels
Height : 288 pixels
Display aspect ratio : 1.222
Frame rate : 25.000 fps
Scan type : Progressive
Writing library : TMPGEnc 2.521.58.169

Audio
Format : MPEG Audio
Format version : Version 1
Format profile : Layer 2
Duration : 11mn 43s
Bit rate mode : Constant
Bit rate : 224 Kbps
Channel(s) : 2 channels
Sampling rate : 44.1 KHz
Resolution : 16 bits

General
Complete name Nikita Denise\merger scene04.avi
Format : AVI
Format/Info : Audio Video Interleave
File size : 125 MiB
Duration : 12mn 15s
Overall bit rate : 1 427 Kbps
Writing library : VirtualDub build 15654/release

Video
Format : MPEG-4 Visual
Format settings, BVOP : No
Format settings, QPel : No
Format settings, GMC : No warppoints
Format settings, Matrix : Default
Codec ID : XVID
Codec ID/Hint : XviD
Duration : 12mn 15s
Bit rate : 1 303 Kbps
Width : 512 pixels
Height : 384 pixels
Display aspect ratio : 4/3
Frame rate : 29.970 fps
Resolution : 24 bits
Colorimetry : 4:2:0
Scan type : Progressive
Bits/(Pixel*Frame) : 0.221
Stream size : 114 MiB (91%)

Audio
Format : MPEG Audio
Format version : Version 1
Format profile : Layer 3
Codec ID : 55
Codec ID/Hint : MP3
Duration : 12mn 15s
Bit rate mode : Constant
Bit rate : 112 Kbps
Channel(s) : 2 channels
Sampling rate : 48.0 KHz
Resolution : 16 bits
Video delay : 8ms
Stream size : 9.82 MiB (8%)
Alignment : Split accross interleaves
Interleave, duration : 33 ms (1.00 video frame)
Interleave, preload duration : 500 ms

General
Complete name Nikita Denise\merger scene06a.avi
Format : AVI
Format/Info : Audio Video Interleave
File size : 124 MiB
Duration : 11mn 27s
Overall bit rate : 1 508 Kbps
Writing library : VirtualDub build 15654/release
segm :

Video
Format : MPEG-4 Visual
Format settings, BVOP : No
Format settings, QPel : No
Format settings, GMC : No warppoints
Format settings, Matrix : Default
Codec ID : XVID
Codec ID/Hint : XviD
Duration : 11mn 27s
Bit rate : 1 385 Kbps
Width : 512 pixels
Height : 384 pixels
Display aspect ratio : 4/3
Frame rate : 29.970 fps
Resolution : 24 bits
Colorimetry : 4:2:0
Scan type : Progressive
Bits/(Pixel*Frame) : 0.235
Stream size : 113 MiB (92%)

Audio
Format : MPEG Audio
Format version : Version 1
Format profile : Layer 3
Codec ID : 55
Codec ID/Hint : MP3
Duration : 11mn 23s
Bit rate mode : Constant
Bit rate : 112 Kbps
Channel(s) : 2 channels
Sampling rate : 48.0 KHz
Resolution : 16 bits
Video delay : 12ms
Stream size : 9.12 MiB (7%)
Alignment : Split accross interleaves
Interleave, duration : 34 ms (1.01 video frame)
Interleave, preload duration : 500 ms

General
Complete name Nikita Denise\merger scene06b.avi
Format : AVI
Format/Info : Audio Video Interleave
File size : 197 MiB
Duration : 16mn 45s
Overall bit rate : 1 642 Kbps

Video
Format : MPEG-4 Visual
Format profile : Simple@L3
Format settings, BVOP : Yes
Format settings, QPel : No
Format settings, GMC : No warppoints
Format settings, Matrix : Default
Codec ID : XVID
Codec ID/Hint : XviD
Duration : 16mn 45s
Bit rate : 1 501 Kbps
Width : 640 pixels
Height : 480 pixels
Display aspect ratio : 4/3
Frame rate : 29.970 fps
Resolution : 24 bits
Scan type : Progressive
Bits/(Pixel*Frame) : 0.163
Stream size : 180 MiB (91%)

Audio
Format : MPEG Audio
Format version : Version 1
Format profile : Layer 3
Codec ID : 55
Codec ID/Hint : MP3
Duration : 16mn 45s
Bit rate mode : Constant
Bit rate : 128 Kbps
Channel(s) : 2 channels
Sampling rate : 44.1 KHz
Resolution : 16 bits
Stream size : 15.3 MiB (8%)
Alignment : Aligned on interleaves
Interleave, duration : 26 ms (0.78 video frame)
Writing library : LAME3.97

General
Complete name Nikita Denise\mirage-scene2.avi
Format : AVI
Format/Info : Audio Video Interleave
File size : 172 MiB
Duration : 11mn 13s
Overall bit rate : 2 139 Kbps
Writing library : VirtualDub-MPEG2 build 24600/release

Video
Format : MPEG-4 Visual
Format settings, BVOP : No
Format settings, QPel : No
Format settings, GMC : No warppoints
Format settings, Matrix : Default
Codec ID : XVID
Codec ID/Hint : XviD
Duration : 11mn 13s
Bit rate : 2 000 Kbps
Width : 576 pixels
Height : 432 pixels
Display aspect ratio : 4/3
Frame rate : 29.970 fps
Resolution : 24 bits
Colorimetry : 4:2:0
Scan type : Progressive
Bits/(Pixel*Frame) : 0.268
Stream size : 161 MiB (93%)

Audio
Format : MPEG Audio
Format version : Version 1
Format profile : Layer 3
Codec ID : 55
Codec ID/Hint : MP3
Duration : 11mn 13s
Bit rate mode : Constant
Bit rate : 128 Kbps
Channel(s) : 2 channels
Sampling rate : 48.0 KHz
Resolution : 16 bits
Stream size : 10.3 MiB (6%)
Alignment : Split accross interleaves
Interleave, duration : 33 ms (1.00 video frame)
Interleave, preload duration : 500 ms

General
Complete name Nikita Denise\money-shots-bonus-scene1-2048.avi
Format : AVI
Format/Info : Audio Video Interleave
File size : 267 MiB
Duration : 22mn 41s
Overall bit rate : 1 643 Kbps

Video
Format : MPEG-4 Visual
Format profile : Simple@L3
Format settings, BVOP : Yes
Format settings, QPel : No
Format settings, GMC : No warppoints
Format settings, Matrix : Default
Codec ID : XVID
Codec ID/Hint : XviD
Duration : 22mn 41s
Bit rate : 1 502 Kbps
Width : 640 pixels
Height : 480 pixels
Display aspect ratio : 4/3
Frame rate : 29.970 fps
Resolution : 24 bits
Scan type : Progressive
Bits/(Pixel*Frame) : 0.163
Stream size : 244 MiB (91%)

Audio
Format : MPEG Audio
Format version : Version 1
Format profile : Layer 3
Codec ID : 55
Codec ID/Hint : MP3
Duration : 22mn 41s
Bit rate mode : Constant
Bit rate : 128 Kbps
Channel(s) : 2 channels
Sampling rate : 44.1 KHz
Resolution : 16 bits
Stream size : 20.7 MiB (8%)
Alignment : Aligned on interleaves
Interleave, duration : 26 ms (0.78 video frame)
Writing library : LAME3.97

General
Complete name Nikita Denise\nasty nymphos 29.avi
Format : AVI
Format/Info : Audio Video Interleave
File size : 259 MiB
Duration : 25mn 1s
Overall bit rate : 1 447 Kbps
Writing application : VirtualDubMod 1.5.4.1 (build 2178/release)
Writing library : VirtualDubMod build 2178/release

Video
Format : MPEG-4 Visual
Format profile : Streaming Video@L1
Format settings, BVOP : Yes
Format settings, QPel : No
Format settings, GMC : No warppoints
Format settings, Matrix : Custom
Muxing mode : Packed bitstream
Codec ID : XVID
Codec ID/Hint : XviD
Duration : 25mn 1s
Bit rate : 1 310 Kbps
Width : 512 pixels
Height : 384 pixels
Display aspect ratio : 4/3
Frame rate : 29.970 fps
Resolution : 24 bits
Colorimetry : 4:2:0
Scan type : Progressive
Bits/(Pixel*Frame) : 0.222
Stream size : 235 MiB (91%)
Writing library : XviD 1.1.0 Beta2 (UTC 2005-04-04)

Audio
Format : MPEG Audio
Format version : Version 1
Format profile : Layer 3
Codec ID : 55
Codec ID/Hint : MP3
Duration : 25mn 1s
Bit rate mode : Constant
Bit rate : 128 Kbps
Channel(s) : 2 channels
Sampling rate : 48.0 KHz
Resolution : 16 bits
Stream size : 22.9 MiB (9%)
Alignment : Aligned on interleaves
Interleave, duration : 67 ms (2.00 video frames)
Interleave, preload duration : 504 ms

General
Complete name Nikita Denise\naughty bottoms.avi
Format : AVI
Format/Info : Audio Video Interleave
File size : 122 MiB
Duration : 18mn 46s
Overall bit rate : 906 Kbps
Writing application : transcode-0.6.9

Video
Format : MPEG-4 Visual
Format settings, BVOP : No
Format settings, QPel : No
Format settings, GMC : No warppoints
Format settings, Matrix : Default
Codec ID : XVID
Codec ID/Hint : XviD
Duration : 18mn 46s
Bit rate : 800 Kbps
Width : 480 pixels
Height : 360 pixels
Display aspect ratio : 4/3
Frame rate : 23.976 fps
Resolution : 24 bits
Colorimetry : 4:2:0
Scan type : Progressive
Bits/(Pixel*Frame) : 0.193
Stream size : 107 MiB (88%)

Audio
Format : MPEG Audio
Format version : Version 1
Format profile : Layer 3
Codec ID : 55
Codec ID/Hint : MP3
Duration : 18mn 46s
Bit rate mode : Constant
Bit rate : 96.0 Kbps
Channel(s) : 2 channels
Sampling rate : 32.0 KHz
Resolution : 16 bits
Stream size : 12.9 MiB (11%)
Alignment : Aligned on interleaves
Interleave, duration : 36 ms (0.86 video frame)

General
Complete name Nikita Denise\nikita vs lexsteele.wmv
Format : Windows Media
File size : 35.3 MiB
Duration : 21mn 2s
Overall bit rate mode : Variable
Overall bit rate : 235 Kbps
Maximum Overall bit rate : 351 Kbps
Encoded date : UTC 2007-07-31 17:15:35.406

Video
Format : VC-1
Codec ID : WMV3
Codec ID/Info : Windows Media Video 9
Codec ID/Hint : WMV3
Duration : 21mn 1s
Bit rate mode : Variable
Bit rate : 210 Kbps
Width : 352 pixels
Height : 240 pixels
Display aspect ratio : 1.467
Frame rate : 29.970 fps
Resolution : 24 bits
Bits/(Pixel*Frame) : 0.083

Audio
Format : WMA2
Codec ID : 161
Codec ID/Info : Windows Media Audio 2
Description of the codec : Windows Media Audio 9 - 16 kbps, 16 kHz, mono 1-pass CBR
Duration : 21mn 2s
Bit rate mode : Constant
Bit rate : 16.0 Kbps
Channel(s) : 1 channel
Sampling rate : 16.0 KHz

General
Complete name Nikita Denise\nikita vs mandingo.avi
Format : AVI
Format/Info : Audio Video Interleave
File size : 125 MiB
Duration : 13mn 1s
Overall bit rate : 1 344 Kbps

Video
Format : MPEG-4 Visual
Format profile : Streaming Video@L1
Format settings, BVOP : Yes
Format settings, QPel : No
Format settings, GMC : No warppoints
Format settings, Matrix : Default
Codec ID : DX50
Codec ID/Hint : DivX 5
Duration : 13mn 1s
Bit rate : 1 125 Kbps
Width : 512 pixels
Height : 384 pixels
Display aspect ratio : 4/3
Frame rate : 29.970 fps
Resolution : 24 bits
Colorimetry : 4:2:0
Scan type : Progressive
Bits/(Pixel*Frame) : 0.191
Stream size : 105 MiB (84%)
Writing library : XviD 1.0.1 (UTC 2004-06-05)

Audio
Format : MPEG Audio
Format version : Version 1
Format profile : Layer 3
Codec ID : 55
Codec ID/Hint : MP3
Duration : 13mn 1s
Bit rate mode : Variable
Bit rate : 205 Kbps
Channel(s) : 2 channels
Sampling rate : 48.0 KHz
Resolution : 16 bits
Stream size : 19.1 MiB (15%)
Alignment : Aligned on interleaves
Interleave, duration : 24 ms (0.72 video frame)

General
Complete name Nikita Denise\nikita-denise-aka-filthy-whore-1-scene1.avi
Format : AVI
Format/Info : Audio Video Interleave
File size : 193 MiB
Duration : 17mn 0s
Overall bit rate : 1 584 Kbps
Writing application : Nandub v1.0rc2
Writing library : Nandub build 1853/release

Video
Format : MPEG-4 Visual
Format profile : Simple@L3
Format settings, BVOP : No
Format settings, QPel : No
Format settings, GMC : No warppoints
Format settings, Matrix : Default
Codec ID : XVID
Codec ID/Hint : XviD
Duration : 17mn 0s
Bit rate : 1 446 Kbps
Width : 480 pixels
Height : 360 pixels
Display aspect ratio : 4/3
Frame rate : 23.976 fps
Resolution : 24 bits
Colorimetry : 4:2:0
Scan type : Progressive
Bits/(Pixel*Frame) : 0.349
Stream size : 176 MiB (91%)
Writing library : XviD 0.0.09 (UTC 2003-03-25)

Audio
Format : MPEG Audio
Format version : Version 1
Format profile : Layer 3
Codec ID : 55
Codec ID/Hint : MP3
Duration : 17mn 0s
Bit rate mode : Constant
Bit rate : 128 Kbps
Channel(s) : 2 channels
Sampling rate : 48.0 KHz
Resolution : 16 bits
Video delay : 22ms
Stream size : 15.6 MiB (8%)
Alignment : Split accross interleaves
Interleave, duration : 42 ms (1.00 video frame)
Interleave, preload duration : 500 ms

General
Complete name Nikita Denise\nikita-denise-aka-filthy-whore-1-scene4.avi
Format : AVI
Format/Info : Audio Video Interleave
File size : 116 MiB
Duration : 9mn 59s
Overall bit rate : 1 621 Kbps
Writing application : Nandub v1.0rc2
Writing library : Nandub build 1853/release

Video
Format : MPEG-4 Visual
Format profile : Simple@L3
Format settings, BVOP : No
Format settings, QPel : No
Format settings, GMC : No warppoints
Format settings, Matrix : Default
Codec ID : XVID
Codec ID/Hint : XviD
Duration : 9mn 59s
Bit rate : 1 483 Kbps
Width : 480 pixels
Height : 360 pixels
Display aspect ratio : 4/3
Frame rate : 23.976 fps
Resolution : 24 bits
Colorimetry : 4:2:0
Scan type : Progressive
Bits/(Pixel*Frame) : 0.358
Stream size : 106 MiB (92%)
Writing library : XviD 0.0.09 (UTC 2003-03-25)

Audio
Format : MPEG Audio
Format version : Version 1
Format profile : Layer 3
Codec ID : 55
Codec ID/Hint : MP3
Duration : 9mn 59s
Bit rate mode : Constant
Bit rate : 128 Kbps
Channel(s) : 2 channels
Sampling rate : 48.0 KHz
Resolution : 16 bits
Video delay : 22ms
Stream size : 9.15 MiB (8%)
Alignment : Split accross interleaves
Interleave, duration : 42 ms (1.00 video frame)
Interleave, preload duration : 500 ms

General
Complete name Nikita Denise\nikita-denise-aka-filthy-whore-2-scene2.avi
Format : AVI
Format/Info : Audio Video Interleave
File size : 174 MiB
Duration : 14mn 52s
Overall bit rate : 1 636 Kbps
Writing application : Nandub v1.0rc2
Writing library : Nandub build 1853/release

Video
Format : MPEG-4 Visual
Format profile : Simple@L3
Format settings, BVOP : No
Format settings, QPel : No
Format settings, GMC : No warppoints
Format settings, Matrix : Default
Codec ID : XVID
Codec ID/Hint : XviD
Duration : 14mn 52s
Bit rate : 1 498 Kbps
Width : 480 pixels
Height : 360 pixels
Display aspect ratio : 4/3
Frame rate : 23.976 fps
Resolution : 24 bits
Colorimetry : 4:2:0
Scan type : Progressive
Bits/(Pixel*Frame) : 0.362
Stream size : 159 MiB (92%)
Writing library : XviD 0.0.09 (UTC 2003-03-25)

Audio
Format : MPEG Audio
Format version : Version 1
Format profile : Layer 3
Codec ID : 55
Codec ID/Hint : MP3
Duration : 14mn 52s
Bit rate mode : Constant
Bit rate : 128 Kbps
Channel(s) : 2 channels
Sampling rate : 48.0 KHz
Resolution : 16 bits
Video delay : 19ms
Stream size : 13.6 MiB (8%)
Alignment : Split accross interleaves
Interleave, duration : 42 ms (1.00 video frame)
Interleave, preload duration : 500 ms

General
Complete name Nikita Denise\nikita-denise-aka-filthy-whore-2-scene5.avi
Format : AVI
Format/Info : Audio Video Interleave
File size : 170 MiB
Duration : 16mn 54s
Overall bit rate : 1 410 Kbps
Writing application : Nandub v1.0rc2
Writing library : Nandub build 1853/release

Video
Format : MPEG-4 Visual
Format profile : Simple@L3
Format settings, BVOP : No
Format settings, QPel : No
Format settings, GMC : No warppoints
Format settings, Matrix : Default
Codec ID : XVID
Codec ID/Hint : XviD
Duration : 16mn 54s
Bit rate : 1 272 Kbps
Width : 480 pixels
Height : 360 pixels
Display aspect ratio : 4/3
Frame rate : 23.976 fps
Resolution : 24 bits
Colorimetry : 4:2:0
Scan type : Progressive
Bits/(Pixel*Frame) : 0.307
Stream size : 154 MiB (90%)
Writing library : XviD 0.0.09 (UTC 2003-03-25)

Audio
Format : MPEG Audio
Format version : Version 1
Format profile : Layer 3
Codec ID : 55
Codec ID/Hint : MP3
Duration : 16mn 54s
Bit rate mode : Constant
Bit rate : 128 Kbps
Channel(s) : 2 channels
Sampling rate : 48.0 KHz
Resolution : 16 bits
Video delay : 19ms
Stream size : 15.5 MiB (9%)
Alignment : Split accross interleaves
Interleave, duration : 42 ms (1.00 video frame)
Interleave, preload duration : 500 ms

General
Complete name Nikita Denise\nymph fever 4 scene2.avi
Format : AVI
Format/Info : Audio Video Interleave
File size : 100 MiB
Duration : 15mn 27s
Overall bit rate : 906 Kbps
Writing application : transcode-0.6.9

Video
Format : MPEG-4 Visual
Format settings, BVOP : No
Format settings, QPel : No
Format settings, GMC : No warppoints
Format settings, Matrix : Default
Codec ID : XVID
Codec ID/Hint : XviD
Duration : 15mn 27s
Bit rate : 800 Kbps
Width : 480 pixels
Height : 360 pixels
Display aspect ratio : 4/3
Frame rate : 23.976 fps
Resolution : 24 bits
Colorimetry : 4:2:0
Scan type : Progressive
Bits/(Pixel*Frame) : 0.193
Stream size : 88.4 MiB (88%)

Audio
Format : MPEG Audio
Format version : Version 1
Format profile : Layer 3
Codec ID : 55
Codec ID/Hint : MP3
Duration : 15mn 26s
Bit rate mode : Constant
Bit rate : 96.0 Kbps
Channel(s) : 2 channels
Sampling rate : 32.0 KHz
Resolution : 16 bits
Stream size : 10.6 MiB (11%)
Alignment : Aligned on interleaves
Interleave, duration : 36 ms (0.86 video frame)

General
Complete name Nikita Denise\nymph fever 5-scene4.avi
Format : AVI
Format/Info : Audio Video Interleave
File size : 185 MiB
Duration : 15mn 53s
Overall bit rate : 1 627 Kbps
Writing application : Nandub v1.0rc2
Writing library : Nandub build 1852/release

Video
Format : MPEG-4 Visual
Format profile : Simple@L3
Format settings, BVOP : No
Format settings, QPel : No
Format settings, GMC : No warppoints
Format settings, Matrix : Default
Codec ID : XVID
Codec ID/Hint : XviD
Duration : 15mn 53s
Bit rate : 1 490 Kbps
Width : 480 pixels
Height : 360 pixels
Display aspect ratio : 4/3
Frame rate : 23.976 fps
Resolution : 24 bits
Colorimetry : 4:2:0
Scan type : Progressive
Bits/(Pixel*Frame) : 0.360
Stream size : 169 MiB (92%)
Writing library : XviD 0.0.09 (UTC 2003-03-25)

Audio
Format : MPEG Audio
Format version : Version 1
Format profile : Layer 3
Codec ID : 55
Codec ID/Hint : MP3
Duration : 15mn 53s
Bit rate mode : Constant
Bit rate : 128 Kbps
Channel(s) : 2 channels
Sampling rate : 48.0 KHz
Resolution : 16 bits
Video delay : 11ms
Stream size : 14.5 MiB (8%)
Alignment : Split accross interleaves
Interleave, duration : 42 ms (1.00 video frame)
Interleave, preload duration : 500 ms

General
Complete name Nikita Denise\party trash.wmv
Format : Windows Media
File size : 60.1 MiB
Duration : 13mn 25s
Overall bit rate mode : Variable
Overall bit rate : 625 Kbps
Maximum Overall bit rate : 1 211 Kbps
Movie name : Nikita Denise AKA Filthy Whore
Encoded date : UTC 2007-11-15 02:02:45.265

Video
Format : WMV2
Codec ID : WMV2
Codec ID/Info : Windows Media Video 8
Duration : 13mn 25s
Bit rate mode : Variable
Bit rate : 471 Kbps
Width : 480 pixels
Height : 352 pixels
Display aspect ratio : 4/3
Frame rate : 23.976 fps
Resolution : 24 bits
Bits/(Pixel*Frame) : 0.116
Language : en-us

Audio
Format : WMA2
Codec ID : 161
Codec ID/Info : Windows Media Audio 2
Duration : 13mn 25s
Bit rate mode : Constant
Bit rate : 64.0 Kbps
Channel(s) : 2 channels
Sampling rate : 44.1 KHz
Language : en-us

General
Complete name Nikita Denise\pussymans-international-butt-babes-5-scene6.avi
Format : AVI
Format/Info : Audio Video Interleave
File size : 191 MiB
Duration : 16mn 20s
Overall bit rate : 1 633 Kbps
Writing application : Nandub v1.0rc2
Writing library : Nandub build 1852/release

Video
Format : MPEG-4 Visual
Format settings, BVOP : No
Format settings, QPel : No
Format settings, GMC : No warppoints
Format settings, Matrix : Default
Codec ID : XVID
Codec ID/Hint : XviD
Duration : 16mn 20s
Bit rate : 1 495 Kbps
Width : 480 pixels
Height : 360 pixels
Display aspect ratio : 4/3
Frame rate : 23.976 fps
Resolution : 24 bits
Colorimetry : 4:2:0
Scan type : Progressive
Bits/(Pixel*Frame) : 0.361
Stream size : 175 MiB (92%)
Writing library : XviD 0.0.03 (UTC 2002-12-09)

Audio
Format : MPEG Audio
Format version : Version 1
Format profile : Layer 3
Codec ID : 55
Codec ID/Hint : MP3
Duration : 16mn 20s
Bit rate mode : Constant
Bit rate : 128 Kbps
Channel(s) : 2 channels
Sampling rate : 48.0 KHz
Resolution : 16 bits
Video delay : 5ms
Stream size : 15.0 MiB (8%)
Alignment : Split accross interleaves
Interleave, duration : 42 ms (1.00 video frame)
Interleave, preload duration : 500 ms

General
Complete name Nikita Denise\roxxxi-red-scene1.avi
Format : AVI
Format/Info : Audio Video Interleave
File size : 255 MiB
Duration : 19mn 53s
Overall bit rate : 1 789 Kbps
Writing library : VirtualDub-MPEG2 build 24600/release

Video
Format : MPEG-4 Visual
Format settings, BVOP : No
Format settings, QPel : No
Format settings, GMC : No warppoints
Format settings, Matrix : Default
Codec ID : XVID
Codec ID/Hint : XviD
Duration : 19mn 53s
Bit rate : 1 650 Kbps
Width : 576 pixels
Height : 432 pixels
Display aspect ratio : 4/3
Frame rate : 29.970 fps
Resolution : 24 bits
Colorimetry : 4:2:0
Scan type : Progressive
Bits/(Pixel*Frame) : 0.221
Stream size : 235 MiB (92%)

Audio
Format : MPEG Audio
Format version : Version 1
Format profile : Layer 3
Codec ID : 55
Codec ID/Hint : MP3
Duration : 19mn 53s
Bit rate mode : Constant
Bit rate : 128 Kbps
Channel(s) : 2 channels
Sampling rate : 48.0 KHz
Resolution : 16 bits
Stream size : 18.2 MiB (7%)
Alignment : Split accross interleaves
Interleave, duration : 33 ms (1.00 video frame)
Interleave, preload duration : 500 ms


Внимание! AdBlock блокирует показ скриншотов, все вопросы к разработчикам )))
Трекер:  [ 02-Окт-2011 11:58 ]

  

Скачать .torrent

Размер .torrent файла 130 KB


Размер: 12.24 GB
Хэш (hash) релиза: 0e4d512ff23325b0efcaad4d73380187fed13c08

Торренты, похожие на Nikita Denise скачать торрент

Форум Название Автор Размер S L Добавлен
Архив (общий) ·· Only The Best of Nikita Denise / Только лучшее от Nikita Denise (Metro) [2000, Pornstar, Straight, Compilation, Classic, DVD9] Nikita Denise, April, Kaylee, Dominica Leoni, Logan LaBrent erzsebet 62148444165.79 GB 0 0 1468840024

14:07

18-Июл-16

Фильмы без сюжета 1991-2010 / All Sex & Amateur 1991-2010 ·· Only The Best of Nikita Denise / Только лучшее от Nikita Denise (Metro) [2000, Pornstar, Straight, Compilation, Classic, DVDRip] (Nikita Denise, April, Kaylee, Dominica Leoni, Logan LaBrent erzsebet 16142601771.5 GB 1 1 1461029587

04:33

19-Апр-16

Гонзо, Лесбо и Фильмы без сюжета (DVD) / Gonzo, All Girl & Solo, All Sex (DVD) ·· Only The Best of Nikita Denise / Только лучшее от Nikita Denise (Metro) [2000, Pornstar, Straight, Compilation, Classic, DVD9] (Nikita Denise, April, Kaylee, Dominica Leoni, Logan LaBrent) Galfimbul ghost 62148444165.79 GB 0 0 1451948746

02:05

5-Янв-16

Паки порнороликов по актрисам / Actresses Clips Packs ·· Nikita Denise (250 роликов) (aka Nakita, Nakita Denise, Nikita Denice) MegaPack / Nikita Denise (250 роликов) [2000-2014 гг., All Sex, Anal, DAP, DP, Lesbo, Oral, Solo] Galfimbul ghost 5448078239650.74 GB 1 3 1430528004

03:53

2-Май-15

Сайтрипы 2015 / SiteRip's 2015 ·*· [UpHerAsshole.com / PervCity.com] Nikita Denise (Russian Nympho Nikita Denise Is Ready For Anal / 16-11-2015) [Anal Sex, Big Tits, Blowjob, Brunette, Masturbation, POV, Deepthroat, Gagging, Heels, Titty Fuck, Prolapse, Tattoo, 1080p, SiteRip] erzsebet 50428886924.7 GB 0 0 1542030101

16:41

12-Ноя-18

Сайтрипы 2015 / SiteRip's 2015 ·*· [UpHerAsshole.com / PervCity.com] Nikita Denise (Russian Nympho Nikita Denise Is Ready For Anal / 16-11-2015) [Anal Sex, Big Tits, Blowjob, Brunette, Masturbation, POV, Deepthroat, Gagging, Heels, Titty Fuck, Prolapse, Tattoo, 720p, SiteRip] erzsebet 33794857223.15 GB 0 0 1542029982

16:39

12-Ноя-18

Лесбо-фильмы / All Girl & Solo ·· The Violation Of Nikita Denise: A Lesbian Gang Bang / Изнасилование Никиты Дениз: Лесбийская групповушка (Jim Powers, JM Productions) [2002 г., All Girl,Oral,Sex toys,Strapon,Anal,Fist, VOD](Angel Long, Keegan Skky,Nikita Denise, Shelbee Myne) Galfimbul ghost 981819176936 MB 0 0 1429997100

00:25

26-Апр-15

Фильмы без сюжета 1991-2010 / All Sex & Amateur 1991-2010 ·· Nikita Denise aka Filthy Whore / Грязная шлюха Nikita Denise (Kid Tea, Legend Video) [2001 г., Compilation, Straight, Anal, Blowjobs, Facials, DVDRip] Galfimbul ghost 800943426764 MB 0 0 1364492317

20:38

28-Мар-13

Сцены из фильмов / Movie Scenes ·· Nikita Denise - Nikita's Pussy Demands your Attention (I Love Your Cock, Scene 4) [2008 , Big Ass, Big Breasts, Blow Jobs, Brunette, Cum Shots, Facials, Handjob, Hardcore, MILF, Cougar, Natural Breasts, Pornstars, Shaved, Bedroom, 406p] Galfimbul ghost 203036223194 MB 1 1 1436027759

19:35

4-Июл-15

Фильмы без сюжета 1991-2010 / All Sex & Amateur 1991-2010 ·· Nikita and Friends Exposed / Никита и её подружки (Jon Yuma/Jill Kelly Production) [2003 г., Gonzo, DVDRip] (Nikita Denise, Bridgette Kerkove) Galfimbul ghost 10578504591009 MB 0 0 1364492803

20:46

28-Мар-13

Фильмы с сюжетом / Feature & Vignettes ·· Nikita Loves Jenna / Никита Любит Дженну (Laurent Sky / Club Jenna) [2005 г., Vignettes, Straight, DVDRip]*(Jenna Jameson, Cherry Rain, Krystal Steal, Marco Banderas, Mick Blue, Nacho Vidal, Nikita Denise, Tony DeSergio.) Galfimbul ghost 753198085718 MB 0 0 1364313983

19:06

26-Мар-13

Фильмы без сюжета 1991-2010 / All Sex & Amateur 1991-2010 ·· Jenna Loves Justin / Дженна любит Джастина (Justin Sterling, Club Jenna) [2006 г., All Sex, Straight, VOD] (Jenna Jameson, Justin Sterling, Krystal Steal, Briana Banks, Nikita Denise, Tawny Roberts, Eric Masterson.) Galfimbul ghost 565285558539 MB 0 1 1609424407

17:20

31-Дек-20

Фильмы с сюжетом, Классические (DVD) / Feature & Vignettes, Classic (DVD) ·· The Ozporns / Развратная Семейка Озборнов ( Antonio Passolini, VCA) [2002 г., Feature Hardcore All Sex Anal Parody DP, DVD5] (Tawny Roberts, Chloe, Sindee Coxx, Nikita Denise, Tina Tyler, Samantha Sterlyng, Tanya Danielle, Calli Cox, Aria, Kyle Stone Galfimbul ghost 41338736643.85 GB 1 2 1609045929

08:12

27-Дек-20

Гонзо-фильмы 2011-2021 / Gonzo 2011-2021 ·· Kinky Anal MILFs #3 / Извращенные Анальные Мамочки #3 ( Mike Adriano, Evil Angel) [2020 г., Gonzo Hardcore All Sex Anal MILF , DVDRip]( Britney Amber, Dana DeArmond, Diana Prince, Eva Angelina, Francesca Le, Nicki Hunter, Nikita Denise, Syren De Mer, Galfimbul ghost 47044050484.38 GB 0 0 1604989807

09:30

10-Ноя-20

Фильмы с сюжетом / Feature & Vignettes ·· Up The Wahzoo! / Up The Wahzoo / Прямо В Попку! (Stiv Gators, Coast To Coast) [2000 г., Feature, Anal, Facial, DVDRip] (Briana Banks, Dominica Leoni, Nikita Denise, T.J. Hart, Joel Lawrence, Kyle Stone, Nick East, Steve Taylor) Galfimbul ghost 19110392901.78 GB 0 0 1597487946

13:39

15-Авг-20

Фильмы без сюжета 2011-2021 / All Sex & Amateur 2011-2021 ·· Chubby Girls Love Cock (Popshots) [2019 г., BBW, Big Boobs, Big Butt, Big Cocks, Compilation, Interracial, Tit Fucking, WEB-DL] (Nikita Denise, Jewel De'Nyle, Missy Monroe, Memphis Monroe, Georgia Peach, Alicia Rhodes, Jessica Darlin, Sky, Topan Galfimbul ghost 45442908814.23 GB 1 0 1588368292

00:24

2-Май-20

Гонзо, Лесбо и Фильмы без сюжета (DVD) / Gonzo, All Girl & Solo, All Sex (DVD) ·%· Nasty Bottoms / Развратные задницы (Simon Wolf) [2003 г., Anal, Compilation, DVD9] (Steven St. Croix, Asia Carrera, Aurora Snow, Lee Stone, Nikita Denise, Devlin Weed, Daniella Rush, Herschel Savage, Jay Ashley, Chris Cannon, Mickey G., Kimi Lixx, Sh Galfimbul ghost 57924239365.39 GB 1 6 1579291569

23:06

17-Янв-20

Гонзо, Лесбо и Фильмы без сюжета (DVD) / Gonzo, All Girl & Solo, All Sex (DVD) ·%· Un-Natural Sex 2 / Unnatural Sex 2 / Противоестественный секс 2 (Jon Dough / Diabolic Video) [2000 г., Anal, A2M, Gonzo, Double Penetration, Double Vaginal Penetration, Facial, Swallow, DVD5] Nikita Denise, Fawna, Brandi Lyons, Dominica Leoni, Claudi Galfimbul ghost 44430602244.14 GB 1 1 1577384178

21:16

26-Дек-19

Гонзо-фильмы 2011-2021 / Gonzo 2011-2021 ·%· Rave Sexxx (Evolution Erotica) [2002 г., All Sex, DVDRip] (Jessica Dee, Nikita Denise, Gia, Jessica Darlin, Kitten) Galfimbul ghost 18810082981.75 GB 1 1 1575236854

00:47

2-Дек-19

Фильмы с сюжетом / Feature & Vignettes ·%· Bound By Blood (Michael Stefano, Extreme Associates) [2000 г., All Sex, DVDRip] (Kristi Myst, Jessica Darlin, Nikita Denise, Samantha Stylle) Galfimbul ghost 841357765802 MB 0 0 1575234400

00:06

2-Дек-19

Еще никто не оставлял запись к записи скачать торрент Nikita Denise . Будь первым!

!Обратная связь