Скачать порно через торрент Szilvia Lauren UnionPeer.org бесплатно онлайн HD качество

Скачать новое порно 2015, 2014 новинки через торрент UnionPeer.org

Порно торрент бесплатно ЮнионПир.орг

Статистика раздачи
Размер:  6.82 GB   |    Зарегистрирован:  9 лет 6 месяцев   |    .torrent скачан:  1667 раз   |   
Раздают:  1  
   
 
Автор Сообщение

Galfimbul ghost

avatar Galfimbul ghost


Szilvia Lauren Mega Post


Страна: Hungary
Жанр: All Sex, Anal, Cumshot, Double Penetration, Hardcore, Interracial, Lingerie, Natural Boobs, Stockings
Формат: CamRIP; DVDRIP; HDTVRIP
Complete name Szilvia Lauren - Affari Sporchi.avi
Format : AVI
Format/Info : Audio Video Interleave
File size : 128 MiB
Duration : 17mn 15s
Overall bit rate : 1 034 Kbps
Writing library : Boilsoft Joiner build 2411/release

Video
Format : MPEG-4 Visual
Format profile : Streaming Video@L1
Format settings, BVOP : Yes
Format settings, QPel : No
Format settings, GMC : No warppoints
Format settings, Matrix : Default
Muxing mode : Packed bitstream
Codec ID : XVID
Codec ID/Hint : XviD
Duration : 17mn 15s
Bit rate : 912 Kbps
Width : 512 pixels
Height : 272 pixels
Display aspect ratio : 1.882
Frame rate : 25.000 fps
Resolution : 24 bits
Colorimetry : 4:2:0
Scan type : Progressive
Bits/(Pixel*Frame) : 0.262
Stream size : 113 MiB (88%)
Writing library : XviD 1.2.0.dev45 (UTC 2006-07-10)

Audio
Format : MPEG Audio
Format version : Version 1
Format profile : Layer 3
Codec ID : 55
Codec ID/Hint : MP3
Duration : 17mn 15s
Bit rate mode : Constant
Bit rate : 112 Kbps
Channel(s) : 2 channels
Sampling rate : 48.0 KHz
Resolution : 16 bits
Video delay : 8ms
Stream size : 13.8 MiB (11%)
Alignment : Split accross interleaves
Interleave, duration : 40 ms (1.00 video frame)
Interleave, preload duration : 500 ms

General
Complete name Szilvia Lauren - Black Lace, White Lies.avi
Format : AVI
Format/Info : Audio Video Interleave
File size : 159 MiB
Duration : 13mn 40s
Overall bit rate : 1 620 Kbps

Video
Format : MPEG-4 Visual
Format profile : Streaming Video@L1
Format settings, BVOP : Yes
Format settings, QPel : No
Format settings, GMC : No warppoints
Format settings, Matrix : Default
Muxing mode : Packed bitstream
Codec ID : XVID
Codec ID/Hint : XviD
Duration : 13mn 40s
Bit rate : 1 483 Kbps
Width : 720 pixels
Height : 480 pixels
Display aspect ratio : 1.500
Frame rate : 29.970 fps
Standard : NTSC
Resolution : 24 bits
Colorimetry : 4:2:0
Scan type : Progressive
Bits/(Pixel*Frame) : 0.143
Stream size : 145 MiB (92%)
Writing library : XviD 1.0.3 (UTC 2004-12-20)

Audio
Format : MPEG Audio
Format version : Version 1
Format profile : Layer 3
Codec ID : 55
Codec ID/Hint : MP3
Duration : 13mn 40s
Bit rate mode : Constant
Bit rate : 128 Kbps
Channel(s) : 2 channels
Sampling rate : 32.0 KHz
Resolution : 16 bits
Stream size : 12.5 MiB (8%)
Alignment : Split accross interleaves
Interleave, duration : 250 ms (7.49 video frames)

General
Complete name Szilvia Lauren - BlowJob.wmv
Format : Windows Media
File size : 574 MiB
Duration : 19mn 58s
Overall bit rate mode : Variable
Overall bit rate : 4 018 Kbps
Maximum Overall bit rate : 4 162 Kbps
Encoded date : UTC 2008-09-09 19:48:23.125
AspectRatioX : 1
AspectRatioY : 1

Video
Format : VC-1
Format profile : MP@HL
Codec ID : WMV3
Codec ID/Info : Windows Media Video 9
Codec ID/Hint : WMV3
Description of the codec : Windows Media Video 9 - Professional
Duration : 19mn 57s
Bit rate mode : Variable
Bit rate : 4 000 Kbps
Width : 1 280 pixels
Height : 720 pixels
Display aspect ratio : 16/9
Frame rate : 29.970 fps
Resolution : 24 bits
Bits/(Pixel*Frame) : 0.145
Language : Hungarian

Audio
Format : WMA2
Format profile : L1
Codec ID : 161
Codec ID/Info : Windows Media Audio 2
Description of the codec : Windows Media Audio 9.2 - 128 kbps, 44 kHz, stereo 2-pass CBR
Duration : 19mn 58s
Bit rate mode : Constant
Bit rate : 128 Kbps
Channel(s) : 2 channels
Sampling rate : 44.1 KHz
Language : hu-hu

General
Complete name Szilvia Lauren - Business Conference.mp4
Format : MPEG-4
Format profile : Base Media
Codec ID : isom
File size : 315 MiB
Duration : 30mn 47s
Overall bit rate : 1 428 Kbps
Encoded date : UTC 2007-12-20 09:48:48
Tagged date : UTC 2007-12-20 09:48:48

Video
Format : AVC
Format/Info : Advanced Video Codec
Format profile : Main@L3.0
Format settings, CABAC : No
Format settings, ReFrames : 2 frames
Codec ID : avc1
Codec ID/Info : Advanced Video Coding
Duration : 30mn 47s
Bit rate mode : Variable
Bit rate : 1 296 Kbps
Maximum bit rate : 5 413 Kbps
Width : 720 pixels
Height : 540 pixels
Display aspect ratio : 4/3
Frame rate mode : Constant
Frame rate : 25.000 fps
Resolution : 24 bits
Colorimetry : 4:2:0
Scan type : Progressive
Bits/(Pixel*Frame) : 0.133
Stream size : 285 MiB (91%)
Encoded date : UTC 2007-12-20 09:48:48
Tagged date : UTC 2007-12-20 09:49:59

Audio
Format : AAC
Format/Info : Advanced Audio Codec
Format version : Version 4
Format profile : LC
Format settings, SBR : No
Codec ID : 40
Duration : 30mn 47s
Bit rate mode : Variable
Bit rate : 128 Kbps
Maximum bit rate : 159 Kbps
Channel(s) : 2 channels
Channel positions : L R
Sampling rate : 44.1 KHz
Resolution : 16 bits
Stream size : 28.1 MiB (9%)
Encoded date : UTC 2007-12-20 09:49:50
Tagged date : UTC 2007-12-20 09:49:59

General
Complete name Szilvia Lauren - Die Traum Agentur.avi
Format : AVI
Format/Info : Audio Video Interleave
File size : 106 MiB
Duration : 15mn 54s
Overall bit rate : 930 Kbps
Writing library : Boilsoft Joiner build 2411/release

Video
Format : MPEG-4 Visual
Codec ID : DIV3
Codec ID/Hint : DivX 3 Low
Duration : 15mn 54s
Bit rate : 792 Kbps
Width : 512 pixels
Height : 384 pixels
Display aspect ratio : 4/3
Frame rate : 25.000 fps
Resolution : 24 bits
Bits/(Pixel*Frame) : 0.161
Stream size : 90.1 MiB (85%)

Audio
Format : MPEG Audio
Format version : Version 1
Format profile : Layer 3
Codec ID : 55
Codec ID/Hint : MP3
Duration : 15mn 54s
Bit rate mode : Constant
Bit rate : 128 Kbps
Channel(s) : 2 channels
Sampling rate : 44.1 KHz
Resolution : 16 bits
Video delay : 7ms
Stream size : 14.6 MiB (14%)
Alignment : Split accross interleaves
Interleave, duration : 40 ms (1.00 video frame)
Interleave, preload duration : 500 ms

General
Complete name Szilvia Lauren - Down the Hatch.avi
Format : AVI
Format/Info : Audio Video Interleave
File size : 163 MiB
Duration : 21mn 55s
Overall bit rate : 1 038 Kbps
Writing library : VirtualDub build 13870/release

Video
Format : MPEG-4 Visual
Codec ID : DIV3
Codec ID/Hint : DivX 3 Low
Duration : 21mn 55s
Bit rate : 964 Kbps
Width : 576 pixels
Height : 432 pixels
Display aspect ratio : 4/3
Frame rate : 29.970 fps
Resolution : 24 bits
Bits/(Pixel*Frame) : 0.129
Stream size : 151 MiB (93%)

Audio
Format : WMA2
Codec ID : 161
Codec ID/Info : Windows Media Audio 2
Duration : 21mn 55s
Bit rate : 64.1 Kbps
Channel(s) : 2 channels
Sampling rate : 44.1 KHz
Resolution : 16 bits
Stream size : 10.1 MiB (6%)
Interleave, duration : 46 ms (1.39 video frame)

General
Complete name Szilvia Lauren - European Union.mp4
Format : MPEG-4
Format profile : Base Media
Codec ID : isom
File size : 204 MiB
Duration : 13mn 23s
Overall bit rate : 2 127 Kbps
Encoded date : UTC 2008-10-27 17:26:26
Tagged date : UTC 2008-10-27 17:26:26

Video
Format : MPEG-4 Visual
Format profile : Simple@L3
Format settings, BVOP : Yes
Format settings, QPel : No
Format settings, GMC : No warppoints
Format settings, Matrix : Default
Codec ID : 20
Duration : 13mn 23s
Bit rate mode : Variable
Bit rate : 1 996 Kbps
Nominal bit rate : 1 984 Kbps
Maximum bit rate : 2 859 Kbps
Width : 704 pixels
Height : 576 pixels
Display aspect ratio : 1.222
Frame rate mode : Variable
Frame rate : 24.986 fps
Minimum frame rate : 5.000 fps
Maximum frame rate : 25.000 fps
Resolution : 24 bits
Scan type : Progressive
Bits/(Pixel*Frame) : 0.197
Stream size : 191 MiB (94%)
Tagged date : UTC 2008-10-27 17:26:44

Audio
Format : AAC
Format/Info : Advanced Audio Codec
Format version : Version 4
Format profile : LC
Format settings, SBR : No
Codec ID : 40
Duration : 13mn 23s
Bit rate mode : Variable
Bit rate : 128 Kbps
Maximum bit rate : 129 Kbps
Channel(s) : 2 channels
Channel positions : L R
Sampling rate : 48.0 KHz
Resolution : 16 bits
Stream size : 12.2 MiB (6%)
Tagged date : UTC 2008-10-27 17:26:44

General
Complete name Szilvia Lauren - Fresh Meat 10.avi
Format : AVI
Format/Info : Audio Video Interleave
File size : 105 MiB
Duration : 24mn 20s
Overall bit rate : 601 Kbps
Writing library : VirtualDub build 18160/release

Video
Format : MPEG-4 Visual
Format settings, BVOP : Yes
Format settings, QPel : No
Format settings, GMC : No warppoints
Format settings, Matrix : Default
Codec ID : XVID
Codec ID/Hint : XviD
Duration : 24mn 20s
Bit rate : 399 Kbps
Width : 352 pixels
Height : 240 pixels
Display aspect ratio : 1.467
Frame rate : 23.976 fps
Resolution : 24 bits
Scan type : Progressive
Bits/(Pixel*Frame) : 0.197
Stream size : 69.5 MiB (67%)

Audio
Format : MPEG Audio
Format version : Version 1
Format profile : Layer 3
Codec ID : 55
Codec ID/Hint : MP3
Duration : 24mn 20s
Bit rate mode : Constant
Bit rate : 192 Kbps
Channel(s) : 2 channels
Sampling rate : 44.1 KHz
Resolution : 16 bits
Video delay : 1ms
Stream size : 33.4 MiB (32%)
Alignment : Split accross interleaves
Interleave, duration : 42 ms (1.00 video frame)
Interleave, preload duration : 499 ms

General
Complete name Szilvia Lauren - Fresh Meat 18.avi
Format : AVI
Format/Info : Audio Video Interleave
File size : 264 MiB
Duration : 21mn 2s
Overall bit rate : 1 755 Kbps
Writing library : Boilsoft Joiner build 2411/release

Video
Format : MPEG-4 Visual
Format settings, BVOP : Yes
Format settings, QPel : No
Format settings, GMC : No warppoints
Format settings, Matrix : Default
Muxing mode : Packed bitstream
Codec ID : DX50
Codec ID/Hint : DivX 5
Duration : 21mn 1s
Bit rate : 1 615 Kbps
Width : 512 pixels
Height : 368 pixels
Display aspect ratio : 1.391
Frame rate : 29.970 fps
Resolution : 24 bits
Scan type : Progressive
Bits/(Pixel*Frame) : 0.286
Stream size : 243 MiB (92%)
Writing library : DivX 5.1.1 (Maupiti) (UTC 2003-11-19)

Audio
Format : MPEG Audio
Format version : Version 1
Format profile : Layer 3
Codec ID : 55
Codec ID/Hint : MP3
Duration : 21mn 2s
Bit rate mode : Variable
Bit rate : 129 Kbps
Channel(s) : 2 channels
Sampling rate : 48.0 KHz
Resolution : 16 bits
Stream size : 19.4 MiB (7%)
Alignment : Split accross interleaves
Interleave, duration : 33 ms (1.00 video frame)
Interleave, preload duration : 500 ms

General
Complete name Szilvia Lauren - HandsOnHardcore.avi
Format : AVI
Format/Info : Audio Video Interleave
File size : 790 MiB
Duration : 26mn 41s
Overall bit rate : 4 138 Kbps

Video
Format : MPEG-4 Visual
Format settings, BVOP : Yes
Format settings, QPel : No
Format settings, GMC : No warppoints
Format settings, Matrix : Default
Muxing mode : Packed bitstream
Codec ID : DX50
Codec ID/Hint : DivX 5
Duration : 26mn 41s
Bit rate : 4 002 Kbps
Width : 1 280 pixels
Height : 720 pixels
Display aspect ratio : 16/9
Frame rate : 29.970 fps
Resolution : 24 bits
Colorimetry : 4:2:0
Scan type : Progressive
Bits/(Pixel*Frame) : 0.145
Stream size : 764 MiB (97%)
Writing library : DivX 5.0.5 Beta(Tahanea) (UTC 2003-01)

Audio
Format : MPEG Audio
Format version : Version 1
Format profile : Layer 3
Codec ID : 55
Codec ID/Hint : MP3
Duration : 26mn 41s
Bit rate mode : Constant
Bit rate : 128 Kbps
Channel(s) : 2 channels
Sampling rate : 48.0 KHz
Resolution : 16 bits
Stream size : 24.4 MiB (3%)
Alignment : Split accross interleaves
Interleave, duration : 500 ms (14.99 video frames)
Interleave, preload duration : 750 ms

General
Complete name Szilvia Lauren - Hardcore Innocence 1.avi
Format : AVI
Format/Info : Audio Video Interleave
File size : 237 MiB
Duration : 20mn 9s
Overall bit rate : 1 640 Kbps
Writing application : Nandub v1.0rc2
Writing library : Nandub build 1852/release

Video
Format : MPEG-4 Visual
Format settings, BVOP : No
Format settings, QPel : No
Format settings, GMC : No warppoints
Format settings, Matrix : Default
Codec ID : XVID
Codec ID/Hint : XviD
Duration : 20mn 9s
Bit rate : 1 503 Kbps
Width : 480 pixels
Height : 360 pixels
Display aspect ratio : 4/3
Frame rate : 23.976 fps
Resolution : 24 bits
Colorimetry : 4:2:0
Scan type : Progressive
Bits/(Pixel*Frame) : 0.363
Stream size : 217 MiB (92%)
Writing library : XviD 0.0.03 (UTC 2002-12-09)

Audio
Format : MPEG Audio
Format version : Version 1
Format profile : Layer 3
Codec ID : 55
Codec ID/Hint : MP3
Duration : 20mn 9s
Bit rate mode : Constant
Bit rate : 128 Kbps
Channel(s) : 2 channels
Sampling rate : 48.0 KHz
Resolution : 16 bits
Video delay : 3ms
Stream size : 18.5 MiB (8%)
Alignment : Split accross interleaves
Interleave, duration : 42 ms (1.00 video frame)
Interleave, preload duration : 500 ms

General
Complete name Szilvia Lauren - Hung Up for Sex.avi
Format : AVI
Format/Info : Audio Video Interleave
File size : 194 MiB
Duration : 25mn 6s
Overall bit rate : 1 081 Kbps
Writing library : VirtualDub build 16297/release

Video
Format : S-Mpeg 4 v3
Codec ID : MP43
Codec ID/Info : Microsoft MPEG-4 V3
Duration : 25mn 6s
Bit rate : 1 039 Kbps
Width : 400 pixels
Height : 300 pixels
Display aspect ratio : 4/3
Frame rate : 25.000 fps
Resolution : 24 bits
Bits/(Pixel*Frame) : 0.346
Stream size : 187 MiB (96%)

Audio
Format : MPEG Audio
Format version : Version 2
Format profile : Layer 3
Codec ID : 55
Codec ID/Hint : MP3
Duration : 25mn 6s
Bit rate mode : Constant
Bit rate : 32.0 Kbps
Channel(s) : 1 channel
Sampling rate : 24.0 KHz
Resolution : 16 bits
Stream size : 5.75 MiB (3%)
Alignment : Split accross interleaves
Interleave, duration : 40 ms (1.00 video frame)
Interleave, preload duration : 500 ms

General
Complete name Szilvia Lauren - Jessica Pornochic 8.avi
Format : AVI
Format/Info : Audio Video Interleave
File size : 119 MiB
Duration : 14mn 7s
Overall bit rate : 1 182 Kbps
Writing library : Boilsoft Joiner build 2411/release

Video
Format : MPEG-4 Visual
Format profile : Streaming Video@L1
Format settings, BVOP : Yes
Format settings, QPel : No
Format settings, GMC : No warppoints
Format settings, Matrix : Default
Muxing mode : Packed bitstream
Codec ID : XVID
Codec ID/Hint : XviD
Duration : 14mn 7s
Bit rate : 1 042 Kbps
Width : 512 pixels
Height : 288 pixels
Display aspect ratio : 16/9
Frame rate : 29.970 fps
Resolution : 24 bits
Colorimetry : 4:2:0
Scan type : Progressive
Bits/(Pixel*Frame) : 0.236
Stream size : 105 MiB (88%)
Writing library : XviD 1.0.3 (UTC 2004-12-20)

Audio
Format : MPEG Audio
Format version : Version 1
Format profile : Layer 3
Codec ID : 55
Codec ID/Hint : MP3
Duration : 14mn 7s
Bit rate mode : Constant
Bit rate : 128 Kbps
Channel(s) : 2 channels
Sampling rate : 48.0 KHz
Resolution : 16 bits
Stream size : 12.9 MiB (11%)
Alignment : Aligned on interleaves
Interleave, duration : 33 ms (1.00 video frame)
Interleave, preload duration : 480 ms

General
Complete name Szilvia Lauren - L'Initiation de Priscila.avi
Format : AVI
Format/Info : Audio Video Interleave
File size : 143 MiB
Duration : 13mn 42s
Overall bit rate : 1 462 Kbps
Writing library : Boilsoft Joiner build 2411/release

Video
Format : MPEG-4 Visual
Format profile : Simple@L3
Format settings, BVOP : Yes
Format settings, QPel : No
Format settings, GMC : No warppoints
Format settings, Matrix : Custom
Codec ID : XVID
Codec ID/Hint : XviD
Duration : 13mn 42s
Bit rate : 1 322 Kbps
Width : 624 pixels
Height : 352 pixels
Display aspect ratio : 16/9
Frame rate : 29.970 fps
Resolution : 24 bits
Colorimetry : 4:2:0
Scan type : Progressive
Bits/(Pixel*Frame) : 0.201
Stream size : 130 MiB (90%)
Writing library : XviD 1.1.0 Beta2 (UTC 2005-04-04)

Audio
Format : MPEG Audio
Format version : Version 1
Format profile : Layer 3
Codec ID : 55
Codec ID/Hint : MP3
Duration : 13mn 42s
Bit rate mode : Constant
Bit rate : 128 Kbps
Channel(s) : 2 channels
Sampling rate : 48.0 KHz
Resolution : 16 bits
Stream size : 12.6 MiB (9%)
Alignment : Aligned on interleaves
Interleave, duration : 33 ms (1.00 video frame)
Interleave, preload duration : 480 ms

General
Complete name Szilvia Lauren - Le Journal de Pauline.avi
Format : AVI
Format/Info : Audio Video Interleave
File size : 77.5 MiB
Duration : 9mn 35s
Overall bit rate : 1 129 Kbps
Writing application : VirtualDubMod 1.5.4.1 (build 2066/release)
Writing library : VirtualDubMod build 2066/release

Video
Format : MPEG-4 Visual
Format settings, BVOP : No
Format settings, QPel : No
Format settings, GMC : No warppoints
Format settings, Matrix : Default
Codec ID : DX50
Codec ID/Hint : DivX 5
Duration : 9mn 35s
Bit rate : 991 Kbps
Width : 640 pixels
Height : 352 pixels
Display aspect ratio : 16/9
Frame rate : 25.000 fps
Resolution : 24 bits
Colorimetry : 4:2:0
Scan type : Progressive
Bits/(Pixel*Frame) : 0.176
Stream size : 68.0 MiB (88%)
Writing library : DivX 5.0.5 (UTC 2003-04-24)

Audio
Format : MPEG Audio
Format version : Version 1
Format profile : Layer 3
Codec ID : 55
Codec ID/Hint : MP3
Duration : 9mn 35s
Bit rate mode : Constant
Bit rate : 128 Kbps
Channel(s) : 2 channels
Sampling rate : 48.0 KHz
Resolution : 16 bits
Video delay : 21ms
Stream size : 8.79 MiB (11%)
Alignment : Split accross interleaves
Interleave, duration : 40 ms (1.00 video frame)
Interleave, preload duration : 500 ms

General
Complete name Szilvia Lauren - Legal Skin 5.avi
Format : AVI
Format/Info : Audio Video Interleave
File size : 101 MiB
Duration : 15mn 58s
Overall bit rate : 879 Kbps
Writing library : MPlayer

Video
Format : MPEG-4 Visual
Format profile : Streaming Video@L1
Format settings, BVOP : Yes
Format settings, QPel : No
Format settings, GMC : No warppoints
Format settings, Matrix : Default
Codec ID : XVID
Codec ID/Hint : XviD
Duration : 15mn 58s
Bit rate : 675 Kbps
Width : 480 pixels
Height : 352 pixels
Display aspect ratio : 4/3
Frame rate : 25.000 fps
Resolution : 24 bits
Colorimetry : 4:2:0
Scan type : Progressive
Bits/(Pixel*Frame) : 0.160
Stream size : 77.1 MiB (77%)
Writing library : XviD 1.1.2 (UTC 2006-11-01)

Audio
Format : MPEG Audio
Format version : Version 1
Format profile : Layer 3
Codec ID : 55
Codec ID/Hint : MP3
Duration : 15mn 58s
Bit rate mode : Constant
Bit rate : 192 Kbps
Channel(s) : 1 channel
Sampling rate : 44.1 KHz
Resolution : 16 bits
Stream size : 21.9 MiB (22%)
Alignment : Aligned on interleaves
Interleave, duration : 26 ms (0.65 video frame)
Interleave, preload duration : 522 ms

General
Complete name Szilvia Lauren - Lewd Conduct 12.avi
Format : AVI
Format/Info : Audio Video Interleave
File size : 222 MiB
Duration : 24mn 26s
Overall bit rate : 1 272 Kbps
Writing library : VirtualDub build 16297/release

Video
Format : MPEG-4 Visual
Format settings, BVOP : Yes
Format settings, QPel : No
Format settings, GMC : 2 warppoints
Format settings, Matrix : Default
Muxing mode : Packed bitstream
Codec ID : DX50
Codec ID/Hint : DivX 5
Duration : 24mn 26s
Bit rate : 1 150 Kbps
Width : 512 pixels
Height : 384 pixels
Display aspect ratio : 4/3
Frame rate : 23.976 fps
Resolution : 24 bits
Scan type : Progressive
Bits/(Pixel*Frame) : 0.244
Stream size : 201 MiB (90%)
Writing library : DivX 5.1.0 (UTC 2003-09-02)

Audio
Format : MPEG Audio
Format version : Version 1
Format profile : Layer 3
Codec ID : 55
Codec ID/Hint : MP3
Duration : 24mn 26s
Bit rate mode : Constant
Bit rate : 112 Kbps
Channel(s) : 2 channels
Sampling rate : 48.0 KHz
Resolution : 16 bits
Video delay : 8ms
Stream size : 19.6 MiB (9%)
Alignment : Split accross interleaves
Interleave, duration : 42 ms (1.00 video frame)
Interleave, preload duration : 500 ms

General
Complete name Szilvia Lauren - Lust Fever.avi
Format : AVI
Format/Info : Audio Video Interleave
File size : 128 MiB
Duration : 8mn 0s
Overall bit rate : 2 235 Kbps
Writing library : Boilsoft Joiner build 2411/release

Video
Format : MPEG-4 Visual
Format profile : Streaming Video@L1
Format settings, BVOP : Yes
Format settings, QPel : No
Format settings, GMC : No warppoints
Format settings, Matrix : Custom
Codec ID : XVID
Codec ID/Hint : XviD
Duration : 8mn 0s
Bit rate : 2 114 Kbps
Width : 640 pixels
Height : 480 pixels
Display aspect ratio : 4/3
Frame rate : 25.000 fps
Resolution : 24 bits
Colorimetry : 4:2:0
Scan type : Progressive
Bits/(Pixel*Frame) : 0.275
Stream size : 121 MiB (95%)
Writing library : XviD 1.1.0 (UTC 2005-11-22)

Audio
Format : MPEG Audio
Format version : Version 1
Format profile : Layer 3
Codec ID : 55
Codec ID/Hint : MP3
Duration : 8mn 0s
Bit rate mode : Constant
Bit rate : 112 Kbps
Channel(s) : 2 channels
Sampling rate : 48.0 KHz
Resolution : 16 bits
Stream size : 6.42 MiB (5%)
Alignment : Aligned on interleaves
Interleave, duration : 40 ms (1.00 video frame)
Interleave, preload duration : 480 ms

General
Complete name Szilvia Lauren - Maximum 2.avi
Format : AVI
Format/Info : Audio Video Interleave
File size : 234 MiB
Duration : 19mn 36s
Overall bit rate : 1 666 Kbps
Writing library : MPlayer

Video
Format : MPEG-4 Visual
Format profile : Streaming Video@L1
Format settings, BVOP : Yes
Format settings, QPel : No
Format settings, GMC : No warppoints
Format settings, Matrix : Default
Codec ID : XVID
Codec ID/Hint : XviD
Duration : 19mn 36s
Bit rate : 1 462 Kbps
Width : 720 pixels
Height : 416 pixels
Display aspect ratio : 16/9
Frame rate : 25.000 fps
Resolution : 24 bits
Colorimetry : 4:2:0
Scan type : Progressive
Bits/(Pixel*Frame) : 0.195
Stream size : 205 MiB (88%)
Writing library : XviD 1.1.2 (UTC 2006-11-01)

Audio
Format : MPEG Audio
Format version : Version 1
Format profile : Layer 3
Codec ID : 55
Codec ID/Hint : MP3
Duration : 19mn 36s
Bit rate mode : Constant
Bit rate : 192 Kbps
Channel(s) : 2 channels
Sampling rate : 44.1 KHz
Resolution : 16 bits
Stream size : 26.9 MiB (12%)
Alignment : Aligned on interleaves
Interleave, duration : 26 ms (0.65 video frame)
Interleave, preload duration : 522 ms
Writing library : LAME3.97

General
Complete name Szilvia Lauren - Naughty College School Girls 17.avi
Format : AVI
Format/Info : Audio Video Interleave
File size : 292 MiB
Duration : 19mn 0s
Overall bit rate : 2 152 Kbps
Writing library : Boilsoft Joiner build 2411/release

Video
Format : MPEG-4 Visual
Format profile : Streaming Video@L1
Format settings, BVOP : Yes
Format settings, QPel : No
Format settings, GMC : No warppoints
Format settings, Matrix : Default
Codec ID : XVID
Codec ID/Hint : XviD
Duration : 19mn 0s
Bit rate : 1 948 Kbps
Width : 512 pixels
Height : 384 pixels
Display aspect ratio : 4/3
Frame rate : 29.970 fps
Resolution : 24 bits
Colorimetry : 4:2:0
Scan type : Progressive
Bits/(Pixel*Frame) : 0.331
Stream size : 265 MiB (91%)
Writing library : XviD 1.1.2 (UTC 2006-11-01)

Audio
Format : MPEG Audio
Format version : Version 1
Format profile : Layer 3
Codec ID : 55
Codec ID/Hint : MP3
Duration : 19mn 0s
Bit rate mode : Constant
Bit rate : 192 Kbps
Channel(s) : 2 channels
Sampling rate : 44.1 KHz
Resolution : 16 bits
Stream size : 26.1 MiB (9%)
Alignment : Split accross interleaves
Interleave, duration : 33 ms (1.00 video frame)
Interleave, preload duration : 500 ms

General
Complete name Szilvia Lauren - North Pole 26.wmv
Format : Windows Media
File size : 200 MiB
Duration : 13mn 18s
Overall bit rate mode : Constant
Overall bit rate : 2 106 Kbps
Maximum Overall bit rate : 2 116 Kbps
Encoded date : UTC 2006-03-09 22:23:55.242

Video
Format : VC-1
Format profile : MP@ML
Codec ID : WMV3
Codec ID/Info : Windows Media Video 9
Codec ID/Hint : WMV3
Description of the codec : Windows Media Video 9 - Professional
Duration : 13mn 17s
Bit rate mode : Constant
Bit rate : 2 000 Kbps
Width : 720 pixels
Height : 528 pixels
Display aspect ratio : 4/3
Frame rate : 29.970 fps
Resolution : 24 bits
Bits/(Pixel*Frame) : 0.176
Language : English
NumberOfFrames : 23910

Audio
Format : WMA2
Format profile : L1
Codec ID : 161
Codec ID/Info : Windows Media Audio 2
Description of the codec : Windows Media Audio 9.1 - 96 kbps, 44 kHz, stereo 1-pass CBR
Duration : 13mn 18s
Bit rate mode : Constant
Bit rate : 96.0 Kbps
Channel(s) : 2 channels
Sampling rate : 44.1 KHz
Language : English
NumberOfFrames : 2151

General
Complete name Szilvia Lauren - Peeping Tom 36.mpg
Format : MPEG-PS
File size : 73.3 MiB
Duration : 15mn 12s
Overall bit rate : 674 Kbps
Writing library : encoded by TMPGEnc (ver. 2.01.30.116)

Video
Format : MPEG Video
Format version : Version 1
Format settings, Matrix : Standard
Duration : 15mn 12s
Bit rate mode : Variable
Bit rate : 563 Kbps
Width : 352 pixels
Height : 240 pixels
Display aspect ratio : 4/3
Frame rate : 29.970 fps
Scan type : Progressive
Writing library : TMPGEnc 2.01.30.116

Audio
Format : MPEG Audio
Format version : Version 1
Format profile : Layer 2
Duration : 15mn 12s
Bit rate mode : Constant
Bit rate : 64.0 Kbps
Channel(s) : 1 channel
Sampling rate : 44.1 KHz
Resolution : 16 bits
Video delay : 244ms

General
Complete name Szilvia Lauren - Perverted POV 3.avi
Format : AVI
Format/Info : Audio Video Interleave
File size : 90.9 MiB
Duration : 8mn 0s
Overall bit rate : 1 587 Kbps
Writing library : VirtualDub build 0/release

Video
Format : MPEG-4 Visual
Codec ID : DIV3
Codec ID/Hint : DivX 3 Low
Duration : 8mn 0s
Bit rate : 1 447 Kbps
Width : 448 pixels
Height : 336 pixels
Display aspect ratio : 4/3
Frame rate : 29.970 fps
Resolution : 24 bits
Bits/(Pixel*Frame) : 0.321
Stream size : 82.9 MiB (91%)

Audio
Format : MPEG Audio
Format version : Version 1
Format profile : Layer 3
Codec ID : 55
Codec ID/Hint : MP3
Duration : 8mn 0s
Bit rate mode : Constant
Bit rate : 128 Kbps
Channel(s) : 2 channels
Sampling rate : 44.1 KHz
Resolution : 16 bits
Stream size : 7.31 MiB (8%)
Alignment : Split accross interleaves
Interleave, duration : 33 ms (1.00 video frame)
Interleave, preload duration : 498 ms

General
Complete name Szilvia Lauren - Pick-Up Lines 55.wmv
Format : Windows Media
File size : 278 MiB
Duration : 18mn 27s
Overall bit rate mode : Constant
Overall bit rate : 2 106 Kbps
Maximum Overall bit rate : 2 116 Kbps
Encoded date : UTC 2006-05-03 17:31:16.687

Video
Format : VC-1
Format profile : MP@ML
Codec ID : WMV3
Codec ID/Info : Windows Media Video 9
Codec ID/Hint : WMV3
Description of the codec : Windows Media Video 9 - Professional
Duration : 18mn 26s
Bit rate mode : Constant
Bit rate : 2 000 Kbps
Width : 720 pixels
Height : 528 pixels
Display aspect ratio : 4/3
Frame rate : 29.970 fps
Resolution : 24 bits
Bits/(Pixel*Frame) : 0.176
Language : English
NumberOfFrames : 33191

Audio
Format : WMA2
Format profile : L1
Codec ID : 161
Codec ID/Info : Windows Media Audio 2
Description of the codec : Windows Media Audio 9.1 - 96 kbps, 44 kHz, stereo 1-pass CBR
Duration : 18mn 27s
Bit rate mode : Constant
Bit rate : 96.0 Kbps
Channel(s) : 2 channels
Sampling rate : 44.1 KHz
Language : English
NumberOfFrames : 2983

General
Complete name Szilvia Lauren - Pick-Up Lines 72.avi
Format : AVI
Format/Info : Audio Video Interleave
File size : 207 MiB
Duration : 15mn 8s
Overall bit rate : 1 909 Kbps
Writing application : VirtualDubMod 1.5.10.1 (build 2424/release)
Writing library : VirtualDubMod build 2424/release

Video
Format : MPEG-4 Visual
Codec ID : DIV3
Codec ID/Hint : DivX 3 Low
Duration : 15mn 8s
Bit rate : 1 749 Kbps
Width : 512 pixels
Height : 384 pixels
Display aspect ratio : 4/3
Frame rate : 29.970 fps
Resolution : 24 bits
Bits/(Pixel*Frame) : 0.297
Stream size : 189 MiB (92%)

Audio
Format : MPEG Audio
Format version : Version 1
Format profile : Layer 3
Codec ID : 55
Codec ID/Hint : MP3
Duration : 15mn 3s
Bit rate mode : Variable
Bit rate : 149 Kbps
Channel(s) : 2 channels
Sampling rate : 48.0 KHz
Resolution : 16 bits
Video delay : 22ms
Stream size : 16.0 MiB (8%)
Alignment : Split accross interleaves
Interleave, duration : 34 ms (1.01 video frame)
Interleave, preload duration : 500 ms

General
Complete name Szilvia Lauren - Sex in The Sauna.avi
Format : AVI
Format/Info : Audio Video Interleave
File size : 151 MiB
Duration : 19mn 24s
Overall bit rate : 1 089 Kbps
Writing library : VirtualDub build 18160/release

Video
Format : S-Mpeg 4 v3
Codec ID : MP43
Codec ID/Info : Microsoft MPEG-4 V3
Duration : 19mn 24s
Bit rate : 1 048 Kbps
Width : 400 pixels
Height : 300 pixels
Display aspect ratio : 4/3
Frame rate : 25.000 fps
Resolution : 24 bits
Bits/(Pixel*Frame) : 0.349
Stream size : 145 MiB (96%)

Audio
Format : MPEG Audio
Format version : Version 2
Format profile : Layer 3
Codec ID : 55
Codec ID/Hint : MP3
Duration : 19mn 24s
Bit rate mode : Constant
Bit rate : 32.0 Kbps
Channel(s) : 1 channel
Sampling rate : 24.0 KHz
Resolution : 16 bits
Stream size : 4.44 MiB (3%)
Alignment : Split accross interleaves
Interleave, duration : 40 ms (1.00 video frame)
Interleave, preload duration : 500 ms

General
Complete name Szilvia Lauren - Sex on The Couch.mpg
Format : MPEG-PS
File size : 169 MiB
Duration : 17mn 19s
Overall bit rate : 1 363 Kbps

Video
Format : MPEG Video
Format version : Version 1
Format settings, Matrix : Standard
Duration : 17mn 19s
Bit rate mode : Constant
Bit rate : 1 076 Kbps
Nominal bit rate : 1 150 Kbps
Width : 320 pixels
Height : 240 pixels
Display aspect ratio : 4/3
Frame rate : 29.970 fps
Scan type : Progressive
Bits/(Pixel*Frame) : 0.500

Audio
Format : MPEG Audio
Format version : Version 1
Format profile : Layer 2
Duration : 17mn 19s
Bit rate mode : Constant
Bit rate : 192 Kbps
Channel(s) : 2 channels
Sampling rate : 44.1 KHz
Resolution : 16 bits

General
Complete name Szilvia Lauren - Sex Rebels.avi
Format : AVI
Format/Info : Audio Video Interleave
File size : 97.2 MiB
Duration : 13mn 47s
Overall bit rate : 985 Kbps
Writing library : Boilsoft Joiner build 2411/release

Video
Format : MPEG-4 Visual
Format profile : Simple@L3
Format settings, BVOP : Yes
Format settings, QPel : No
Format settings, GMC : No warppoints
Format settings, Matrix : Default
Codec ID : XVID
Codec ID/Hint : XviD
Duration : 13mn 47s
Bit rate : 847 Kbps
Width : 560 pixels
Height : 320 pixels
Display aspect ratio : 16/9
Frame rate : 25.000 fps
Resolution : 24 bits
Colorimetry : 4:2:0
Scan type : Progressive
Bits/(Pixel*Frame) : 0.189
Stream size : 83.6 MiB (86%)
Writing library : XviD 1.0.2 (UTC 2004-08-29)

Audio
Format : MPEG Audio
Format version : Version 1
Format profile : Layer 3
Codec ID : 55
Codec ID/Hint : MP3
Duration : 13mn 47s
Bit rate mode : Constant
Bit rate : 128 Kbps
Channel(s) : 2 channels
Sampling rate : 48.0 KHz
Resolution : 16 bits
Video delay : 8ms
Stream size : 12.6 MiB (13%)
Alignment : Split accross interleaves
Interleave, duration : 40 ms (1.00 video frame)
Interleave, preload duration : 500 ms

General
Complete name Szilvia Lauren - Sordid Secrets.avi
Format : AVI
Format/Info : Audio Video Interleave
File size : 159 MiB
Duration : 17mn 26s
Overall bit rate : 1 273 Kbps
Writing library : Boilsoft Joiner build 2411/release

Video
Format : MPEG-4 Visual
Format profile : Streaming Video@L1
Format settings, BVOP : Yes
Format settings, QPel : No
Format settings, GMC : No warppoints
Format settings, Matrix : Default
Muxing mode : Packed bitstream
Codec ID : XVID
Codec ID/Hint : XviD
Duration : 17mn 26s
Bit rate : 1 104 Kbps
Width : 576 pixels
Height : 316 pixels
Display aspect ratio : 16/9
Frame rate : 23.979 fps
Original frame rate : 23.976 fps
Resolution : 24 bits
Colorimetry : 4:2:0
Scan type : Progressive
Bits/(Pixel*Frame) : 0.253
Stream size : 138 MiB (87%)
Writing library : XviD 1.1.2 (UTC 2006-11-01)

Audio
Format : MPEG Audio
Format version : Version 1
Format profile : Layer 3
Codec ID : 55
Codec ID/Hint : MP3
Duration : 17mn 26s
Bit rate mode : Constant
Bit rate : 160 Kbps
Channel(s) : 2 channels
Sampling rate : 48.0 KHz
Resolution : 16 bits
Video delay : 4ms
Stream size : 20.0 MiB (13%)
Alignment : Split accross interleaves
Interleave, duration : 42 ms (1.00 video frame)
Interleave, preload duration : 500 ms

General
Complete name Szilvia Lauren - Szilvia Loves Cocks.avi
Format : AVI
Format/Info : Audio Video Interleave
File size : 432 MiB
Duration : 26mn 54s
Overall bit rate : 2 243 Kbps
Writing library : VirtualDub build 24463/release

Video
Format : S-Mpeg 4 v3
Codec ID : MP43
Codec ID/Info : Microsoft MPEG-4 V3
Duration : 26mn 54s
Bit rate : 2 201 Kbps
Width : 400 pixels
Height : 300 pixels
Display aspect ratio : 4/3
Frame rate : 25.000 fps
Resolution : 24 bits
Bits/(Pixel*Frame) : 0.734
Stream size : 424 MiB (98%)

Audio
Format : MPEG Audio
Format version : Version 2
Format profile : Layer 3
Codec ID : 55
Codec ID/Hint : MP3
Duration : 26mn 54s
Bit rate mode : Constant
Bit rate : 32.0 Kbps
Channel(s) : 1 channel
Sampling rate : 24.0 KHz
Resolution : 16 bits
Stream size : 6.16 MiB (1%)
Alignment : Split accross interleaves
Interleave, duration : 40 ms (1.00 video frame)
Interleave, preload duration : 500 ms

General
Complete name Szilvia Lauren - The Voyeur.avi
Format : AVI
Format/Info : Audio Video Interleave
File size : 86.3 MiB
Duration : 16mn 35s
Overall bit rate : 727 Kbps

Video
Format : MPEG-4 Visual
Codec ID : DIV3
Codec ID/Hint : DivX 3 Low
Duration : 16mn 35s
Bit rate : 703 Kbps
Width : 320 pixels
Height : 240 pixels
Display aspect ratio : 4/3
Frame rate : 29.970 fps
Resolution : 24 bits
Bits/(Pixel*Frame) : 0.306
Stream size : 83.5 MiB (97%)
Title : ?????????????

Audio
Format : MPEG Audio
Format version : Version 2
Format profile : Layer 3
Codec ID : 55
Codec ID/Hint : MP3
Duration : 16mn 35s
Bit rate mode : Variable
Bit rate : 18.0 Kbps
Channel(s) : 1 channel
Sampling rate : 16.0 KHz
Resolution : 16 bits
Stream size : 2.14 MiB (2%)
Alignment : Split accross interleaves
Interleave, duration : 14430 ms (432.48 video frames)
Title : ?????????????

General
Complete name Szilvia Lauren - Two for The Fun.mpg
Format : AVI
Format/Info : Audio Video Interleave
File size : 319 MiB
Duration : 32mn 37s
Overall bit rate : 1 368 Kbps
Writing library : VirtualDub build 24463/release

Video
Format : S-Mpeg 4 v3
Codec ID : MP43
Codec ID/Info : Microsoft MPEG-4 V3
Duration : 32mn 36s
Bit rate : 1 326 Kbps
Width : 512 pixels
Height : 384 pixels
Display aspect ratio : 4/3
Frame rate : 25.000 fps
Resolution : 24 bits
Bits/(Pixel*Frame) : 0.270
Stream size : 309 MiB (97%)

Audio
Format : MPEG Audio
Format version : Version 2
Format profile : Layer 3
Codec ID : 55
Codec ID/Hint : MP3
Duration : 32mn 37s
Bit rate mode : Constant
Bit rate : 32.0 Kbps
Channel(s) : 1 channel
Sampling rate : 24.0 KHz
Resolution : 16 bits
Stream size : 7.47 MiB (2%)
Alignment : Split accross interleaves
Interleave, duration : 40 ms (1.00 video frame)
Interleave, preload duration : 500 ms

General
Complete name Szilvia Lauren - White Hot Nurses 7.avi
Format : AVI
Format/Info : Audio Video Interleave
File size : 156 MiB
Duration : 19mn 32s
Overall bit rate : 1 114 Kbps
Writing library : Boilsoft Joiner build 2411/release

Video
Format : MPEG-4 Visual
Format profile : Streaming Video@L1
Format settings, BVOP : Yes
Format settings, QPel : No
Format settings, GMC : No warppoints
Format settings, Matrix : Custom
Codec ID : XVID
Codec ID/Hint : XviD
Duration : 19mn 32s
Bit rate : 975 Kbps
Width : 512 pixels
Height : 384 pixels
Display aspect ratio : 4/3
Frame rate : 29.979 fps
Original frame rate : 29.970 fps
Resolution : 24 bits
Colorimetry : 4:2:0
Scan type : Progressive
Bits/(Pixel*Frame) : 0.165
Stream size : 136 MiB (87%)
Writing library : XviD 1.1.0 Beta2 (UTC 2005-04-04)

Audio
Format : MPEG Audio
Format version : Version 1
Format profile : Layer 3
Codec ID : 55
Codec ID/Hint : MP3
Duration : 19mn 31s
Bit rate mode : Constant
Bit rate : 128 Kbps
Channel(s) : 2 channels
Sampling rate : 48.0 KHz
Resolution : 16 bits
Video delay : 13ms
Stream size : 17.9 MiB (11%)
Alignment : Split accross interleaves
Interleave, duration : 33 ms (1.00 video frame)
Interleave, preload duration : 500 ms


Внимание! AdBlock блокирует показ скриншотов, все вопросы к разработчикам )))
Трекер:  [ 02-Окт-2011 12:24 ]

  

Скачать .torrent

Размер .torrent файла 73 KB


Размер: 6.82 GB
Хэш (hash) релиза: 80e810232c268af3e1e7aafac6f7241e913c4f77

Торренты, похожие на Szilvia Lauren скачать торрент

Форум Название Автор Размер S L Добавлен
Архив (общий) ·· The Best Moments. Silvia Lauren (aka Sharone, Sylvie, Sylvia Laurent, Silvia Laurent, Szilvia Lauren, Silvia Loren, Szilvia, Silvie, Silvia) [2015 г., ALL sex, anal, DVDRip] Galfimbul ghost 11130695681.04 GB 0 0 1439980701

13:38

19-Авг-15

Паки порнороликов по актрисам / Actresses Clips Packs ·· Silvia Lauren (125 роликов) (aka Sharone, Sylvie, Sylvia Laurent, Silvia Laurent, Szilvia Lauren, Silvia Loren, Szilvia, Silvie, Silvia) MegaPack / Эта венгерка зажжет ваше воображение и не только! [Oral, Anal, Lesbo, All Sex, DP, Solo, Natural Tits] Galfimbul ghost 3211678480029.91 GB 0 0 1317538523

09:55

2-Окт-11

БДСМ / BDSM ·· [MightyMistress.com / 21seXtreme.com] Sabrina Sweet , Szilvia Lauren (Sex slave: Szilvia / 47016 / 09-03-2009) [2009, Babes, BDSM, Brunette, Femdom, Fetish , Latex n Leather, Lesbian, Mature, 720p, SiteRip] erzsebet 12366432681.15 GB 0 0 1449954898

00:14

13-Дек-15

БДСМ / BDSM ·· [MightyMistress.com / 21seXtreme.com] Szilvia Lauren , Wendi Pearl (Sex slave: Szilvia / 47046 / 11-01-2009) [2009, Babes, BDSM, Black Hair, Brunette, FemDom, Fetish , Lesbian, Lingerie, Mature, 720p, SiteRip] Galfimbul ghost 12518292071.17 GB 0 0 1433492919

11:28

5-Июн-15

Эротические студии (Фото | Видео) ·%· [21Naturals.com] 2013-05-26 Szilvia Lauren [Blowjob, Hardcore] [3744x5616, 112] Galfimbul ghost 207695630198 MB 0 0 1556346189

09:23

27-Апр-19

Лесбо-фильмы / All Girl & Solo ·%· Girls Just Wanna Have Fun 2 / Девушки просто хотят повеселиться 2 (Greg Centauro, Paradise Film) [2017 г., Anal, Big Boobs, Lesbian, Masturbation / Solo, Oral Sex, Threesome, Toys, WEB-DL, 540p] (Split Scenes) (Szilvia Lauren, Jazmin, Cindy Hope, Blu Galfimbul ghost 24188073992.25 GB 0 0 1555477570

08:06

17-Апр-19

Сайтрипы 2011-2012 / SiteRip's 2011-2012 ·%· [PixAndVideo.com / 21Sextury.com] Szilvia Lauren (Please Your Mistress) [23.06.2012 г., Brown Haired, Natural Tits, Oral, Hardcore, Facial, 1080p] Galfimbul ghost 11449500511.07 GB 0 0 1532230987

06:43

22-Июл-18

Сайтрипы 2018 / SiteRip's 2018 ·· [K Klixen Productions / Clips4Sale.com] Suzie Moss & Szilvia Lauren (K 4 Hands On You 2 / 15.02.2018) [2018 г., Orgasm Control, Hand Fetish, Handjob, Cumshot, 1080p] Galfimbul ghost 25764059142.4 GB 2 0 1521486985

22:16

19-Мар-18

Сайтрипы 2017 / SiteRip's 2017 ·· [MikesApartment.com / RealityKings.com] Katerina, Szilvia Lauren (Cum For Me Katerina / 24.05.2017) [Amateur, Blowjob, Cowgirl, CumInMouth, Doggystyle, Finger Banging, Indoors, Massage, Pussy Licking, Reverse Cowgirl, Shower, Side Fuck, 1080p] Galfimbul ghost 41315741693.85 GB 0 0 1496907208

10:33

8-Июн-17

Сайтрипы 2017 / SiteRip's 2017 ·· [MikesApartment.com / RealityKings.com] Szilvia Lauren & Katerina (Cum For Me Katerina / 24.05.17) [2017 г., Hardcore, Oral, 720p] Galfimbul ghost 665389333635 MB 0 0 1495640188

18:36

24-Май-17

Сайтрипы 2017 / SiteRip's 2017 ·· [MikesApartment.com / RealityKings.com] Szilvia Lauren and Katerina Hartlova aka Kathy Kozy (Cum For Me Katerina / 24.05.2017) [Amateur, Big Tits Worship, Work Fantasies, Blowjob, Sex, Finger Banging, Masturbation, Massage, Wet, Baby Oil, Shower] Galfimbul ghost 336180039321 MB 0 0 1495605938

09:05

24-Май-17

Гонзо-фильмы 2011-2021 / Gonzo 2011-2021 ·· MILF Thing / Мамочкина Штучка (Cruel Media, Jules Jordan Video) [2008 г., Gonzo, Gangbang, Anal, DP, Swallow, 540p, WEB-DL] (Split Scenes) (Dora Venter, Szilvia Lauren, Mandy Bright, Diana Doll, Andrea, Vivien, Vinnie) RD: 07.01.2008. Galfimbul ghost 56166640615.23 GB 0 0 1481049597

21:39

6-Дек-16

БДСМ / BDSM ·· [DominatedGirls.com / 21seXtreme.com] Szilvia Lauren (The Camp - The Right Attitude / 46272 / 04-08-2013) [2013, BDSM, One on One, Pornstar, BJ, Hardcore, 720p, SiteRip] erzsebet 500036932477 MB 1 1 1478186390

18:19

3-Ноя-16

Сайтрипы 2014 / SiteRip's 2014 ·· [TheVeryBestOf.com / 21Sextury.com] Sandy, Jordan Green, Alexis, Szilvia Lauren... (Footing Fun) [08.12.2014 г., Compilation, Lesbo, Foot] Galfimbul ghost 185417572177 MB 0 0 1472972721

10:05

4-Сен-16

Фильмы без сюжета 1991-2010 / All Sex & Amateur 1991-2010 ·· Innocence perdue / Потерянная невинность (21 Naturals /Marc Dorcel) [2016 г., Gonzo, 18+Teens, Oral, Hardcore, WEBRip] Ashley, Doris Ivy, Szilvia Lauren, Liona Levi, Foxy Di erzsebet 17588908601.64 GB 1 1 1465822726

15:58

13-Июн-16

Сайтрипы 2013 / SiteRip's 2013 ·· [PixAndVideo.com / 21Sextury.com] Szilvia Lauren (A MILF anytime / 200225 / 26-01-2013) [2013, Blowjobs, MILF, Brown Haired, Natural Tits, One on One, Hardcore, 720p, SiteRip] erzsebet 766824974731 MB 0 0 1461927047

13:50

29-Апр-16

Эротические студии, фото и журналы / Erotic Picture Gallery ·· [PixAndVideo.com / 21Sextury.com] Szilvia Lauren (A MILF anytime / 68421 / 200225 / 26-01-2013) [Blowjobs, MILF, Brown Haired, Natural Tits, One on One, Hardcore] [88 Photos, 2832*4256, 4256*2832, JPG] erzsebet 128681727123 MB 0 0 1461238205

14:30

21-Апр-16

Сайтрипы 2013 / SiteRip's 2013 ·· [PixAndVideo.com / 21Sextury.com] Szilvia Lauren (A MILF anytime / 35501 / 200225 / 26-01-2013) [2013, Blowjobs, MILF, Brown Haired, Natural Tits, One on One, Hardcore, 1080p, SiteRip] erzsebet 1026163535979 MB 0 0 1461235534

13:45

21-Апр-16

Сцены из фильмов / Movie Scenes ·· [DorcelClub.com / Dorcel.com] Szilvia Lauren, Anissa Kate (Punition anale pour Anissa Kate / 19-12-2013) [2013, Anal Sex, Hardcore, Threesome, FFM, 1080p, HDRip] erzsebet 684826323653 MB 1 2 1460477111

19:05

12-Апр-16

Сцены из фильмов / Movie Scenes ·· Szilvia Lauren (сцена из "Oh Those Lovin' Spoonfuls 33") (aka Sylvia Laurent, Silvia) [2000 г., Gonzo, Cunnilingus, All Sex, Interracial] Galfimbul ghost 626220086597 MB 0 0 1459861447

16:04

5-Апр-16

Еще никто не оставлял запись к записи скачать торрент Szilvia Lauren . Будь первым!

!Обратная связь