Скачать порно через торрент Simone Peach UnionPeer.org бесплатно онлайн HD качество

Скачать новое порно 2015, 2014 новинки через торрент UnionPeer.org

Порно торрент бесплатно ЮнионПир.орг

Статистика раздачи
Размер:  3.84 GB   |    Зарегистрирован:  9 лет 6 месяцев   |    .torrent скачан:  3162 раза   |   
Раздают:  2   Качают:  2  
   
 
Автор Сообщение

Galfimbul ghost

avatar Galfimbul ghost


Simone Peach


Страна: Czech Republic
Жанр: All Sex, Anal, Big Ass Cumshot, Double Penetration, Gangbang, Hardcore, Interracial, Lingerie
Качество: DVDRip
Complete name A Load in Every Hole.avi
Format : AVI
Format/Info : Audio Video Interleave
File size : 450 MiB
Duration : 40mn 23s
Overall bit rate : 1 559 Kbps

Video
Format : MPEG-4 Visual
Format profile : Streaming Video@L1
Format settings, BVOP : Yes
Format settings, QPel : No
Format settings, GMC : No warppoints
Format settings, Matrix : Custom
Codec ID : XVID
Codec ID/Hint : XviD
Duration : 40mn 23s
Bit rate : 1 356 Kbps
Width : 512 pixels
Height : 384 pixels
Display aspect ratio : 4/3
Frame rate : 29.970 fps
Resolution : 24 bits
Colorimetry : 4:2:0
Scan type : Progressive
Bits/(Pixel*Frame) : 0.230
Stream size : 392 MiB (87%)
Writing library : XviD 1.2.0.dev47 (UTC 2006-11-01)

Audio
Format : AC-3
Format/Info : Audio Coding 3
Codec ID : 2000
Duration : 40mn 23s
Bit rate mode : Constant
Bit rate : 192 Kbps
Channel(s) : 2 channels
Channel positions : L R
Sampling rate : 48.0 KHz
Video delay : 5ms
Stream size : 55.5 MiB (12%)
Alignment : Split accross interleaves
Interleave, duration : 96 ms (2.88 video frames)

General
Complete name Anal Fuckathon.avi
Format : AVI
Format/Info : Audio Video Interleave
File size : 349 MiB
Duration : 22mn 10s
Overall bit rate : 2 202 Kbps
Writing library : Boilsoft Joiner build 2411/release

Video
Format : MPEG-4 Visual
Format profile : Streaming Video@L1
Format settings, BVOP : Yes
Format settings, QPel : No
Format settings, GMC : No warppoints
Format settings, Matrix : Default
Codec ID : XVID
Codec ID/Hint : XviD
Duration : 22mn 9s
Bit rate : 1 998 Kbps
Width : 640 pixels
Height : 480 pixels
Display aspect ratio : 4/3
Frame rate : 29.970 fps
Resolution : 24 bits
Colorimetry : 4:2:0
Scan type : Progressive
Bits/(Pixel*Frame) : 0.217
Stream size : 317 MiB (91%)
Writing library : XviD 1.1.2 (UTC 2006-11-01)

Audio
Format : MPEG Audio
Format version : Version 1
Format profile : Layer 3
Codec ID : 55
Codec ID/Hint : MP3
Duration : 22mn 10s
Bit rate mode : Constant
Bit rate : 192 Kbps
Channel(s) : 2 channels
Sampling rate : 44.1 KHz
Resolution : 16 bits
Stream size : 30.4 MiB (9%)
Alignment : Split accross interleaves
Interleave, duration : 33 ms (1.00 video frame)
Interleave, preload duration : 500 ms

General
Complete name DPFanatics.mpg
Format : AVI
Format/Info : Audio Video Interleave
File size : 277 MiB
Duration : 28mn 20s
Overall bit rate : 1 368 Kbps
Writing library : VirtualDub build 24463/release

Video
Format : S-Mpeg 4 v3
Codec ID : MP43
Codec ID/Info : Microsoft MPEG-4 V3
Duration : 28mn 20s
Bit rate : 1 326 Kbps
Width : 512 pixels
Height : 384 pixels
Display aspect ratio : 4/3
Frame rate : 25.000 fps
Resolution : 24 bits
Bits/(Pixel*Frame) : 0.270
Stream size : 269 MiB (97%)

Audio
Format : MPEG Audio
Format version : Version 2
Format profile : Layer 3
Codec ID : 55
Codec ID/Hint : MP3
Duration : 28mn 20s
Bit rate mode : Constant
Bit rate : 32.0 Kbps
Channel(s) : 1 channel
Sampling rate : 24.0 KHz
Resolution : 16 bits
Stream size : 6.49 MiB (2%)
Alignment : Split accross interleaves
Interleave, duration : 40 ms (1.00 video frame)
Interleave, preload duration : 500 ms

General
Complete name Europe Hotties.avi
Format : Windows Media
File size : 226 MiB
Duration : 15mn 6s
Overall bit rate mode : Variable
Overall bit rate : 2 089 Kbps
Maximum Overall bit rate : 6 017 Kbps
Encoded date : UTC 2006-05-03 03:31:27.343

Video
Format : VC-1
Format profile : MP@ML
Codec ID : WMV3
Codec ID/Info : Windows Media Video 9
Codec ID/Hint : WMV3
Description of the codec : Windows Media Video 9 - Professional
Duration : 15mn 5s
Bit rate mode : Variable
Bit rate : 2 000 Kbps
Width : 720 pixels
Height : 480 pixels
Display aspect ratio : 1.500
Frame rate : 29.970 fps
Standard : NTSC
Resolution : 24 bits
Bits/(Pixel*Frame) : 0.193
Language : en-ca

Audio
Format : WMA2
Format profile : L2
Codec ID : 161
Codec ID/Info : Windows Media Audio 2
Description of the codec : Windows Media Audio 9.1 - 32 kbps, 44 kHz, mono (A/V) 1-pass CBR
Duration : 15mn 6s
Bit rate mode : Constant
Bit rate : 32.0 Kbps
Channel(s) : 1 channel
Sampling rate : 44.1 KHz
Language : en-ca

General
Complete name Fuck Doll Sandwich.wmv
Format : Windows Media
File size : 415 MiB
Duration : 25mn 24s
Overall bit rate mode : Variable
Overall bit rate : 2 283 Kbps
Maximum Overall bit rate : 7 812 Kbps
Movie name : Fuck Doll Sandwich
Encoded date : UTC 2006-07-06 21:47:38.953

Video
Format : WMV2
Codec ID : WMV2
Codec ID/Info : Windows Media Video 8
Duration : 25mn 22s
Bit rate mode : Variable
Bit rate : 2 779 Kbps
Width : 720 pixels
Height : 480 pixels
Display aspect ratio : 1.500
Frame rate : 23.976 fps
Standard : NTSC
Resolution : 24 bits
Bits/(Pixel*Frame) : 0.335
Language : en-us

Audio
Format : WMA2
Codec ID : 161
Codec ID/Info : Windows Media Audio 2
Duration : 25mn 24s
Bit rate mode : Constant
Bit rate : 64.0 Kbps
Channel(s) : 2 channels
Sampling rate : 44.1 KHz
Language : en-us

General
Complete name Gangland 56.wmv
Format : Windows Media
File size : 556 MiB
Duration : 36mn 22s
Overall bit rate mode : Constant
Overall bit rate : 2 138 Kbps
Maximum Overall bit rate : 2 148 Kbps
Performer : www.devilsfilm.com
Encoded date : UTC 2006-11-13 21:06:16.296

Video
Format : VC-1
Format profile : MP@ML
Codec ID : WMV3
Codec ID/Info : Windows Media Video 9
Codec ID/Hint : WMV3
Description of the codec : Windows Media Video 9 - Professional
Duration : 36mn 19s
Bit rate mode : Constant
Bit rate : 2 000 Kbps
Width : 720 pixels
Height : 528 pixels
Display aspect ratio : 4/3
Frame rate : 29.970 fps
Resolution : 24 bits
Bits/(Pixel*Frame) : 0.176
Language : English
NumberOfFrames : 65385

Audio
Format : WMA2
Format profile : L2
Codec ID : 161
Codec ID/Info : Windows Media Audio 2
Description of the codec : Windows Media Audio 9.1 - 128 kbps, 48 kHz, stereo (A/V) 1-pass CBR
Duration : 36mn 22s
Bit rate mode : Constant
Bit rate : 128 Kbps
Channel(s) : 2 channels
Sampling rate : 48.0 KHz
Language : English
NumberOfFrames : 12788

General
Complete name Lets Fool Around 2.wmv
Format : Windows Media
File size : 416 MiB
Duration : 29mn 5s
Overall bit rate mode : Variable
Overall bit rate : 2 000 Kbps
Maximum Overall bit rate : 4 103 Kbps
Movie name : Let's Fool Around #2
Encoded date : UTC 2007-08-02 04:43:09.656

Video
Format : WMV2
Codec ID : WMV2
Codec ID/Info : Windows Media Video 8
Duration : 29mn 3s
Bit rate mode : Variable
Bit rate : 2 695 Kbps
Width : 640 pixels
Height : 480 pixels
Display aspect ratio : 4/3
Frame rate : 23.976 fps
Resolution : 24 bits
Bits/(Pixel*Frame) : 0.366
AspectRatioX : 4
AspectRatioY : 3

Audio
Format : WMA2
Codec ID : 161
Codec ID/Info : Windows Media Audio 2
Duration : 29mn 5s
Bit rate mode : Constant
Bit rate : 64.0 Kbps
Channel(s) : 2 channels
Sampling rate : 44.1 KHz

General
Complete name Look What's Up My Ass 5.avi
Format : AVI
Format/Info : Audio Video Interleave
File size : 317 MiB
Duration : 25mn 4s
Overall bit rate : 1 769 Kbps
Writing library : The File had been created by Solveig Multimedia AVI Writer

Video
Format : MPEG-4 Visual
Format profile : Streaming Video@L1
Format settings, BVOP : Yes
Format settings, QPel : No
Format settings, GMC : No warppoints
Format settings, Matrix : Custom
Codec ID : XVID
Codec ID/Hint : XviD
Duration : 25mn 4s
Bit rate : 1 649 Kbps
Width : 512 pixels
Height : 384 pixels
Display aspect ratio : 4/3
Frame rate : 29.970 fps
Resolution : 24 bits
Colorimetry : 4:2:0
Scan type : Progressive
Bits/(Pixel*Frame) : 0.280
Stream size : 296 MiB (93%)
Writing library : XviD 1.1.0 (UTC 2005-11-22)

Audio
Format : MPEG Audio
Format version : Version 1
Format profile : Layer 3
Codec ID : 55
Codec ID/Hint : MP3
Bit rate mode : Variable
Bit rate : 105 Kbps
Channel(s) : 2 channels
Sampling rate : 48.0 KHz
Resolution : 16 bits
Video delay : 16ms
Stream size : 19.0 MiB (6%)
Alignment : Split accross interleaves
Interleave, duration : 24 ms (0.72 video frame)

General
Complete name Open Legs Open Minds.mp4
Format : MPEG-4
Format profile : Base Media / Version 2
Codec ID : mp42
File size : 456 MiB
Duration : 26mn 42s
Overall bit rate : 2 388 Kbps
Movie name : Open Legs, Open Minds, Scene 6
Album : Open Legs, Open Minds
Track name/Position : 6
Track name/Total : 6
Performer : Mandy Saxo
Screenplay by : Private
Encoded date : UTC 2008-04-11 18:57:19
Tagged date : UTC 2008-04-11 18:58:04
Writing application : mp4creator 1.5.0.1

Video
Format : AVC
Format/Info : Advanced Video Codec
Format profile : Baseline@L1.3
Format settings, CABAC : No
Format settings, ReFrames : 3 frames
Codec ID : avc1
Codec ID/Info : Advanced Video Coding
Duration : 26mn 42s
Bit rate mode : Variable
Width : 640 pixels
Height : 480 pixels
Display aspect ratio : 4/3
Frame rate mode : Constant
Frame rate : 25.000 fps
Resolution : 24 bits
Colorimetry : 4:2:0
Scan type : Progressive
Bits/(Pixel*Frame) : 0.000
Stream size : 431 MiB (94%)
Encoded date : UTC 2008-04-11 18:57:19
Tagged date : UTC 2008-04-10 18:58:05

Audio
Format : AAC
Format/Info : Advanced Audio Codec
Format version : Version 4
Format profile : LC
Format settings, SBR : No
Codec ID : 40
Duration : 26mn 42s
Bit rate mode : Variable
Bit rate : 128 Kbps
Maximum bit rate : 154 Kbps
Channel(s) : 2 channels
Channel positions : L R
Sampling rate : 48.0 KHz
Resolution : 16 bits
Stream size : 24.4 MiB (5%)
Encoded date : UTC 2008-04-11 18:57:49
Tagged date : UTC 2008-04-10 18:58:05

General
Complete name Perversions 2.avi
Format : AVI
Format/Info : Audio Video Interleave
File size : 467 MiB
Duration : 30mn 30s
Overall bit rate : 2 140 Kbps
Writing library : VirtualDub-MPEG2 build 24600/release

Video
Format : MPEG-4 Visual
Format settings, BVOP : No
Format settings, QPel : No
Format settings, GMC : No warppoints
Format settings, Matrix : Default
Codec ID : XVID
Codec ID/Hint : XviD
Duration : 30mn 30s
Bit rate : 2 000 Kbps
Width : 576 pixels
Height : 432 pixels
Display aspect ratio : 4/3
Frame rate : 29.970 fps
Resolution : 24 bits
Colorimetry : 4:2:0
Scan type : Progressive
Bits/(Pixel*Frame) : 0.268
Stream size : 437 MiB (93%)

Audio
Format : MPEG Audio
Format version : Version 1
Format profile : Layer 3
Codec ID : 55
Codec ID/Hint : MP3
Duration : 30mn 30s
Bit rate mode : Constant
Bit rate : 128 Kbps
Channel(s) : 2 channels
Sampling rate : 48.0 KHz
Resolution : 16 bits
Stream size : 27.9 MiB (6%)
Alignment : Split accross interleaves
Interleave, duration : 33 ms (1.00 video frame)
Interleave, preload duration : 500 ms


Внимание! AdBlock блокирует показ скриншотов, все вопросы к разработчикам )))
Трекер:  [ 02-Окт-2011 12:40 ]

  

Скачать .torrent

Размер .torrent файла 21 KB


Размер: 3.84 GB
Хэш (hash) релиза: 81a956755f3303fa69fb479e3a40d771caa8dbab

Торренты, похожие на Simone Peach скачать торрент

Форум Название Автор Размер S L Добавлен
Сайтрипы 2014 / SiteRip's 2014 ·· [DPOverload.com / 21Sextury.com] Simone Peach (DP with Simone Peach / 34199) DP with Simone Peach [2014 г., Anal, DP, Big Tits, Blowjob, Facial, Hardcore] Galfimbul ghost 412994342394 MB 0 0 1399752158

23:02

10-Май-14

Сайтрипы 2014 / SiteRip's 2014 ·· [Legalporno.com] Simone Peach (Simone Style), Franceska Jaimes (Kreme Simon Peach and Franceska Jaimes scene / SZ358) [2014 г., Anal, DP, Ass Gape, Anal cream, 1080p] Galfimbul ghost 20405090471.9 GB 0 0 1397503194

22:19

14-Апр-14

Сайтрипы 2013 / SiteRip's 2013 ·· [Legalporno.com] Simone Peach, Linda Ray - Big Butt Sluts Simone Peach & Linda Rey Video SZ255 [2013 г., Gonzo, Threesome, Anal, 480p] Galfimbul ghost 855898336816 MB 0 0 1509343389

09:03

30-Окт-17

Сайтрипы 2013 / SiteRip's 2013 ·· [LegalPorno.com] Simone Peach, Simony Diamond (Simone Peach & Simony Diamond white shit on the cock Video SZ250) [2013 г., Gonzo, Anal, A2M, Facial] Galfimbul ghost 327553725312 MB 0 0 1464458780

21:06

28-Май-16

Сайтрипы 2013 / SiteRip's 2013 ·· [LegalPorno.com] Simone Peach, Linda Ray (Big Butt Sluts Simone Peach & Linda Rey Video SZ255) [2013 г., Gonzo, Anal, A2M, Facial] Galfimbul ghost 375990217359 MB 0 0 1464458754

21:05

28-Май-16

Сайтрипы 2013 / SiteRip's 2013 ·· [LegalPorno.com] Simone Peach, Michelle (Simone Peach & Bambi Bella Kreme Porno SZ185) [2013 г., Gonzo, Anal, A2M, Facial] Galfimbul ghost 450485264430 MB 0 0 1464458738

21:05

28-Май-16

Сайтрипы 2014 / SiteRip's 2014 ·· [LegalPorno.com] Simone Peach, Andy Brown (Andy Brown & Simone Peach Kreme On My Black Dick Porno SZ270) [2014 г., Gonzo, Anal, A2M] Galfimbul ghost 392201865374 MB 0 0 1462604897

10:08

7-Май-16

Сайтрипы 2014 / SiteRip's 2014 ·· [LegalPorno.com] Simone Peach (Simone Peach 3 on 1 Airtight Porn SZ364) [2014 г., Gonzo, Anal, DP, A2M, Facial] Galfimbul ghost 267578866255 MB 0 0 1462604879

10:07

7-Май-16

Сайтрипы 2013 / SiteRip's 2013 ·· [LegalPorno.com] Simone Peach, Michelle (Simone Peach & Bambi Bella Super Buns Video SZ158) [2013 г., Gonzo, Anal, A2M, Creampie, Peeing] Galfimbul ghost 530282914506 MB 0 0 1462168258

08:50

2-Май-16

Сайтрипы 2013 / SiteRip's 2013 ·· [LegalPorno.com] Simone Peach, Blanche Bradburry (Simone Peach & Blanche Bradburry Kreme Porno SZ179) [2013 г., Gonzo, Anal, A2M, Creampie] Galfimbul ghost 490145080467 MB 2 0 1462168244

08:50

2-Май-16

Сайтрипы 2013 / SiteRip's 2013 ·· [LegalPorno.com] Simone Peach (Big Butt Slut Simone Peach SZ153) [2013 г., Gonzo, IR, Threesome, Anal, 720p] Galfimbul ghost 992537102947 MB 0 0 1438557950

02:25

3-Авг-15

Сайтрипы 2013 / SiteRip's 2013 ·· [LegalPorno.com] Simone Peach, Blanche Bradburry (Simone Peach & Blanche Bradburry Kreme Porno SZ179) [2013 г., Gonzo, Threesome, Anal, 720p] Galfimbul ghost 20356712041.9 GB 2 0 1438159037

11:37

29-Июл-15

Сайтрипы 2015 / SiteRip's 2015 ·· [TeenBitchClub.com / 21Sextury.com] Simone Peach (Peachy Delight) Simone Peach - Peachy Delight [2015 г., Brunette, Oral, Foot, Hardcore] Galfimbul ghost 478084362456 MB 0 0 1436816082

22:34

13-Июл-15

Сайтрипы 2013 / SiteRip's 2013 ·· [LegalPorno.com] Simone Peach, Linda Ray (Big Butt Sluts Simone Peach & Linda Rey Video SZ255) [2013 г., Gonzo, Threesome, Anal, 720p] Galfimbul ghost 15638855591.46 GB 0 0 1436593174

08:39

11-Июл-15

Сайтрипы 2014 / SiteRip's 2014 ·· [LegalPorno.com] Andy Brown, Simone Peach (Andy Brown & Simone Peach Kreme On My Black Dick Porno SZ270) [2014 г., Gonzo, Threesome, Anal, 720p] Galfimbul ghost 16321464721.52 GB 0 0 1436353470

14:04

8-Июл-15

Сайтрипы 2013 / SiteRip's 2013 ·· [LegalPorno.com / Sineplex.com] Simone Peach, Simony Diamond (Simone Peach & Simony Diamond white shit on the cock Video SZ250 / 04.12.2013) [Anal, Gape, Threesome, Gonzo, Hardcore, 720p, HDRip] Galfimbul ghost 13691935871.28 GB 0 0 1433639778

04:16

7-Июн-15

Сайтрипы 2014 / SiteRip's 2014 ·· [LegalPorno.com] Simone Peach (Simone Peach 3 on 1 Airtight Porn SZ364) [2014 г., Gonzo, IR, Gangbang, Anal, DP, 720p] Galfimbul ghost 11110334671.03 GB 0 0 1431901725

01:28

18-Май-15

Сайтрипы 2013 / SiteRip's 2013 ·· [LegalPorno.com] Simone Peach, Bambi Bella (Simone Peach & Bambi Bella Super Buns Video SZ158) [2013 г., Gonzo, IR, Threesome, Anal, 720p] Galfimbul ghost 22106037342.06 GB 0 0 1431561096

02:51

14-Май-15

Паки порнороликов по актрисам / Actresses Clips Packs ·· Simone Peach (Simone Style, Mandy Saxo, Simone Fox) (45 роликов) DP. PACK. [All Sex, Anal, Big Ass Cumshot, Double Penetration, Gangbang, Hardcore, Interracial., DVDRip] Galfimbul ghost 1188737814011.07 GB 1 3 1317537848

09:44

2-Окт-11

Сайтрипы 1991-2010 / SiteRip's 1991-2010 ·· [BigWetButts.com / Brazzers.com] Simone Peach: (Plump as a Peach / Симон Пич: (Пухленькая, как персик) [August 27th, 2010, All Sex, Anal Sex, Oral Sex, Oil, Natural Tits, Ass fingering, Toys, Deepthroat, High Heels, Аsslicking, Hardcore, Brunette] Galfimbul ghost 305955592292 MB 0 0 1383914006

15:33

8-Ноя-13

Еще никто не оставлял запись к записи скачать торрент Simone Peach . Будь первым!

!Обратная связь