Скачать порно через торрент Nikki Rider DP Pack UnionPeer.org бесплатно онлайн HD качество

Скачать новое порно 2015, 2014 новинки через торрент UnionPeer.org

Порно торрент бесплатно ЮнионПир.орг

Статистика раздачи
Размер:  4.56 GB   |    Зарегистрирован:  9 лет 6 месяцев   |    .torrent скачан:  1986 раз   |   
Раздают:  1   Качают:  1  
   
 
Автор Сообщение

Galfimbul ghost

avatar Galfimbul ghost


Nikki Rider


Страна: Hungary

Качество: DVDRip; SiteRip

Жанр: All Sex, Anal, Big Tits, Cumshot, Double Penetration, Gonzo, Hardcore, Lingerie, Swallow

Скриншоты приложены к торренту
Complete name 2 on 1 20.avi
Format : AVI
Format/Info : Audio Video Interleave
File size : 185 MiB
Duration : 28mn 34s
Overall bit rate : 907 Kbps
Writing application : Nandub v1.0rc2
Writing library : Nandub build 1853/release

Video
Format : MPEG-4 Visual
Format settings, BVOP : Yes
Format settings, QPel : No
Format settings, GMC : No warppoints
Format settings, Matrix : Default
Codec ID : DX50
Codec ID/Hint : DivX 5
Duration : 28mn 34s
Bit rate : 795 Kbps
Width : 512 pixels
Height : 368 pixels
Display aspect ratio : 1.391
Frame rate : 29.970 fps
Resolution : 24 bits
Scan type : Progressive
Bits/(Pixel*Frame) : 0.141
Stream size : 162 MiB (88%)
Writing library : DivX 5.2.1 (WaffleDay) (UTC 2004-09-08)

Audio
Format : MPEG Audio
Format version : Version 1
Format profile : Layer 3
Codec ID : 55
Codec ID/Hint : MP3
Duration : 28mn 34s
Bit rate mode : Variable
Bit rate : 101 Kbps
Channel(s) : 2 channels
Sampling rate : 32.0 KHz
Resolution : 16 bits
Stream size : 20.7 MiB (11%)
Alignment : Aligned on interleaves
Interleave, duration : 36 ms (1.08 video frame)
Interleave, preload duration : 456 ms

General
Complete name All Internal.wmv
Format : Windows Media
File size : 371 MiB
Duration : 33mn 35s
Overall bit rate mode : Constant
Overall bit rate : 1 544 Kbps
Maximum Overall bit rate : 1 551 Kbps
Encoded date : UTC 2006-04-12 14:31:18.859
SfOriginalFPS : 250000

Video
Format : VC-1
Format profile : MP@ML
Codec ID : WMV3
Codec ID/Info : Windows Media Video 9
Codec ID/Hint : WMV3
Duration : 33mn 35s
Bit rate mode : Constant
Bit rate : 1 440 Kbps
Width : 512 pixels
Height : 384 pixels
Display aspect ratio : 4/3
Frame rate : 25.000 fps
Resolution : 24 bits
Bits/(Pixel*Frame) : 0.293

Audio
Format : WMA2
Format profile : L2
Codec ID : 161
Codec ID/Info : Windows Media Audio 2
Description of the codec : Windows Media Audio 9.1 96 kbps, 48 kHz, stereo (A/V) 1-pass CBR
Duration : 33mn 35s
Bit rate mode : Constant
Bit rate : 96.0 Kbps
Channel(s) : 2 channels
Sampling rate : 48.0 KHz

General
Complete name Any Hole Will Do.avi
Format : AVI
Format/Info : Audio Video Interleave
File size : 261 MiB
Duration : 22mn 12s
Overall bit rate : 1 643 Kbps

Video
Format : MPEG-4 Visual
Format profile : Simple@L3
Format settings, BVOP : Yes
Format settings, QPel : No
Format settings, GMC : No warppoints
Format settings, Matrix : Default
Codec ID : XVID
Codec ID/Hint : XviD
Duration : 22mn 11s
Bit rate : 1 502 Kbps
Width : 640 pixels
Height : 480 pixels
Display aspect ratio : 4/3
Frame rate : 29.970 fps
Resolution : 24 bits
Scan type : Progressive
Bits/(Pixel*Frame) : 0.163
Stream size : 238 MiB (91%)

Audio
Format : MPEG Audio
Format version : Version 1
Format profile : Layer 3
Codec ID : 55
Codec ID/Hint : MP3
Duration : 22mn 12s
Bit rate mode : Constant
Bit rate : 128 Kbps
Channel(s) : 2 channels
Sampling rate : 44.1 KHz
Resolution : 16 bits
Stream size : 20.3 MiB (8%)
Alignment : Aligned on interleaves
Interleave, duration : 26 ms (0.78 video frame)
Writing library : LAME3.97

General
Complete name Ass Crackin 6.avi
Format : AVI
Format/Info : Audio Video Interleave
File size : 254 MiB
Duration : 32mn 20s
Overall bit rate : 1 097 Kbps
Writing application : VirtualDubMod 1.5.10.1 (build 2366/release)
Writing library : VirtualDubMod build 2366/release

Video
Format : MPEG-4 Visual
Format profile : Streaming Video@L1
Format settings, BVOP : Yes
Format settings, QPel : No
Format settings, GMC : No warppoints
Format settings, Matrix : Default
Muxing mode : Packed bitstream
Codec ID : XVID
Codec ID/Hint : XviD
Duration : 32mn 20s
Bit rate : 970 Kbps
Width : 512 pixels
Height : 384 pixels
Display aspect ratio : 4/3
Frame rate : 29.970 fps
Resolution : 24 bits
Colorimetry : 4:2:0
Scan type : Progressive
Bits/(Pixel*Frame) : 0.165
Stream size : 224 MiB (88%)
Writing library : XviD 1.0.3 (UTC 2004-12-20)

Audio
Format : MPEG Audio
Format version : Version 1
Format profile : Layer 3
Codec ID : 55
Codec ID/Hint : MP3
Duration : 32mn 20s
Bit rate mode : Variable
Bit rate : 111 Kbps
Channel(s) : 2 channels
Sampling rate : 48.0 KHz
Resolution : 16 bits
Stream size : 26.0 MiB (10%)
Alignment : Aligned on interleaves
Interleave, duration : 24 ms (0.72 video frame)
Interleave, preload duration : 521 ms

General
Complete name Assman 29.avi
Format : AVI
Format/Info : Audio Video Interleave
File size : 272 MiB
Duration : 28mn 34s
Overall bit rate : 1 331 Kbps
Writing application : Nandub v1.0rc2
Writing library : Nandub build 1853/release

Video
Format : MPEG-4 Visual
Format profile : Streaming Video@L1
Format settings, BVOP : Yes
Format settings, QPel : No
Format settings, GMC : No warppoints
Format settings, Matrix : Custom
Muxing mode : Packed bitstream
Codec ID : XVID
Codec ID/Hint : XviD
Duration : 28mn 34s
Bit rate : 1 188 Kbps
Width : 512 pixels
Height : 384 pixels
Display aspect ratio : 4/3
Frame rate : 29.970 fps
Resolution : 24 bits
Colorimetry : 4:2:0
Scan type : Progressive
Bits/(Pixel*Frame) : 0.202
Stream size : 243 MiB (89%)
Writing library : XviD 1.2.0SMP (UTC 2006-01-08)

Audio
Format : MPEG Audio
Format version : Version 1
Format profile : Layer 3
Codec ID : 55
Codec ID/Hint : MP3
Duration : 28mn 34s
Bit rate mode : Variable
Bit rate : 129 Kbps
Channel(s) : 2 channels
Sampling rate : 48.0 KHz
Resolution : 16 bits
Stream size : 26.3 MiB (10%)
Alignment : Aligned on interleaves
Interleave, duration : 24 ms (0.72 video frame)
Interleave, preload duration : 258 ms

General
Complete name Asstraffic.wmv
Format : Windows Media
File size : 496 MiB
Duration : 44mn 43s
Overall bit rate mode : Constant
Overall bit rate : 1 552 Kbps
Maximum Overall bit rate : 1 546 Kbps
Encoded date : UTC 2005-10-12 14:01:32.984
SfOriginalFPS : 250000

Video
Format : WMV2
Codec ID : WMV2
Codec ID/Info : Windows Media Video 8
Description of the codec : Windows Media Video V8
Duration : 44mn 43s
Bit rate mode : Constant
Bit rate : 1 440 Kbps
Width : 512 pixels
Height : 384 pixels
Display aspect ratio : 4/3
Frame rate : 25.000 fps
Resolution : 24 bits
Bits/(Pixel*Frame) : 0.293

Audio
Format : WMA2
Codec ID : 161
Codec ID/Info : Windows Media Audio 2
Description of the codec : Windows Media Audio 9 96 kbps, 48 kHz, stereo (A/V) 1-pass CBR
Duration : 44mn 43s
Bit rate mode : Constant
Bit rate : 96.0 Kbps
Channel(s) : 2 channels
Sampling rate : 48.0 KHz

General
Complete name Beautiful Girls 20.avi
Format : AVI
Format/Info : Audio Video Interleave
File size : 331 MiB
Duration : 35mn 2s
Overall bit rate : 1 321 Kbps
Writing library : Boilsoft Joiner build 2411/release

Video
Format : MPEG-4 Visual
Format profile : Simple@L3
Format settings, BVOP : No
Format settings, QPel : No
Format settings, GMC : No warppoints
Format settings, Matrix : Default
Codec ID : XVID
Codec ID/Hint : XviD
Duration : 35mn 2s
Bit rate : 1 197 Kbps
Width : 512 pixels
Height : 384 pixels
Display aspect ratio : 4/3
Frame rate : 29.970 fps
Resolution : 24 bits
Colorimetry : 4:2:0
Scan type : Progressive
Bits/(Pixel*Frame) : 0.203
Stream size : 300 MiB (91%)
Writing library : XviD 0.0.09 (UTC 2003-03-25)

Audio
Format : MPEG Audio
Format version : Version 1
Format profile : Layer 3
Codec ID : 55
Codec ID/Hint : MP3
Duration : 35mn 2s
Bit rate mode : Constant
Bit rate : 112 Kbps
Channel(s) : 2 channels
Sampling rate : 48.0 KHz
Resolution : 16 bits
Video delay : 5ms
Stream size : 28.1 MiB (8%)
Alignment : Split accross interleaves
Interleave, duration : 33 ms (1.00 video frame)
Interleave, preload duration : 500 ms

General
Complete name Double Trouble.avi
Format : AVI
Format/Info : Audio Video Interleave
File size : 84.0 MiB
Duration : 14mn 13s
Overall bit rate : 826 Kbps
Writing library : VirtualDub build 15584/release

Video
Format : MPEG-4 Visual
Format settings, BVOP : Yes
Format settings, QPel : No
Format settings, GMC : No warppoints
Format settings, Matrix : Default
Muxing mode : Packed bitstream
Codec ID : DX50
Codec ID/Hint : DivX 5
Duration : 14mn 13s
Bit rate : 782 Kbps
Width : 480 pixels
Height : 270 pixels
Display aspect ratio : 16/9
Frame rate : 29.970 fps
Resolution : 24 bits
Colorimetry : 4:2:0
Scan type : Progressive
Bits/(Pixel*Frame) : 0.201
Stream size : 79.6 MiB (95%)
Writing library : DivX 5.1.1 (Maupiti) (UTC 2003-11-19)

Audio
Format : MPEG Audio
Format version : Version 2
Format profile : Layer 3
Codec ID : 55
Codec ID/Hint : MP3
Duration : 14mn 13s
Bit rate mode : Constant
Bit rate : 32.0 Kbps
Channel(s) : 1 channel
Sampling rate : 22.05 KHz
Resolution : 16 bits
Stream size : 3.24 MiB (4%)
Alignment : Split accross interleaves
Interleave, duration : 33 ms (1.00 video frame)
Interleave, preload duration : 497 ms

General
Complete name DPFanatics.mpg
Format : AVI
Format/Info : Audio Video Interleave
File size : 353 MiB
Duration : 36mn 38s
Overall bit rate : 1 347 Kbps
Writing library : VirtualDub build 16297/release

Video
Format : S-Mpeg 4 v3
Codec ID : MP43
Codec ID/Info : Microsoft MPEG-4 V3
Duration : 36mn 38s
Bit rate : 1 306 Kbps
Width : 512 pixels
Height : 384 pixels
Display aspect ratio : 4/3
Frame rate : 25.000 fps
Resolution : 24 bits
Bits/(Pixel*Frame) : 0.266
Stream size : 342 MiB (97%)

Audio
Format : MPEG Audio
Format version : Version 2
Format profile : Layer 3
Codec ID : 55
Codec ID/Hint : MP3
Duration : 36mn 38s
Bit rate mode : Constant
Bit rate : 32.0 Kbps
Channel(s) : 1 channel
Sampling rate : 24.0 KHz
Resolution : 16 bits
Stream size : 8.39 MiB (2%)
Alignment : Split accross interleaves
Interleave, duration : 40 ms (1.00 video frame)
Interleave, preload duration : 500 ms

General
Complete name Filled To The Rim 2.avi
Format : AVI
Format/Info : Audio Video Interleave
File size : 268 MiB
Duration : 30mn 39s
Overall bit rate : 1 224 Kbps
Writing library : The File had been created by Solveig Multimedia AVI Writer

Video
Format : MPEG-4 Visual
Format profile : Streaming Video@L1
Format settings, BVOP : Yes
Format settings, QPel : No
Format settings, GMC : No warppoints
Format settings, Matrix : Custom
Codec ID : XVID
Codec ID/Hint : XviD
Duration : 30mn 39s
Bit rate : 1 105 Kbps
Width : 512 pixels
Height : 384 pixels
Display aspect ratio : 4/3
Frame rate : 29.970 fps
Resolution : 24 bits
Colorimetry : 4:2:0
Scan type : Progressive
Bits/(Pixel*Frame) : 0.188
Stream size : 242 MiB (90%)
Writing library : XviD 1.1.0 (UTC 2005-11-22)

Audio
Format : MPEG Audio
Format version : Version 1
Format profile : Layer 3
Codec ID : 55
Codec ID/Hint : MP3
Duration : 30mn 39s
Bit rate mode : Variable
Bit rate : 105 Kbps
Channel(s) : 2 channels
Sampling rate : 48.0 KHz
Resolution : 16 bits
Stream size : 23.1 MiB (9%)
Alignment : Aligned on interleaves
Interleave, duration : 24 ms (0.72 video frame)
Interleave, preload duration : 21 ms

General
Complete name First Class Euro Sluts 5.avi
Format : AVI
Format/Info : Audio Video Interleave
File size : 476 MiB
Duration : 31mn 6s
Overall bit rate : 2 140 Kbps
Writing library : VirtualDub-MPEG2 build 24600/release

Video
Format : MPEG-4 Visual
Format settings, BVOP : No
Format settings, QPel : No
Format settings, GMC : No warppoints
Format settings, Matrix : Default
Codec ID : XVID
Codec ID/Hint : XviD
Duration : 31mn 6s
Bit rate : 2 000 Kbps
Width : 576 pixels
Height : 432 pixels
Display aspect ratio : 4/3
Frame rate : 29.970 fps
Resolution : 24 bits
Colorimetry : 4:2:0
Scan type : Progressive
Bits/(Pixel*Frame) : 0.268
Stream size : 445 MiB (93%)

Audio
Format : MPEG Audio
Format version : Version 1
Format profile : Layer 3
Codec ID : 55
Codec ID/Hint : MP3
Duration : 31mn 6s
Bit rate mode : Constant
Bit rate : 128 Kbps
Channel(s) : 2 channels
Sampling rate : 48.0 KHz
Resolution : 16 bits
Stream size : 28.5 MiB (6%)
Alignment : Split accross interleaves
Interleave, duration : 33 ms (1.00 video frame)
Interleave, preload duration : 500 ms

General
Complete name Gonzo Style.avi
Format : AVI
Format/Info : Audio Video Interleave
File size : 423 MiB
Duration : 36mn 15s
Overall bit rate : 1 631 Kbps
Writing library : Boilsoft Joiner build 2411/release

Video
Format : MPEG-4 Visual
Format profile : Streaming Video@L1
Format settings, BVOP : Yes
Format settings, QPel : No
Format settings, GMC : No warppoints
Format settings, Matrix : Default
Muxing mode : Packed bitstream
Codec ID : XVID
Codec ID/Hint : XviD
Duration : 36mn 15s
Bit rate : 1 509 Kbps
Width : 576 pixels
Height : 320 pixels
Display aspect ratio : 16/9
Frame rate : 25.000 fps
Resolution : 24 bits
Colorimetry : 4:2:0
Scan type : Progressive
Bits/(Pixel*Frame) : 0.327
Stream size : 391 MiB (93%)
Writing library : XviD 1.0.3 (UTC 2004-12-20)

Audio
Format : MPEG Audio
Format version : Version 1
Format profile : Layer 3
Codec ID : 55
Codec ID/Hint : MP3
Duration : 36mn 15s
Bit rate mode : Constant
Bit rate : 112 Kbps
Channel(s) : 2 channels
Sampling rate : 48.0 KHz
Resolution : 16 bits
Video delay : 16ms
Stream size : 29.0 MiB (7%)
Alignment : Split accross interleaves
Interleave, duration : 40 ms (1.00 video frame)
Interleave, preload duration : 500 ms

General
Complete name Incredible Gulp.mpeg
Format : MPEG-PS
File size : 217 MiB
Duration : 20mn 40s
Overall bit rate : 1 469 Kbps

Video
Format : MPEG Video
Format version : Version 1
Format settings, Matrix : Standard
Duration : 20mn 40s
Bit rate mode : Constant
Bit rate : 1 271 Kbps
Nominal bit rate : 1 350 Kbps
Width : 320 pixels
Height : 240 pixels
Display aspect ratio : 1.422
Frame rate : 29.970 fps
Scan type : Progressive
Bits/(Pixel*Frame) : 0.587

Audio
Format : MPEG Audio
Format version : Version 1
Format profile : Layer 2
Duration : 20mn 40s
Bit rate mode : Constant
Bit rate : 96.0 Kbps
Channel(s) : 2 channels
Sampling rate : 44.1 KHz
Resolution : 16 bits

General
Complete name Passion of the Ass 5.avi
Format : AVI
Format/Info : Audio Video Interleave
File size : 465 MiB
Duration : 27mn 51s
Overall bit rate : 2 334 Kbps

Video
Format : MPEG-4 Visual
Format profile : Simple@L3
Format settings, BVOP : No
Format settings, QPel : No
Format settings, GMC : No warppoints
Format settings, Matrix : Default
Codec ID : XVID
Codec ID/Hint : XviD
Duration : 27mn 51s
Bit rate : 2 198 Kbps
Width : 640 pixels
Height : 480 pixels
Display aspect ratio : 4/3
Frame rate : 29.970 fps
Resolution : 24 bits
Colorimetry : 4:2:0
Scan type : Progressive
Bits/(Pixel*Frame) : 0.239
Stream size : 438 MiB (94%)
Writing library : XviD 0.0.09 (UTC 2003-03-25)

Audio
Format : MPEG Audio
Format version : Version 1
Format profile : Layer 3
Codec ID : 55
Codec ID/Hint : MP3
Duration : 27mn 51s
Bit rate mode : Constant
Bit rate : 128 Kbps
Channel(s) : 2 channels
Sampling rate : 48.0 KHz
Resolution : 16 bits
Stream size : 25.5 MiB (5%)
Alignment : Split accross interleaves
Interleave, duration : 500 ms (14.98 video frames)
Interleave, preload duration : 750 ms


Внимание! AdBlock блокирует показ скриншотов, все вопросы к разработчикам )))
Трекер:  [ 02-Окт-2011 12:42 ]

  

Скачать .torrent

Размер .torrent файла 47 KB


Размер: 4.56 GB
Хэш (hash) релиза: 7107e0a8e19f7592109b1eb1246f17d010d654ac

rezident99

хорошая анальщича!

Хотите добавить комментарий к записи скачать торрент Nikki Rider DP Pack

!Обратная связь