Скачать порно через торрент Stacy Silver UnionPeer.org бесплатно онлайн HD качество

Скачать новое порно 2015, 2014 новинки через торрент UnionPeer.org

Порно торрент бесплатно ЮнионПир.орг

Статистика раздачи
Размер:  2.22 GB   |    Зарегистрирован:  9 лет 6 месяцев   |    .torrent скачан:  1119 раз   |   
Раздают:  1  
 

Скачать Stacy Silver (7 роликов) DP Pack (2004-2008 гг., all sex, BIG TITS, blonde, cumshot, double penetration, gangbang, hardcore, interracial, DVDRIP) через torrent

 
 
Автор Сообщение

Galfimbul ghost

avatar Galfimbul ghost


STACY SILVER DP PACK
screens@rapidshare
Complete name Stacy Silver Art Of Ass 2.avi
Format : AVI
Format/Info : Audio Video Interleave
File size : 294 MiB
Duration : 22mn 19s
Overall bit rate : 1 839 Kbps
Writing application : VirtualDubMod 1.5.10.1 (build 2366/release)
Writing library : VirtualDubMod build 2366/release

Video
Format : MPEG-4 Visual
Format settings, BVOP : No
Format settings, QPel : No
Format settings, GMC : No warppoints
Format settings, Matrix : Default
Codec ID : XVID
Codec ID/Hint : XviD
Duration : 22mn 19s
Bit rate : 1 699 Kbps
Width : 576 pixels
Height : 432 pixels
Display aspect ratio : 4/3
Frame rate : 29.970 fps
Resolution : 24 bits
Colorimetry : 4:2:0
Scan type : Progressive
Bits/(Pixel*Frame) : 0.228
Stream size : 271 MiB (92%)

Audio
Format : MPEG Audio
Format version : Version 1
Format profile : Layer 3
Codec ID : 55
Codec ID/Hint : MP3
Duration : 22mn 19s
Bit rate mode : Constant
Bit rate : 128 Kbps
Channel(s) : 2 channels
Sampling rate : 48.0 KHz
Resolution : 16 bits
Video delay : 3ms
Stream size : 20.4 MiB (7%)
Alignment : Split accross interleaves
Interleave, duration : 33 ms (1.00 video frame)
Interleave, preload duration : 500 ms

General
Complete name Stacy Silver AssTraffic.wmv
Format : Windows Media
File size : 393 MiB
Duration : 35mn 21s
Overall bit rate mode : Constant
Overall bit rate : 1 554 Kbps
Maximum Overall bit rate : 1 546 Kbps
Encoded date : UTC 2005-06-03 13:46:49.625
SfOriginalFPS : 250000

Video
Format : WMV2
Codec ID : WMV2
Codec ID/Info : Windows Media Video 8
Description of the codec : Windows Media Video V8
Duration : 35mn 21s
Bit rate mode : Constant
Bit rate : 1 440 Kbps
Width : 512 pixels
Height : 384 pixels
Display aspect ratio : 4/3
Frame rate : 25.000 fps
Resolution : 24 bits
Bits/(Pixel*Frame) : 0.293

Audio
Format : WMA2
Codec ID : 161
Codec ID/Info : Windows Media Audio 2
Description of the codec : Windows Media Audio 9.1 - 96 kbps, 48 kHz, stereo (A/V) 1-pass CBR
Duration : 35mn 21s
Bit rate mode : Constant
Bit rate : 96.0 Kbps
Channel(s) : 2 channels
Sampling rate : 48.0 KHz

General
Complete name Stacy Silver Clusterfuck 4.avi
Format : AVI
Format/Info : Audio Video Interleave
File size : 492 MiB
Duration : 43mn 19s
Overall bit rate : 1 588 Kbps
Writing library : Boilsoft Joiner build 2411/release

Video
Format : MPEG-4 Visual
Format profile : Streaming Video@L1
Format settings, BVOP : Yes
Format settings, QPel : No
Format settings, GMC : No warppoints
Format settings, Matrix : Default
Muxing mode : Packed bitstream
Codec ID : XVID
Codec ID/Hint : XviD
Duration : 43mn 19s
Bit rate : 1 480 Kbps
Width : 512 pixels
Height : 384 pixels
Display aspect ratio : 4/3
Frame rate : 29.979 fps
Original frame rate : 29.970 fps
Resolution : 24 bits
Colorimetry : 4:2:0
Scan type : Progressive
Bits/(Pixel*Frame) : 0.251
Stream size : 459 MiB (93%)
Writing library : XviD 1.0.3 (UTC 2004-12-20)

Audio
Format : MPEG Audio
Format version : Version 1
Format profile : Layer 3
Codec ID : 55
Codec ID/Hint : MP3
Duration : 43mn 18s
Bit rate mode : Constant
Bit rate : 96.0 Kbps
Channel(s) : 2 channels
Sampling rate : 48.0 KHz
Resolution : 16 bits
Stream size : 29.7 MiB (6%)
Alignment : Split accross interleaves
Interleave, duration : 33 ms (1.00 video frame)
Interleave, preload duration : 500 ms

General
Complete name Stacy Silver DP & Creampie.avi
Format : AVI
Format/Info : Audio Video Interleave
File size : 196 MiB
Duration : 25mn 56s
Overall bit rate : 1 057 Kbps
Writing library : VirtualDub build 0/release

Video
Format : MPEG-4 Visual
Format profile : Streaming Video@L1
Format settings, BVOP : Yes
Format settings, QPel : No
Format settings, GMC : No warppoints
Format settings, Matrix : Default
Codec ID : XVID
Codec ID/Hint : XviD
Duration : 25mn 56s
Bit rate : 931 Kbps
Width : 544 pixels
Height : 416 pixels
Display aspect ratio : 4/3
Frame rate : 25.000 fps
Resolution : 24 bits
Colorimetry : 4:2:0
Scan type : Progressive
Bits/(Pixel*Frame) : 0.165
Stream size : 173 MiB (88%)
Writing library : XviD 1.0.3 (UTC 2004-12-20)

Audio
Format : MPEG Audio
Format version : Version 1
Format profile : Layer 3
Codec ID : 55
Codec ID/Hint : MP3
Duration : 25mn 56s
Bit rate mode : Variable
Bit rate : 114 Kbps
Channel(s) : 2 channels
Sampling rate : 44.1 KHz
Resolution : 16 bits
Stream size : 21.0 MiB (11%)
Alignment : Aligned on interleaves
Interleave, duration : 26 ms (0.65 video frame)
Interleave, preload duration : 498 ms

General
Complete name Stacy Silver DPFanatics.mpg
Format : AVI
Format/Info : Audio Video Interleave
File size : 351 MiB
Duration : 35mn 49s
Overall bit rate : 1 369 Kbps
Writing library : VirtualDub build 23648/release

Video
Format : S-Mpeg 4 v3
Codec ID : MP43
Codec ID/Info : Microsoft MPEG-4 V3
Duration : 35mn 49s
Bit rate : 1 327 Kbps
Width : 512 pixels
Height : 384 pixels
Display aspect ratio : 4/3
Frame rate : 25.000 fps
Resolution : 24 bits
Bits/(Pixel*Frame) : 0.270
Stream size : 340 MiB (97%)

Audio
Format : MPEG Audio
Format version : Version 2
Format profile : Layer 3
Codec ID : 55
Codec ID/Hint : MP3
Duration : 35mn 49s
Bit rate mode : Constant
Bit rate : 32.0 Kbps
Channel(s) : 1 channel
Sampling rate : 24.0 KHz
Resolution : 16 bits
Stream size : 8.20 MiB (2%)
Alignment : Split accross interleaves
Interleave, duration : 40 ms (1.00 video frame)
Interleave, preload duration : 500 ms

General
Complete name Stacy Silver Fuck Doll Sandwich 4.avi
Format : AVI
Format/Info : Audio Video Interleave
File size : 290 MiB
Duration : 25mn 14s
Overall bit rate : 1 606 Kbps
Writing application : Nandub v1.0rc2
Writing library : Nandub build 1853/release

Video
Format : MPEG-4 Visual
Format profile : Streaming Video@L1
Format settings, BVOP : Yes
Format settings, QPel : No
Format settings, GMC : No warppoints
Format settings, Matrix : Default
Muxing mode : Packed bitstream
Codec ID : XVID
Codec ID/Hint : XviD
Duration : 25mn 14s
Bit rate : 1 482 Kbps
Width : 512 pixels
Height : 384 pixels
Display aspect ratio : 4/3
Frame rate : 29.970 fps
Resolution : 24 bits
Colorimetry : 4:2:0
Scan type : Progressive
Bits/(Pixel*Frame) : 0.252
Stream size : 268 MiB (92%)
Writing library : XviD 1.0.3 (UTC 2004-12-20)

Audio
Format : MPEG Audio
Format version : Version 1
Format profile : Layer 3
Codec ID : 55
Codec ID/Hint : MP3
Duration : 25mn 14s
Bit rate mode : Variable
Bit rate : 111 Kbps
Channel(s) : 2 channels
Sampling rate : 48.0 KHz
Resolution : 16 bits
Stream size : 19.9 MiB (7%)
Alignment : Aligned on interleaves
Interleave, duration : 24 ms (0.72 video frame)
Interleave, preload duration : 479 ms

General
Complete name Stacy Silver Pleasures of The Flesh 12.wmv
Format : Windows Media
File size : 253 MiB
Duration : 24mn 30s
Overall bit rate mode : Constant
Overall bit rate : 1 440 Kbps
Maximum Overall bit rate : 1 447 Kbps
Encoded date : UTC 2008-05-29 23:18:13.729

Video
Format : VC-1
Format profile : MP@ML
Codec ID : WMV3
Codec ID/Info : Windows Media Video 9
Codec ID/Hint : WMV3
Description of the codec : Windows Media Video 9 - Professional
Duration : 24mn 30s
Bit rate mode : Constant
Bit rate : 1 400 Kbps
Width : 640 pixels
Height : 480 pixels
Display aspect ratio : 4/3
Frame rate : 30.000 fps
Resolution : 24 bits
Bits/(Pixel*Frame) : 0.152
Language : en-us

Audio
Format : WMA2
Format profile : L2
Codec ID : 161
Codec ID/Info : Windows Media Audio 2
Description of the codec : Windows Media Audio 9.1 - 32 kbps, 44 kHz, mono (A/V) 1-pass CBR
Duration : 24mn 30s
Bit rate mode : Constant
Bit rate : 32.0 Kbps
Channel(s) : 1 channel
Sampling rate : 44.1 KHz
Language : en-us
Качество: DVDRIP
Формат: AVI, MPG, WMV


Внимание! AdBlock блокирует показ скриншотов, все вопросы к разработчикам )))
Трекер:  [ 02-Окт-2011 23:47 ]

  

Скачать .torrent

Размер .torrent файла 23 KB


Размер: 2.22 GB
Хэш (hash) релиза: 07ce4af636dda014ff9554db7672cf6f8e226b7e

Торренты, похожие на Stacy Silver скачать торрент

Форум Название Автор Размер S L Добавлен
Фильмы без сюжета 1991-2010 / All Sex & Amateur 1991-2010 ·· Планета Сильвер 2 / Planet Silver 2 [FusXion, Stacy Silver, 2004 г.; All Sex, Anal, Oral; DVDRip] (Stacy Silver, Angel Dark, Laura Lion в фильме, который отрежиссировала сама Стэйси!) Galfimbul ghost 14659706881.37 GB 0 0 1364547859

12:04

29-Мар-13

Сайтрипы 2011-2012 / SiteRip's 2011-2012 ·%· [SilviaSaint.com] Silvia Saint & Stacy Silver - Playing With Stacy Silver And Her Favorite Dildo [14-03-2012, Pornstar, Lesbian, Big Tits, Gonzo, Toys, Brunette, 1080p] Galfimbul ghost 826560420788 MB 1 1 1559258587

02:23

31-Май-19

Сайтрипы 2014 / SiteRip's 2014 ·· [BustyFever.com / 21Sextury.com] Stacy Silver (Busty Stacy Silver) [21.01.2015 г., Blonde, Big Tits, Tatooed, Oral, Hardcore, Anal, Cumshot] Galfimbul ghost 428559656409 MB 0 0 1497125684

23:14

10-Июн-17

Гонзо, Лесбо и Фильмы без сюжета (DVD) / Gonzo, All Girl & Solo, All Sex (DVD) ·· Private Life (21) of Stacy Silver / Частная жизнь Stacy Silver (Gazzman, Gianfranco Romagnoli) [2004 г., Compilation, Anal, DP, Interracial(BDWC), Lesbian, 2x DVD5] Jennifer Dark, Krystal De Boor, Laura Lion, Lucy Lee, Simony Diamond, Tina Wagner Galfimbul ghost 93703680008.73 GB 1 4 1468935449

16:37

19-Июл-16

Сайтрипы 2013 / SiteRip's 2013 ·· [LegalPorno.com] Stacy Silver (Nasty Pros Stacy Silver Video SZ30) [2013 г., Gonzo, IR, Threesome, Anal, 720p] Galfimbul ghost 21696112882.02 GB 1 1 1437113253

09:07

17-Июл-15

Сайтрипы 2014 / SiteRip's 2014 ·· [ChickPassInternational.com / ChickPass.com] Stacy Silver - Stacy Silver Gets Fucked In The Ass [2014-02-20, All Sex, Anal, Hardcore, 1080p] Galfimbul ghost 16776310611.56 GB 0 0 1393185246

22:54

23-Фев-14

Сайтрипы 1991-2010 / SiteRip's 1991-2010 ·· [Silviasaint.com] Silvia Saint and Stacy Silver (Playing With Stacy Silver and Her Favorite Dildo) [14.03.12, Lesbo,toys, 720p] Galfimbul ghost 595727916568 MB 1 1 1380263958

09:39

27-Сен-13

Сайтрипы 1991-2010 / SiteRip's 1991-2010 ·· [SlimeWave.com / Tainster.com] Stacy Silver (Stacy Silver's Slime Wave / sw2010-08-18) [2010 г., Solo, Toys, Slime, 1080p] Galfimbul ghost 595086550568 MB 0 0 1374984877

07:14

28-Июл-13

Фильмы без сюжета 1991-2010 / All Sex & Amateur 1991-2010 ·· Private Life Of Stacy Silver / Частная жизнь Stacy Silver (Private) [2004, All Sex, DVDRip] Galfimbul ghost 38148178163.55 GB 0 0 1364554963

14:02

29-Мар-13

Фильмы без сюжета 1991-2010 / All Sex & Amateur 1991-2010 ·· Private Life of Stacy Silver / Частная жизнь Stacy Silver [2005 г., Compilation, DVDRip] Galfimbul ghost 14620037121.36 GB 0 0 1364483682

18:14

28-Мар-13

Фильмы без сюжета 1991-2010 / All Sex & Amateur 1991-2010 ·· La Sodo Parade de Stacy Silver / Содомический парад Стейси Сильвер (Stacy Silver et Alex Romero, Imamedia) [2005 г., All-sex, Straight, Blowjobs, Anal, DVDRip] Galfimbul ghost 14582307301.36 GB 0 0 1362905250

11:47

10-Мар-13

Фильмы без сюжета 1991-2010 / All Sex & Amateur 1991-2010 ·· The Private Life Of 21: Stacy Silver / Частная жизнь Stacy Silver (Private) [2004 г., All Sex, 2x DVD5] Galfimbul ghost 93703680008.73 GB 0 0 1311854108

14:55

28-Июл-11

Фильмы с сюжетом, Классические (DVD) / Feature & Vignettes, Classic (DVD) ·· French Connexion / Французский Связной (Herve Bodilis, Marc Dorcel) [2007 г., Feature, DVD9] [rus] (Katsumi, Jane Darling, Jessica Fiorentino, Stacy Silver, Kathy Anderson, Julie Silver, Suzie Diamond, Lydia St Martin, Judith Fox, Yasmine, Katalin, Z Galfimbul ghost 55729868805.19 GB 0 0 1584087856

11:24

13-Мар-20

Гонзо-фильмы 2011-2021 / Gonzo 2011-2021 ·· All You Can Eat / All You Can Eat: Reverse Gang Bang / Трахай, сколько можешь (David Perry / Zero Tolerance) [2005, Orgy, Group, 432p, SD] (Vanessa, Patricia, Kathy Anderson, Stacy Silver, Julie Silver, Laura Lion...) [Split Scenes] Galfimbul ghost 15718507241.46 GB 1 4 1450485864

03:44

19-Дек-15

Гонзо-фильмы 2011-2021 / Gonzo 2011-2021 ·· All You Can Eat / Трахай, сколько можешь (David Perry, Zero Tolerance) [2005, Reverse Gangbang, Orgy, Group, Anal, Hardcore, 432p, SD] (Vanessa, Patricia, Kathy Anderson, Stacy Silver, Julie Silver, Laura Lion...) [Split Scenes] erzsebet 15717155421.46 GB 0 0 1447891802

03:10

19-Ноя-15

Сайтрипы 2015 / SiteRip's 2015 ·· [DorcelClub.com] Stacy Silver (Stacy, Busty Blond Have Anal Sex In The Kitchens) [08-09-2015 г., All Sex, Teen, Anal, 1080p] Galfimbul ghost 388917579371 MB 0 0 1443360896

16:34

27-Сен-15

Гонзо-фильмы 2011-2021 / Gonzo 2011-2021 ·· Due Cazzi, Un Solo Buco / Два Члена, Единственное Отверстие (Alex Romero / Officina Italia) [2012 г., Gonzo, Anal, DP, DAP, Group sex, Compilation, DVDRip] (Alexa May, Julie Silver, Laura Lion, Stacy Silver, Tera Joy) Galfimbul ghost 24883242122.32 GB 3 0 1420118781

16:26

1-Янв-15

Архив (общий) ·· Due Cazzi, Un Solo Buco / Два Члена, Единственное Отверстие (Alex Romero / Jean-Yves Le Castel, Officina Italia)[2012 г., Anal, DP, DAP, Group sex, Compilation, DVD5] Alexa May, Julie Silver, Laura Lion, Stacy Silver, Tera Joy Galfimbul ghost 45766164484.26 GB 1 1 1419929635

11:53

30-Дек-14

Сайтрипы 2014 / SiteRip's 2014 ·· [DangerCore.com] Stacy Silver (Silver Rush) [2014 г., All Sex, Big Tits, Toy, 1080p] Galfimbul ghost 746900461712 MB 0 0 1412504062

13:14

5-Окт-14

Сайтрипы 2014 / SiteRip's 2014 ·· [ChickPassInternational.com / ChickPass.com] Stacy Silver - Czech slut Stacy takes it in the ass (16.01.14) [2014 г., All Sex, Anal, Hardcore, 1080p] Galfimbul ghost 15902465581.48 GB 0 0 1389915234

02:33

17-Янв-14

Еще никто не оставлял запись к записи скачать торрент Stacy Silver . Будь первым!

!Обратная связь