Скачать через торрент Морские дьяволы. Северные рубежи Серии: 1-2 из 20 Фильм бесплатно в хорошем качестве torrent

Скачивайте на UnionPeer.org фильмы через торрент без регистрации. Новинки кино в хорошем качестве через торрент. На UnionPeer.org можно скачать через торрент фильмы 2014 и 2015 годов. Самые новые фильмы.

Скачать торрент Морские дьяволы. Северные рубежи Серии: 1-2 из 20 бесплатно через .torrent фильм мультфильм сериал

Статистика раздачи
Размер:  1.17 GB   |    Зарегистрирован:  1 год 6 месяцев   |    .torrent скачан:  28 раз   |   
Раздают:  1  
   
загрузка...
 
Автор Сообщение

Galfimbul

avatar Galfimbul


Морские дьяволы. Северные рубежи
Год выпуска: 2017
Производство: Компания «Гамма продакшн»
Жанр: Боевик, военный, приключения
Продолжительность: 00:45:00
Субтитры: нетРежиссёр: Александр Картохин, Максим БриусВ ролях: Олег Чернов, Дарья Юргенс, Иван Паршин, Антон Гуляев, Александра Большакова, Антон Падерин, Антон Багров, Виталий Бисеров, Евгения Любимова, Марина Доможирова, Никита Плащевский, Антон Ветров, Юлия Скороход, Мария Русских, Александр КоневОписание: Продолжение популярной многосерийной франшизы «Морские дьяволы» в актуализированном виде – спецподразделение выполняет непростые задачи в суровых условиях на северной границе России. Официально, спецподразделение теперь называется – «Нерпы». Сама группа набирается из профессионалов возрастом около 35 лет. Батя, Багира и Бизон выполняют в сериале командно-тактические функции, хотя иногда и оказываются на острие действия. Офицеры группы спецназа «Нерпы» стоят на страже спокойствия и порядка северных рубежей страны в приграничном портовом городе, на берегу одного их северных морей. Они борются со злом во всех его проявлениях. «Нерпы» не только охраняют Северный рубеж государства, но и охотятся за диверсантами, предателями родины, обезвреживают иностранные специальные подразделения. Герои сражаются с контрабандистами и обеспечивают безопасность важных свидетелей. Освобождают заложников, обеспечивают безопасность глубоководных экспедиций и исследований, пресекают попытки уничтожения нефтедобывающей платформы, обезвреживают врагов при попытке дискредитации круглогодичного Северного морского пути и мн. др. В общем, самые сложные, самые опасные и непредсказуемые задания – это то, чем они занимаются изо дня в день. / СэмплРелиз группа: Качество: HDTVRip
Формат: AVI
Видео кодек: XviD
Аудио кодек: AC3
Видео: 720x400 (16:9), 25.000 fps, XviD build 73, 1535 kb/s, 0.21 bits/pixel
Аудио: 48 kHz, AC3 Dolby Digital, 2 ch, 192 Kbps

Реклама: Нет
General
Complete name : Downloads\Морские дьяволы. Северные рубежи.2017.HDTVRip.Files-x\01.Морские дьяволы. Северные рубежи.2017.HDTVRip.Files-x.avi
Format : AVI
Format/Info : Audio Video Interleave
File size : 599 MiB
Duration : 48mn 13s
Overall bit rate : 1 737 Kbps
Writing application : VirtualDubMod 1.5.10.3 | www.virtualdub-fr.org || (build 2550/release)
Writing library : VirtualDubMod build 2550/release
Video #0
ID : 0
Format : MPEG-4 Visual
Format profile : Advanced Simple@L5
Format settings, BVOP : 1
Format settings, QPel : No
Format settings, GMC : No warppoints
Format settings, Matrix : Custom
Codec ID : XVID
Codec ID/Hint : XviD
Duration : 48mn 13s
Bit rate : 1 535 Kbps
Width : 720 pixels
Height : 400 pixels
Display aspect ratio : 16:9
Frame rate : 25.000 fps
Color space : YUV
Chroma subsampling : 4:2:0
Bit depth : 8 bits
Scan type : Progressive
Compression mode : Lossy
Bits/(Pixel*Frame) : 0.213
Stream size : 530 MiB (88%)
Writing library : XviD 73
Audio #1
ID : 1
Format : AC-3
Format/Info : Audio Coding 3
Mode extension : CM (complete main)
Format settings, Endianness : Big
Codec ID : 2000
Duration : 48mn 13s
Bit rate mode : Constant
Bit rate : 192 Kbps
Channel(s) : 2 channels
Channel positions : Front: L R
Sampling rate : 48.0 KHz
Bit depth : 16 bits
Compression mode : Lossy
Stream size : 66.2 MiB (11%)
Alignment : Split accross interleaves
Interleave, duration : 40 ms (1.00 video frame)
Interleave, preload duration : 500 ms
(1) остановить скачивание,
(2) удалить старый торрент у себя из клиента (старые серии удалять не надо),
(3) скачать новый торрент и запустить его у себя в клиенте вместо старого, при этом указать клиенту путь в старую папку куда и должно происходить скачивание новых серий.
Ваш клиент при этом должен произвести хеширование (проверку) старой папки (если не производит сам - помогите ему сделать это), и будет докачивать только те серии которых у вас ещё нет. Старые серии при этом не удаляются, а продолжают раздаваться!
Eсли вы уже удалили старые серии, то предотвратить повторную закачку старых серий можно, отжав галочку в соответсвующих местах при запуске нового торрента. По возможности, желательно не удалять старые серии как можно дольше чтобы релизёр не столько продолжал раздавать старые серии, а смог сконцентрироваться на новых.


Трекер:  [ 05-Сен-2017 01:18 ]

  

Скачать .torrent

Размер .torrent файла 12 KB


Размер: 1.17 GB
Хэш (hash) релиза: 2954545981e1061821d209552cd948ddc7872743
Подписка на обновления:

Торренты, похожие на Морские дьяволы. Северные рубежи Серии: 1-2 из 20 скачать торрент

Форум Название Автор Размер S L Добавлен
Российские сериалы ·· Морские дьяволы. Северные рубежи / Серии: 1-2 из 20 (Александр Картохин, Максим Бриус) [2017,боевик, приключения, криминал,SATRip-AVC] Galfimbul 12295506451.15 GB 0 0 1504545758

20:22

4-Сен-17

Еще никто не оставлял запись к записи скачать торрент Морские дьяволы. Северные рубежи Серии: 1-2 из 20 . Будь первым!

!Обратная связь