Скачать через торрент Разгар лета Фильм бесплатно в хорошем качестве torrent

Скачивайте на UnionPeer.org фильмы через торрент без регистрации. Новинки кино в хорошем качестве через торрент. На UnionPeer.org можно скачать через торрент фильмы 2014 и 2015 годов. Самые новые фильмы.

Скачать торрент Разгар лета бесплатно через .torrent фильм мультфильм сериал

Статистика раздачи
Размер:  16.03 GB   |    Зарегистрирован:  2 года 10 месяцев   |    .torrent скачан:  36 раз   |   
Раздают:  1  
   
Timeweb Many GEOs Sprinthost
загрузка...
 
Автор Сообщение

Galfimbul ghost

avatar Galfimbul ghost


Разгар лета (Лето мёртвых) / Dead of Summer

Год выпуска: 2016
Страна: США
Жанр: Детектив, драма, ужасы
Продолжительность: 10 x ~ 00:40:00

Перевод: Профессиональный (многоголосый закадровый)

Режиссёр: Норман Бакли, Мик Гэррис, Адам Хоровиц, Рон Андервуд, Тара Николь Вейр
В ролях: Элизабет Митчелл, Элизабет Лэил, Зельда Уильямс, Марк Инделикато, Альберто Фрезза, Эли Гори, Ронен Рубеинштейн, Эмбер Кони, Полина Сингер, Захари Гордон

Описание: Однажды летом, в конце 80-х, группа подростков собрала свои рюкзачки, попрощалась с родителями и с чувством томительного предвкушения отправилась в летний лагерь под названием «Стилуотер», обещающий кучу всего интересного. Впереди ребят ждали новые увлекательные знакомства, уютные посиделки у костра, купание в чистейшем озере, свежий воздух, но главное — недели прекрасного времяпрепровождения без унылой зубрежки и гонки за оценками. Однако у лагеря на своих гостей имеются собственные планы: мрачная мифическая сторона этого места медленно пробуждается, чтобы устроить наивным юнцам настоящий бал сатаны. Вместо дурманящей романтики и веселья без конца и края подросткам предстоит пережить самые страшные минуты в их жизни, а кто-то из ребят, возможно, даже останется в этом проклятом лагере навсегда...



Качество: WEB-DL 1080p
Контейнер: MKV
Видео: MPEG-4 AVC, 1920x1080(16:9), 25.000 fps, ~ 5000 Kbps
Аудио 1: [Русский] AC3, 48 kHz, 2 ch, 192 Kbps - Amedia
Аудио 2: [Английский] AC3, 48 kHz, 2 ch, 192 Kbps
Субтитры: Русские (N-Team), английские (SDH)
Релиз HDCLUB - BenderBEST
• Частота кадров у видео и оригинальной дороги изменены с 23,976 на родные 25 (PAL) перевода чтобы не перетягивать / портить дубляж и слушать его таким каким он должен быть без дефектов и искажений голосов актёров.
• Работа c дорогой и субтитрами BenderBEST
Общее
Уникальный идентификатор : 209030179048542286174693371167061365414 (0x9D41BF8434324287B1C1771EB8E8D2A6)
Полное имя : D:\Релизы\Dead.of.Summer.S01.1080p.WEB-DL.Rus.Eng.HDCLUB\Dead.of.Summer.S01E01.1080p.WEB-DL.Rus.Eng.HDCLUB.mkv
Формат : Matroska
Версия формата : Version 4 / Version 2
Размер файла : 1,62 Гбайт
Продолжительность : 42 м. 3 с.
Общий поток : 5530 Кбит/сек
Название фильма : Dead of Summer S01E01 - ReJliz HDCLUB by BenderBEST
Дата кодирования : UTC 2017-09-05 06:30:32
Программа кодирования : mkvmerge v6.9.1 ('Blue Panther') 32bit built on Apr 18 2014 18:15:44
Библиотека кодирования : libebml v1.3.0 + libmatroska v1.4.1

Видео
Идентификатор : 1
Формат : AVC
Формат/Информация : Advanced Video Codec
Профиль формата : High@L4
Параметр CABAC формата : Да
Параметр ReFrames формата : 4 кадра
Идентификатор кодека : V_MPEG4/ISO/AVC
Продолжительность : 42 м. 3 с.
Битрейт : 5036 Кбит/сек
Ширина : 1920 пикселей
Высота : 1080 пикселей
Соотношение сторон : 16:9
Режим частоты кадров : Постоянный
Частота кадров : 25,000 кадров/сек
Цветовое пространство : YUV
Субдискретизация насыщенности : 4:2:0
Битовая глубина : 8 бит
Тип развёртки : Прогрессивная
Бит/(Пиксели*Кадры) : 0.097
Размер потока : 1,48 Гбайт (91%)
Язык : English
Default : Да
Forced : Да
Цветовой диапазон : Limited
Основные цвета : BT.709
Характеристики трансфера : BT.709
Коэффициенты матрицы : BT.709

Аудио #1
Идентификатор : 2
Формат : AC-3
Формат/Информация : Audio Coding 3
Параметр Endianness формата : Big
Идентификатор кодека : A_AC3
Продолжительность : 42 м. 3 с.
Вид битрейта : Постоянный
Битрейт : 192 Кбит/сек
Каналы : 2 канала
Расположение каналов : Front: L R
Частота : 48,0 КГц
Частота кадров : 31,250 кадров/сек (1536 spf)
Битовая глубина : 16 бит
Метод сжатия : С потерями
Размер потока : 57,8 Мбайт (3%)
Заголовок : AC3 2.0 @ 192 kbps - MVO, Amedia
Язык : Russian
ServiceKind/String : Complete Main
Default : Да
Forced : Да

Аудио #2
Идентификатор : 3
Формат : AC-3
Формат/Информация : Audio Coding 3
Параметр Endianness формата : Big
Идентификатор кодека : A_AC3
Продолжительность : 42 м. 3 с.
Вид битрейта : Постоянный
Битрейт : 192 Кбит/сек
Каналы : 2 канала
Расположение каналов : Front: L R
Частота : 48,0 КГц
Частота кадров : 31,250 кадров/сек (1536 spf)
Битовая глубина : 16 бит
Метод сжатия : С потерями
Размер потока : 57,8 Мбайт (3%)
Заголовок : AC3 2.0 @ 192 kbps
Язык : English
ServiceKind/String : Complete Main
Default : Нет
Forced : Нет

Текст #1
Идентификатор : 4
Формат : UTF-8
Идентификатор кодека : S_TEXT/UTF8
Идентификатор кодека/Информация : UTF-8 Plain Text
Заголовок : N-Team
Язык : Russian
Default : Нет
Forced : Нет

Текст #2
Идентификатор : 5
Формат : UTF-8
Идентификатор кодека : S_TEXT/UTF8
Идентификатор кодека/Информация : UTF-8 Plain Text
Заголовок : SDH
Язык : English
Default : Нет
Forced : Нет


Внимание! AdBlock блокирует показ скриншотов, все вопросы к разработчикам )))
Трекер:  [ 05-Сен-2017 18:54 ]

  

Скачать .torrent

Размер .torrent файла 81 KB


Размер: 16.03 GB
Хэш (hash) релиза: f30d1f76ff6d2a5d6839305b9e9a998b22d4085b
Подписка на обновления:

Торренты, похожие на Разгар лета скачать торрент

Форум Название Автор Размер S L Добавлен
Зарубежные сериалы ·· Мертвое лето (Разгар лета) / Dead of Summer / Сезон: 1 / Серии: 1-10 из 10 (Норман Бакли, Мик Гэррис) [2016, Ужасы, драма, детектив, WEB-DLRip] MVO (Lostfilm) Galfimbul ghost 46298849284.31 GB 0 0 1472910504

16:48

3-Сен-16

Зарубежные сериалы ·· Мертвое лето (Разгар лета) / Dead of Summer / Сезон: 1 / Серии: 1-9 из 10 (Норман Бакли, Мик Гэррис) [2016, Ужасы, драма, детектив, WEB-DLRip] MVO (Lostfilm) Galfimbul ghost 42384896003.95 GB 0 0 1472302152

15:49

27-Авг-16

Зарубежные сериалы ·· Мертвое лето (Разгар лета) / Dead of Summer / Сезон: 1 / Серии: 1-8 из 10 (Норман Бакли, Мик Гэррис) [2016, Ужасы, драма, детектив, WEB-DLRip] MVO (Lostfilm) Galfimbul ghost 38989926403.63 GB 0 0 1471692270

14:24

20-Авг-16

Зарубежные сериалы ·· Мертвое лето (Разгар лета) / Dead of Summer / Сезон: 1 / Серии: 1-7 из 10 (Норман Бакли, Мик Гэррис) [2016, Ужасы, драма, детектив, WEB-DLRip] MVO (Lostfilm) Galfimbul ghost 34326753283.2 GB 0 0 1471103396

18:49

13-Авг-16

Зарубежные сериалы ·· Мертвое лето (Разгар лета) / Dead of Summer / Сезон: 1 / Серии: 1-6 из 10 (Норман Бакли, Мик Гэррис) [2016, Ужасы, драма, детектив, WEB-DLRip] MVO (Lostfilm) Galfimbul ghost 27866193922.6 GB 0 0 1470509445

21:50

6-Авг-16

Зарубежные сериалы ·· Мертвое лето (Разгар лета) / Dead of Summer / Сезон: 1 / Серии: 1-5 из 10 (Норман Бакли, Мик Гэррис) [2016, Ужасы, драма, детектив, WEB-DLRip] MVO (Lostfilm) Galfimbul ghost 23385763842.18 GB 0 0 1469861312

09:48

30-Июл-16

Зарубежные сериалы ·· Мертвое лето (Разгар лета) / Dead of Summer / Сезон: 1 / Серии: 1-4 из 10 (Норман Бакли, Мик Гэррис) [2016, Ужасы, драма, детектив, WEB-DLRip] MVO (Lostfilm) Galfimbul ghost 18208952321.7 GB 0 0 1469724883

19:54

28-Июл-16

Зарубежные сериалы ·· Мертвое лето (Разгар лета) / Dead of Summer / Сезон: 1 / Серии: 1-3 из 10 (Норман Бакли, Мик Гэррис) [2016, Ужасы, драма, детектив, WEB-DLRip] MVO (Lostfilm) Galfimbul ghost 13904568321.29 GB 0 0 1468678530

17:15

16-Июл-16

Зарубежные сериалы ·· Мертвое лето (Разгар лета) / Dead of Summer / Сезон: 1 / Серии: 1-2 из 10 (Норман Бакли, Мик Гэррис) [2016, Ужасы, драма, детектив, WEB-DLRip] MVO (Lostfilm) Galfimbul ghost 943851520900 MB 0 0 1467908556

19:22

7-Июл-16

Зарубежные сериалы ·· Мертвое лето (Разгар лета) / Dead of Summer / Сезон: 1 / Серии: 1 из 10 (Норман Бакли, Мик Гэррис) [2016, Ужасы, драма, детектив, WEB-DLRip] MVO (Lostfilm) Galfimbul ghost 487122944465 MB 0 0 1467563308

19:28

3-Июл-16

Superjob
dpd RU

Еще никто не оставлял запись к записи скачать торрент Разгар лета . Будь первым!

!Обратная связь