Скачать через торрент Жмот Radin! Фильм бесплатно в хорошем качестве torrent

Скачивайте на UnionPeer.org фильмы через торрент без регистрации. Новинки кино в хорошем качестве через торрент. На UnionPeer.org можно скачать через торрент фильмы 2014 и 2015 годов. Самые новые фильмы.

Скачать торрент Жмот Radin! бесплатно через .torrent фильм мультфильм сериал

Статистика раздачи
Размер:  1.45 GB   |    Зарегистрирован:  6 лет 8 месяцев   |    .torrent скачан:  201 раз   |   
Раздают:  1  
 

Скачать Жмот / Radin! (Фред Кавайе / Fred Cavayé) [2016, Франция, комедия, BDRip-AVC] Dub через torrent

 
 
Автор Сообщение

Galfimbul

avatar Galfimbul


Жмот / Radin!
«Меняю деньги на любовь...»
Страна: Франция
Жанр: комедия
Год выпуска: 2016
Продолжительность: 01:30:11Перевод: Профессиональный (дублированный) iTunes
Субтитры: нет
Оригинальная аудиодорожка: нетРежиссер: Фред Кавайе / Fred CavayéВ ролях: Дэни Бун, Лоранс Арне, Ноэми Шмидт, Патрик Ридремонт, Кристоф Канар, Кристоф Фавр, Ивонн Граделе, Карина Маримон, Изабель Зьенталь, Одри Родс-ГрегОписание: Франсуа Готье - виртуозный скрипач. Но за талант, как водится, надо платить. У музыканта серьезный недостаток: он невероятно скуп. Мания экономить превращает его в одержимого, а любой платеж ввергает в панический ужас. Но однажды его жизнь резко меняется. Качество видео: BDRip-AVC / Radin.2016.BDREMUX.1080.ExKinoRay
Формат видео: MKVВидео: MPEG-4 AVC, 1024x432 (2.40:1), 24.000 fps, ~1922 kbps avg, 0.181 bit/pixel
Аудио: 48 kHz, AC3 Dolby Digital, 3/2 (L,C,R,l,r) + LFE ch, ~384 kbps avg
Complete name : D:\Раздачи\Жмот (2016) BDRip-AVC_ivanes20031987.mkv
Format : Matroska
Format version : Version 2
File size : 1.45 GiB
Duration : 1 h 30 min
Overall bit rate : 2 308 kb/s
Encoded date : UTC 2017-09-09 22:28:07
Writing application : mkvmerge v4.4.0 ('Die Wiederkehr') сборка от Jan 3 2011 21:40:45
Writing library : libebml v1.0.0 + libmatroska v1.0.0
Cover : Yes
Attachments : cover.png

Video
ID : 1
Format : AVC
Format/Info : Advanced Video Codec
Format profile : [email protected]
Format settings, CABAC : Yes
Format settings, RefFrames : 13 frames
Codec ID : V_MPEG4/ISO/AVC
Duration : 1 h 30 min
Bit rate : 1 922 kb/s
Width : 1 024 pixels
Height : 432 pixels
Display aspect ratio : 2.40:1
Frame rate mode : Constant
Frame rate : 24.000 FPS
Color space : YUV
Chroma subsampling : 4:2:0
Bit depth : 8 bits
Scan type : Progressive
Bits/(Pixel*Frame) : 0.181
Stream size : 1.18 GiB (81%)
Writing library : x264 core 152 r2851kMod ba24899
Encoding settings : cabac=1 / ref=13 / deblock=1:-2:-2 / analyse=0x3:0x113 / me=umh / subme=10 / psy=1 / fade_compensate=0.00 / psy_rd=1.00:0.00 / mixed_ref=1 / me_range=32 / chroma_me=1 / trellis=2 / 8x8dct=1 / cqm=0 / deadzone=21,11 / fast_pskip=0 / chroma_qp_offset=-2 / threads=12 / lookahead_threads=3 / sliced_threads=0 / nr=0 / decimate=0 / interlaced=0 / bluray_compat=0 / constrained_intra=0 / bframes=12 / b_pyramid=2 / b_adapt=2 / b_bias=0 / direct=1 / weightb=1 / open_gop=0 / weightp=2 / keyint=240 / keyint_min=24 / scenecut=40 / intra_refresh=0 / rc_lookahead=40 / rc=2pass / mbtree=0 / bitrate=1922 / ratetol=1.0 / qcomp=0.60 / qpmin=0 / qpmax=69 / qpstep=4 / cplxblur=20.0 / qblur=0.5 / vbv_maxrate=50000 / vbv_bufsize=62500 / nal_hrd=none / filler=0 / ip_ratio=1.40 / pb_ratio=1.30 / aq=1:1.00
Default : Yes
Forced : No

Audio
ID : 2
Format : AC-3
Format/Info : Audio Coding 3
Format settings, Endianness : Big
Codec ID : A_AC3
Duration : 1 h 30 min
Bit rate mode : Constant
Bit rate : 384 kb/s
Channel(s) : 6 channels
Channel positions : Front: L C R, Side: L R, LFE
Sampling rate : 48.0 kHz
Frame rate : 31.250 FPS (1536 SPF)
Bit depth : 16 bits
Compression mode : Lossy
Stream size : 248 MiB (17%)
Title : iTunes
Language : Russian
Service kind : Complete Main
Default : Yes
Forced : No


Внимание! AdBlock блокирует показ скриншотов, все вопросы к разработчикам )))

Трекер:  [ 12-Сен-2017 10:01 ]

  

Скачать .torrent

Размер .torrent файла 15 KB


Размер: 1.45 GB
Хэш (hash) релиза: b5a87a078ca6282145b3b02c26720d5db6d80aea
Подписка на обновления:

Еще никто не оставлял запись к записи скачать торрент Жмот Radin! . Будь первым!

!Обратная связь