Скачать через торрент Синяя бездна Страх глубины Фильм бесплатно в хорошем качестве torrent

Скачивайте на UnionPeer.org фильмы через торрент без регистрации. Новинки кино в хорошем качестве через торрент. На UnionPeer.org можно скачать через торрент фильмы 2014 и 2015 годов. Самые новые фильмы.

Скачать торрент Синяя бездна Страх глубины бесплатно через .torrent фильм мультфильм сериал

Статистика раздачи
Размер:  5 GB   |    Зарегистрирован:  6 лет 5 месяцев   |    .torrent скачан:  152 раза   |   
Раздают:  1  
   
 
Автор Сообщение

Galfimbul

avatar Galfimbul


Синяя бездна / Страх глубины /47 Meters Down

Год выхода: 2017
Жанр: Приключения, Драма, Ужасы
Режиссер: Йоханнес Робертс
В ролях: Мэнди Мур, Клер Холт, Крис Дж. Джонсон, Яни Гельман, Сантьяго Сегура, Мэттью Модайн, Майра Хуарес, Аксель Мансилла

О фильме:
Отдыхая на солнечных пляжах Мексики, Лиза и ее сестра Кейт решаются на погружение в клетке к большим белым акулам. Но зрелищный аттракцион оборачивается кошмаром, когда клетка с двумя девушками срывается на океанское дно. Помощи ждать неоткуда, а кислорода остается лишь на час. Единственный выход из смертельной ловушки — плыть вверх через толщу воды, которая кишит самыми свирепыми хищниками океана.


Страна: Великобритания, США, Доминикана
Студия: thefyzz, Tea Shop & Film Company, Entertainment Studios Motion Pictures
Продолжительность: 01:29:17
Перевод: Дублированный (iTunes)

Файл
Кодек: MPEG-4 AVC
Качество: BDRip 720p | iTunes
Видео: AVC, 1280x536, 23,976 fps, 5800 Kbps
Звук:
Аудио #1: AC3, 6 ch, 384 Kbps, CBR - Русский
Аудио #2: AC3, 6 ch, 384 Kbps, CBR - Украинский
Аудио #3: DTS, 6 ch, 1509 Kbps, CBR - Английский
Субтитры: Английские

Семпл
Общее
Уникальный идентификатор : 221562751559252085892860613483843569757 (0xA6AF6F0C21F46D91AC86ADF460F8485D)
Полное имя : 47_Meters Down.2017.BDRip.720p.mkv
Формат : Matroska
Версия формата : Version 2
Размер файла : 5,00 Гбайт
Продолжительность : 1 ч. 29 м.
Общий поток : 8019 Кбит/сек
Название фильма : 47_Meters Down.2017.BDRip.720p
Дата кодирования : UTC 2017-09-14 17:41:28
Программа кодирования : mkvmerge v4.0.0 ('The Stars were mine') сборка от Jun 6 2010 16:18:42
Библиотека кодирования : libebml v1.0.0 + libmatroska v1.0.0

Видео
Идентификатор : 1
Формат : AVC
Формат/Информация : Advanced Video Codec
Профиль формата : [email protected]
Настройки формата : CABAC / 12 Ref Frames
Параметр CABAC формата : Да
Параметр RefFrames формата : 12 кадров
Идентификатор кодека : V_MPEG4/ISO/AVC
Продолжительность : 1 ч. 29 м.
Битрейт : 5800 Кбит/сек
Ширина : 1280 пикселей
Высота : 536 пикселей
Соотношение сторон : 2,40:1
Режим частоты кадров : Постоянный
Частота кадров : 23,976 (24000/1001) кадра/сек
Цветовое пространство : YUV
Субдискретизация насыщенности : 4:2:0
Битовая глубина : 8 бит
Тип развёртки : Прогрессивная
Бит/(Пиксели*Кадры) : 0.353
Размер потока : 3,48 Гбайт (70%)
Библиотека кодирования : x264 core 148 r2744kMod b97ae06
Настройки программы : cabac=1 / ref=12 / deblock=1:-3:-3 / analyse=0x3:0x133 / me=umh / subme=11 / psy=1 / fade_compensate=0.00 / psy_rd=1.05:0.00 / mixed_ref=1 / me_range=48 / chroma_me=1 / trellis=2 / 8x8dct=1 / cqm=0 / deadzone=21,11 / fast_pskip=0 / chroma_qp_offset=-2 / threads=12 / lookahead_threads=2 / sliced_threads=0 / nr=0 / decimate=0 / interlaced=0 / bluray_compat=0 / constrained_intra=0 / bframes=8 / b_pyramid=2 / b_adapt=2 / b_bias=0 / direct=3 / weightb=1 / open_gop=0 / weightp=2 / keyint=240 / keyint_min=2 / scenecut=40 / intra_refresh=0 / rc_lookahead=0 / rc=2pass / mbtree=0 / bitrate=5800 / ratetol=1.0 / qcomp=0.70 / qpmin=0 / qpmax=69 / qpstep=4 / cplxblur=20.0 / qblur=0.5 / vbv_maxrate=50000 / vbv_bufsize=30000 / nal_hrd=none / filler=0 / ip_ratio=1.30 / pb_ratio=1.20 / aq=3:0.80
Язык : English
Default : Нет
Forced : Нет

Аудио #1
Идентификатор : 2
Формат : AC-3
Формат/Информация : Audio Coding 3
Параметр Endianness формата : Big
Идентификатор кодека : A_AC3
Продолжительность : 1 ч. 29 м.
Вид битрейта : Постоянный
Битрейт : 384 Кбит/сек
Каналы : 6 каналов
Расположение каналов : Front: L C R, Side: L R, LFE
Частота : 48,0 КГц
Частота кадров : 31,250 кадров/сек (1536 SPF)
Битовая глубина : 16 бит
Метод сжатия : С потерями
Размер потока : 245 Мбайт (5%)
Язык : Russian
ServiceKind : Complete Main
Default : Да
Forced : Нет

Аудио #2
Идентификатор : 3
Формат : AC-3
Формат/Информация : Audio Coding 3
Параметр Endianness формата : Big
Идентификатор кодека : A_AC3
Продолжительность : 1 ч. 29 м.
Вид битрейта : Постоянный
Битрейт : 384 Кбит/сек
Каналы : 6 каналов
Расположение каналов : Front: L C R, Side: L R, LFE
Частота : 48,0 КГц
Частота кадров : 31,250 кадров/сек (1536 SPF)
Битовая глубина : 16 бит
Метод сжатия : С потерями
Размер потока : 245 Мбайт (5%)
Язык : Ukrainian
ServiceKind : Complete Main
Default : Нет
Forced : Нет

Аудио #3
Идентификатор : 4
Формат : DTS
Формат/Информация : Digital Theater Systems
Режим : 16
Параметр Endianness формата : Big
Идентификатор кодека : A_DTS
Продолжительность : 1 ч. 29 м.
Вид битрейта : Постоянный
Битрейт : 1509 Кбит/сек
Каналы : 6 каналов
Расположение каналов : Front: L C R, Side: L R, LFE
Частота : 48,0 КГц
Частота кадров : 93,750 кадра/сек (512 SPF)
Битовая глубина : 24 бит
Метод сжатия : С потерями
Задержка видео : 11 мс.
Размер потока : 964 Мбайт (19%)
Язык : English
Default : Нет
Forced : Нет

Текст
Идентификатор : 5
Формат : UTF-8
Идентификатор кодека : S_TEXT/UTF8
Идентификатор кодека/Информация : UTF-8 Plain Text
Язык : English
Default : Нет
Forced : Нет
Источник http://arutor.org

Внимание! AdBlock блокирует показ скриншотов, все вопросы к разработчикам )))
Трекер:  [ 14-Сен-2017 22:50 ]

  

Скачать .torrent

Размер .torrent файла 25 KB


Размер: 5 GB
Хэш (hash) релиза: 60cd6dd1756c96ed7c0c29cccc86eb6e9b36b4cf
Подписка на обновления:

Торренты, похожие на Синяя бездна Страх глубины скачать торрент

Форум Название Автор Размер S L Добавлен
Зарубежные фильмы 2016-2019 (Новинки зарубежного кино) ·· Синяя бездна / Страх глубины / 47 Meters Down / In the Deep (Йоханнес Робертс / Johannes Roberts) [2017, Великобритания, Доминикана, США, ужасы, триллер, драма, приключения, BDRip] Dub + Original Eng + Sub Rus, Eng Galfimbul 15671473491.46 GB 0 0 1517146246

16:30

28-Янв-18

Зарубежные фильмы 2016-2019 (Новинки зарубежного кино) ·· Синяя бездна / Страх глубины / 47 Meters Down / In the Deep (Йоханнес Робертс / Johannes Roberts) [2017, США, Ужасы, триллер, драма, приключения, WEB-DLRip] Dub (iTunes) Galfimbul 15640350721.46 GB 0 0 1505323857

20:30

13-Сен-17

Зарубежные фильмы 2016-2019 (Новинки зарубежного кино) ·· Синяя бездна / Страх глубины / 47 Meters Down / In the Deep (Йоханнес Робертс / Johannes Roberts) [2017, Великобритания, США, Доминикана, ужасы, триллер, драма, WEB-DLRip] Dub Galfimbul 779476992743 MB 0 0 1505323843

20:30

13-Сен-17

Зарубежные фильмы 2016-2019 (Новинки зарубежного кино) ·· Синяя бездна / Страх глубины / 47 Meters Down / In the Deep (2016) DVDRip от ExKinoRay | L2 Galfimbul 15636172801.46 GB 0 0 1497417007

08:10

14-Июн-17

Еще никто не оставлял запись к записи скачать торрент Синяя бездна Страх глубины . Будь первым!

!Обратная связь