Скачать через торрент Мумия The Mummy Фильм бесплатно в хорошем качестве torrent

Скачивайте на UnionPeer.org фильмы через торрент без регистрации. Новинки кино в хорошем качестве через торрент. На UnionPeer.org можно скачать через торрент фильмы 2014 и 2015 годов. Самые новые фильмы.

Скачать торрент Мумия The Mummy бесплатно через .torrent фильм мультфильм сериал

Статистика раздачи
Размер:  14.77 GB   |    Зарегистрирован:  6 лет 5 месяцев   |    .torrent скачан:  298 раз   |   
Раздают:  1  
 

Скачать Мумия / The Mummy (Алекс Куртцман / Alex Kurtzman) [2017, США, фэнтези, боевик, триллер, приключения, BDRip 1080p] Лицензия через torrent

 
 
Автор Сообщение

Galfimbul

avatar Galfimbul


Мумия /The Mummy

Страна: США
Студия: Perfect World Pictures, Sean Daniel Company, Universal Pictures
Жанр: фэнтези, боевик, триллер, приключения
Год выпуска: 2017
Продолжительность: 01:50:05

Перевод: Профессиональный (дублированный)
Субтитры: Rus, Eng
Оригинальная аудиодорожка: английский

Режиссер: Алекс Куртцман / Alex Kurtzman

В ролях: Том Круз, Рассел Кроу, Аннабелль Уоллис, София Бутелла, Джейк Джонсон, Кортни Б. Вэнс, Марван Кензари, Саймон Атертон, Стивен Томпсон, Джеймс Арама

Описание: Посреди безжалостной пустыни в величественном саркофаге погребена дочь египетского фараона, но настанет день, и она явится в наш мир вернуть себе то, что принадлежит ей по праву. Отныне миром правят боги и монстры.

</a> </a>

Тип релиза: BDRip 1080p
Контейнер: MKV

Видео: MPEG-4 AVC, 17.8 Mбит/с, 1920x800, 23,976 fps
Аудио: Rus, DTS, 768 kb/s (6 ch), 48 kHz
Аудио 2: Eng, AC3, 640 kb/s (6 ch), 48 kHz
Формат субтитров: softsub (SRT)
Format : Matroska
Format version : Version 4 / Version 2
File size : 14.8 GiB
Duration : 1 h 50 min
Overall bit rate : 19.2 Mb/s
Movie name : Мумия. (Tonik)
Encoded date : UTC 2017-09-23 20:11:07
Writing application : mkvmerge v7.1.0 ('Good Love') 64bit built on Jul 27 2014 13:06:55
Writing library : libebml v1.3.0 + libmatroska v1.4.1

Video
ID : 1
Format : AVC
Format/Info : Advanced Video Codec
Format profile : [email protected]
Format settings, CABAC : Yes
Format settings, ReFrames : 5 frames
Codec ID : V_MPEG4/ISO/AVC
Duration : 1 h 50 min
Bit rate : 17.8 Mb/s
Width : 1 920 pixels
Height : 800 pixels
Display aspect ratio : 2.40:1
Frame rate mode : Constant
Frame rate : 23.976 (24000/1001) FPS
Color space : YUV
Chroma subsampling : 4:2:0
Bit depth : 8 bits
Scan type : Progressive
Bits/(Pixel*Frame) : 0.483
Stream size : 13.7 GiB (93%)
Writing library : x264 core 150 r2833+21 82447f2 VietHD_Custom
Encoding settings : cabac=1 / ref=5 / deblock=1:-3:-3 / analyse=0x3:0x133 / me=umh / subme=10 / psy=1 / fade_compensate=0.00 / psy_rd=1.09:0.00 / mixed_ref=1 / me_range=24 / chroma_me=1 / trellis=2 / 8x8dct=1 / cqm=0 / deadzone=21,11 / fast_pskip=0 / chroma_qp_offset=-2 / threads=12 / lookahead_threads=2 / sliced_threads=0 / nr=0 / decimate=0 / interlaced=0 / bluray_compat=0 / constrained_intra=0 / fgo=0 / bframes=9 / b_pyramid=2 / b_adapt=2 / b_bias=0 / direct=3 / weightb=1 / open_gop=0 / weightp=2 / keyint=250 / keyint_min=23 / scenecut=40 / intra_refresh=0 / rc_lookahead=60 / rc=crf / mbtree=0 / crf=18.0000 / qcomp=0.60 / qpmin=0:0:0 / qpmax=69:69:69 / qpstep=4 / vbv_maxrate=62500 / vbv_bufsize=78125 / crf_max=0.0 / nal_hrd=none / filler=0 / ip_ratio=1.30 / pb_ratio=1.20 / aq=3:0.75 / aq-sensitivity=10.00 / aq-factor=1.00:1.00:1.00 / aq2=0 / aq3=0
Language : English
Default : Yes
Forced : No
Color range : Limited
Matrix coefficients : BT.709

Audio #1
ID : 2
Format : DTS
Format/Info : Digital Theater Systems
Mode : 16
Format settings, Endianness : Big
Codec ID : A_DTS
Duration : 1 h 50 min
Bit rate mode : Constant
Bit rate : 768 kb/s
Channel(s) : 6 channels
Channel positions : Front: L C R, Side: L R, LFE
Sampling rate : 48.0 kHz
Frame rate : 93.750 FPS (512 spf)
Bit depth : 24 bits
Compression mode : Lossy
Stream size : 605 MiB (4%)
Language : Russian
Default : Yes
Forced : No

Audio #2
ID : 3
Format : AC-3
Format/Info : Audio Coding 3
Format settings, Endianness : Big
Codec ID : A_AC3
Duration : 1 h 50 min
Bit rate mode : Constant
Bit rate : 640 kb/s
Channel(s) : 6 channels
Channel positions : Front: L C R, Side: L R, LFE
Sampling rate : 48.0 kHz
Frame rate : 31.250 FPS (1536 spf)
Bit depth : 16 bits
Compression mode : Lossy
Stream size : 504 MiB (3%)
Language : English
Service kind : Complete Main
Default : No
Forced : No

Text #1
ID : 4
Format : UTF-8
Codec ID : S_TEXT/UTF8
Codec ID/Info : UTF-8 Plain Text
Duration : 1 h 19 min
Bit rate : 2 b/s
Count of elements : 31
Stream size : 1.32 KiB (0%)
Title : Forced
Language : Russian
Default : Yes
Forced : No

Text #2
ID : 5
Format : UTF-8
Codec ID : S_TEXT/UTF8
Codec ID/Info : UTF-8 Plain Text
Duration : 1 h 38 min
Bit rate : 66 b/s
Count of elements : 1062
Stream size : 48.2 KiB (0%)
Language : Russian
Default : No
Forced : No

Text #3
ID : 6
Format : UTF-8
Codec ID : S_TEXT/UTF8
Codec ID/Info : UTF-8 Plain Text
Duration : 1 h 36 min
Bit rate : 41 b/s
Count of elements : 1082
Stream size : 29.6 KiB (0%)
Language : English
Default : No
Forced : No

Text #4
ID : 7
Format : UTF-8
Codec ID : S_TEXT/UTF8
Codec ID/Info : UTF-8 Plain Text
Duration : 1 h 37 min
Bit rate : 49 b/s
Count of elements : 1358
Stream size : 35.7 KiB (0%)
Title : SDH
Language : English
Default : No
Forced : No

Menu
00:00:00.000 : en:Chapter 1
00:08:18.707 : en:Chapter 2
00:13:18.923 : en:Chapter 3
00:19:31.462 : en:Chapter 4
00:24:40.145 : en:Chapter 5
00:28:54.107 : en:Chapter 6
00:35:41.389 : en:Chapter 7
00:39:36.040 : en:Chapter 8
00:47:00.067 : en:Chapter 9
00:50:57.638 : en:Chapter 10
00:56:49.740 : en:Chapter 11
01:00:43.849 : en:Chapter 12
01:08:58.009 : en:Chapter 13
01:16:03.851 : en:Chapter 14
01:19:38.440 : en:Chapter 15
01:23:16.408 : en:Chapter 16
01:26:26.848 : en:Chapter 17
01:33:34.943 : en:Chapter 18
01:37:02.984 : en:Chapter 19
01:39:47.982 : en:Chapter 20
Источник http://arutor.org

Внимание! AdBlock блокирует показ скриншотов, все вопросы к разработчикам )))
Трекер:  [ 24-Сен-2017 00:00 ]

  

Скачать .torrent

Размер .torrent файла 37 KB


Размер: 14.77 GB
Хэш (hash) релиза: 03efa28171dadc45e29bf485a563fa63c7b5f45c
Подписка на обновления:

Торренты, похожие на Мумия The Mummy скачать торрент

Форум Название Автор Размер S L Добавлен
Мультсериалы ·· Мумия / The Mummy: The Animated Series / Сезон: 1 / Серии: 1-5, 7-10, 12, 13 из 13 (Эдди Хучинс / Eddy Houchins) [2001, США, приключения, комедия, фэнтези, VHSRip] MVO (Премьер) Galfimbul 47226493384.4 GB 0 0 1504254657

11:30

1-Сен-17

Мультсериалы ·· Мумия / The Mummy: The Animated Series (Eddy Houchins, Dick Sebast) [2001 г., Приключения / фантастика, TVRip] ГеорГ 95430035698.89 GB 0 0 1293322355

03:12

26-Дек-10

Зарубежные фильмы 2016-2019 (Новинки зарубежного кино) ·%· Мумия / The Mummy (2017) HDRip от Portablius | A Galfimbul 834740224796 MB 0 0 1554828104

19:41

9-Апр-19

Зарубежные фильмы до 2016 ·%· Мумия / The Mummy (Стивен Соммерс / Stevan Sommers) [720p/DVD9] [1999, Фантастика, приключения, BDRip] Galfimbul 96244288808.96 GB 0 0 1532844100

09:01

29-Июл-18

Зарубежные фильмы 2016-2019 (Новинки зарубежного кино) ·· Мумия / The Mummy (Алекс Куртцман / Alex Kurtzman) [2017, Китай, Япония, США, фэнтези, боевик, триллер, приключения, BDRip] AVO (Сербин) + AVO (Живов) Galfimbul 23453347842.18 GB 0 0 1528169408

06:30

5-Июн-18

Зарубежные фильмы 2016-2019 (Новинки зарубежного кино) ·· Мумия / The Mummy (Алекс Куртцман / Alex Kurtzman) [2017, США, фэнтези, боевик, триллер, приключения, WEB-DLRip] [Локализованный видеоряд] Dub Galfimbul 15695831041.46 GB 0 0 1513188084

21:01

13-Дек-17

Зарубежные фильмы до 2016 ·· Мумия / The Mummy (Алекс Куртцман / Alex Kurtzman) [2017, Китай, Япония, США, Фэнтези, боевик, триллер, приключения, DVD5 (сжатый)] исх. R2, Dub + Sub Rus + Original Eng Galfimbul 46912532484.37 GB 0 0 1510081568

22:06

7-Ноя-17

Зарубежные фильмы до 2016 ·· Мумия / The Mummy (Алекс Куртцман / Alex Kurtzman) [2017, США, Фантастика, боевик, приключения, DVD9] Dub + Sub Rus + Original Eng Galfimbul 80271054967.48 GB 0 0 1509514577

08:36

1-Ноя-17

Зарубежные фильмы до 2016 ·· Мумия / The Mummy (Алекс Куртцман / Alex Kurtzman) [2017, США, фэнтези, боевик, триллер, приключения, BD>DVD9 (Custom)] DUB + AVO (В. Дохалов) + Sub Rus / Eng + Original Eng Galfimbul 83404103687.77 GB 0 0 1509199570

17:06

28-Окт-17

Зарубежные фильмы 2016-2019 (Новинки зарубежного кино) ·· Мумия / The Mummy (Алекс Куртцман / Alex Kurtzman) [2017, США, фэнтези, боевик, триллер, WEBRip-AVC] [Локализованный видеоряд] Dub + Sub Rus Eng + Original Eng Galfimbul 23578525052.2 GB 0 0 1508533277

00:01

21-Окт-17

Зарубежные фильмы 2016-2019 (Новинки зарубежного кино) ·· Мумия / The Mummy (Алекс Куртцман / Alex Kurtzman) [2017, США, боевик, триллер, приключения, BDRip] AVO (Вартан Дохалов) Galfimbul 15714324481.46 GB 0 0 1508000474

20:01

14-Окт-17

Зарубежные фильмы до 2016 ·· Мумия / The Mummy (Стивен Соммерс / Stevan Sommers) [1080p/DVD9] [1999, Фантастика, приключения, BDRip] Galfimbul 101707003289.47 GB 0 0 1507680319

03:05

11-Окт-17

Зарубежные фильмы 2016-2019 (Новинки зарубежного кино) ·· Мумия / The Mummy (Алекс Куртцман / Alex Kurtzman) [2017, США, фэнтези, боевик, триллер, приключения, BDRip] Dub (CEE) + Original Eng + subs (Rus F, Rus, Eng, Eng SDH, Eng SDH Colored) Galfimbul 23446949352.18 GB 0 0 1507226490

21:01

5-Окт-17

Зарубежные фильмы 2016-2019 (Новинки зарубежного кино) ·· Мумия / The Mummy (Алекс Куртцман / Alex Kurtzman) [2017, США, фэнтези, боевик, триллер, BDRip-AVC] Dub + Sub (rus) Galfimbul 781879401746 MB 0 0 1506499277

11:01

27-Сен-17

Зарубежные фильмы 2016-2019 (Новинки зарубежного кино) ·· Мумия / The Mummy (Алекс Куртцман / Alex Kurtzman) [2017, США, фэнтези, боевик, триллер, BDRip-AVC] Dub + Original + Sub (rus, eng) Galfimbul 31867494102.97 GB 0 0 1506497414

10:30

27-Сен-17

Трейлеры и дополнительные материалы ·· Мумия / The Mummy (Алекс Куртцман) [2017, Фэнтези | Боевик | Приключения, BDRip 720p] дополнительные материалы Galfimbul 24364136402.27 GB 0 0 1506275027

20:43

24-Сен-17

Зарубежные фильмы до 2016 ·· Мумия / The Mummy (Алекс Куртцман / Alex Kurtzman) [2017, США, фэнтези, боевик, триллер, приключения, Blu-ray disc 1080p] [EUR] Dub + Sub Rus, Eng + Original Eng Galfimbul 4613784774942.97 GB 0 0 1506258605

16:10

24-Сен-17

Зарубежные фильмы 2016-2019 (Новинки зарубежного кино) ·· Мумия / The Mummy (Алекс Куртцман) [2017 г., фэнтези, боевик, триллер, приключения, BDRip] DUB | Лицензия Galfimbul 15676230381.46 GB 0 0 1506249486

13:38

24-Сен-17

Зарубежные фильмы 2016-2019 (Новинки зарубежного кино) ·· Мумия / The Mummy (Алекс Куртцман / Alex Kurtzman) [2017, США, фэнтези, боевик, триллер, приключения, Blu-Ray EUR 1080p] Лицензия Galfimbul 4613784774942.97 GB 0 0 1506232820

09:00

24-Сен-17

Еще никто не оставлял запись к записи скачать торрент Мумия The Mummy . Будь первым!

!Обратная связь