Скачать через торрент Сплит Split Фильм бесплатно в хорошем качестве torrent

Скачивайте на UnionPeer.org фильмы через торрент без регистрации. Новинки кино в хорошем качестве через торрент. На UnionPeer.org можно скачать через торрент фильмы 2014 и 2015 годов. Самые новые фильмы.

Скачать торрент Сплит Split бесплатно через .torrent фильм мультфильм сериал

Статистика раздачи
Размер:  1.46 GB   |    Зарегистрирован:  6 лет 4 месяца   |    .torrent скачан:  28 раз   |   
Раздают:  1  
 

Скачать Сплит / Split / Seupeulrit (Чхве Гук-хи / Choi Gook-hee) [2016, Южная Корея, драма, экшн, спорт, криминал, HDRip] + Sub Rus через torrent

 
 
Автор Сообщение

Galfimbul

avatar Galfimbul


Сплит
Split

Seupeulrit
Страна: Южная Корея
Жанр: драма, экшн, спорт, криминал
Год выпуска: 2016
Продолжительность: 02:02:04

Субтитры: русские - hardsubРелиз группы:GreatGroup & FSG Black pearlПеревод: Veronika, Noel Kortnan, Black Angel

Режиссер: Чхве Гук-хи / Choi Gook-hee

В ролях:
Ю Джи-тхэ / Yoo Ji-tae
Ли Дэвид / Lee David
Ли Джон-хён / Lee Jeong-hyeon
Квон Хэ-хё / Kwon Hae-hyo
Пак Чхоль-мин / Park Cheol-min
Чо Ван-ги / Jo Wan-gi
Чон Хён-сук / Jeon Hyeon-sook
Чан Хёк-чин / Jang Hyeok-jin

Описание:
Юн Чён Ен, в прошлом, гениальный игрок в боулинг, бывший профессиональный чемпион - после полученной травмы прозябает на самом дне своей жизни, подрабатывая случайными играми, пытаясь найти молодых и талантливых игроков в боулинг для организации поединков на деньги. Но, к сожалению, много денег эти навыки не приносят, пока на горизонте не появляется удивительно талантливый и одаренный боулингист, но... с ним не так легко и просто "договориться"...

Доп. информация:




Сэмпл: http://sendfile.su/1364111

Качество видео: HDRip
Формат видео: AVI

Видео: XviD, 720x408, 23,976 fps, 0.215 бит, 1512 Кбит/сек
Аудио: AC-3, 48,0 КГц, 192 Кбит/сек, 2 ch
ОбщееПолное имя : D:\Сплит\Сплит.aviФормат : AVIФормат/Информация : Audio Video InterleaveРазмер файла : 1,46 ГбайтПродолжительность : 2 ч. 2 м.Общий поток : 1713 Кбит/секПрограмма кодирования : VirtualDubMod 1.5.10.3 | www.virtualdub-fr.org || (build 2550/release)Библиотека кодирования : VirtualDubMod build 2550/release

ВидеоИдентификатор : 0Формат : MPEG-4 VisualПрофиль формата : Advanced Simple@L5Параметр BVOP формата : 1Параметр QPel формата : НетПараметр GMC формата : Без точки переходаПараметр матрицы формата : Default (H.263)Идентификатор кодека : XVIDИдентификатор кодека/Подсказка : XviDПродолжительность : 2 ч. 2 м.Битрейт : 1512 Кбит/секШирина : 720 пикселейВысота : 408 пикселейСоотношение сторон : 16:9Частота кадров : 23,976 (23976/1000) кадра/секЦветовое пространство : YUVСубдискретизация насыщенности : 4:2:0Битовая глубина : 8 битТип развёртки : ПрогрессивнаяМетод сжатия : С потерямиБит/(Пиксели*Кадры) : 0.215Размер потока : 1,29 Гбайт (88%)Библиотека кодирования : XviD 1.2.1 (UTC 2008-12-04)

АудиоИдентификатор : 1Формат : AC-3Формат/Информация : Audio Coding 3Расширение режима : CM (complete main)Параметр Endianness формата : BigИдентификатор кодека : 2000Продолжительность : 2 ч. 2 м.Вид битрейта : ПостоянныйБитрейт : 192 Кбит/секКаналы : 2 каналаРасположение каналов : Front: L RЧастота : 48,0 КГцЧастота кадров : 31,250 кадров/сек (1536 spf)Метод сжатия : С потерямиРазмер потока : 168 Мбайт (11%)Выравнивание : Разделение по промежуткамПродолжительность промежутка : 42 мс. (1,00 видеокадр)Время предзагрузки промежутка : 500 мс.



Внимание! AdBlock блокирует показ скриншотов, все вопросы к разработчикам )))
Трекер:  [ 24-Сен-2017 20:01 ]

  

Скачать .torrent

Размер .torrent файла 15 KB


Размер: 1.46 GB
Хэш (hash) релиза: 100c0b5a1248dc894ef4dbe7f3ae1248e344d319
Подписка на обновления:

Еще никто не оставлял запись к записи скачать торрент Сплит Split . Будь первым!

!Обратная связь