Скачать через торрент Отряд самоубийц Suicide Squad Фильм бесплатно в хорошем качестве torrent

Скачивайте на UnionPeer.org фильмы через торрент без регистрации. Новинки кино в хорошем качестве через торрент. На UnionPeer.org можно скачать через торрент фильмы 2014 и 2015 годов. Самые новые фильмы.

Скачать торрент Отряд самоубийц Suicide Squad бесплатно через .torrent фильм мультфильм сериал

Статистика раздачи
Размер:  1.46 GB   |    Зарегистрирован:  6 лет 4 месяца   |    .torrent скачан:  196 раз   |   
Раздают:  1  
 

Скачать Отряд самоубийц / Suicide Squad / Расширенная версия / Extended Edition (Дэвид Эйр / David Ayer) [2016, США, фантастика, боевик, BDRip] AVO (Юрий Живов) через torrent

 
 
Автор Сообщение

Galfimbul

avatar Galfimbul


Отряд самоубийц / Suicide Squad / Расширенная версия / Extended Edition

Страна: США
Жанр: фантастика, боевик
Год выпуска: 2016
Продолжительность: 02:14:32

Перевод: Авторский (одноголосый закадровый) Юрий Живов
Субтитры: нет
Режиссер: Дэвид Эйр / David Ayer

В ролях: Марго Робби, Уилл Смит, Джаред Лето, Джай Кортни, Кара Делевинь, Джей Эрнандес, Юэль Киннаман, Виола Дэвис

Описание: Однажды директорше Агентства Национальной Безопасности привиделся жуткий кошмар – Супермену надоело летать над крышами небоскребов и вечно спасать мир. Когда Супермен бросил это позорное занятие, то явился в Белый Дом, выгнал оттуда к чертовой бабушке президента, сел в кресло в Овальном кабинете и заявил: «Этот домик мой немножко будет». Проснулась директорша в холодном поту и возопила – кто, кто спасет нас от съехавших с катушек супергероев? Ну конечно, только «Отряд Х» – отмороженная бригада из суперзлодеев, мотающих срок по тюрьмам да по темницам. И в самом деле – случись что, так их не жалко, а выйдут они из-под контроля, так у каждого на этот случай вживленная бомба имеется. И только этот бравый отряд успели собрать, как тут же во мрачном подземелье обнаружился древний злобный бог, решивший без шума и пыли весь мир к своим грязным лапам прибрать....

Рейтинг фильма : -- IMDB / 6,2

Сэмпл: https://yadi.sk/i/PAmViKh03NBKE6

Качество видео: BDRip (Исходник Suicide.Squad.2016.Extended.BDRemux.mkv / KinoZal)
Формат видео: AVI

Видео: XviD 73, 720x304, (2,35:1), 23,976 fps, 1316 Кбит/с, 8 бит, 0.25 bit/pixel
Аудио: Русский (АС3, 2 ch (Front: L R), 48,0 KHz, (stereo) 224 Kbps)
ОбщееПолное имя : D:\Видеофильмы\В и д е о\Отряд самоубийц (фантастика, боевик 2016 год).aviФормат : AVIФормат/Информация : Audio Video InterleaveРазмер файла : 1,46 ГбайтПродолжительность : 2 ч. 14 м.Общий поток : 1549 Кбит/секПрограмма кодирования : VirtualDubMod 1.5.10.3 | www.virtualdub-fr.org || (build 2550/release)Библиотека кодирования : VirtualDubMod build 2550/release

ВидеоИдентификатор : 0Формат : MPEG-4 VisualПрофиль формата : Advanced Simple@L5Параметр BVOP формата : 2Параметр QPel формата : НетПараметр GMC формата : Без точки переходаПараметр матрицы формата : ВыборочнаяИдентификатор кодека : XVIDИдентификатор кодека/Подсказка : XviDПродолжительность : 2 ч. 14 м.Битрейт : 1316 Кбит/секШирина : 720 пикселейВысота : 304 пикселяСоотношение сторон : 2,35:1Частота кадров : 23,976 (23976/1000) кадра/секЦветовое пространство : YUVСубдискретизация насыщенности : 4:2:0Битовая глубина : 8 битТип развёртки : ПрогрессивнаяМетод сжатия : С потерямиБит/(Пиксели*Кадры) : 0.251Размер потока : 1,24 Гбайт (85%)Библиотека кодирования : XviD 73

АудиоИдентификатор : 1Формат : AC-3Формат/Информация : Audio Coding 3Расширение режима : CM (complete main)Параметр Endianness формата : BigИдентификатор кодека : 2000Продолжительность : 2 ч. 14 м.Вид битрейта : ПостоянныйБитрейт : 224 Кбит/секКаналы : 2 каналаРасположение каналов : Front: L RЧастота : 48,0 КГцЧастота кадров : 31,250 кадров/сек (1536 spf)Метод сжатия : С потерямиРазмер потока : 216 Мбайт (14%)Выравнивание : Разделение по промежуткамПродолжительность промежутка : 42 мс. (1,00 видеокадр)Время предзагрузки промежутка : 500 мс.


Внимание! AdBlock блокирует показ скриншотов, все вопросы к разработчикам )))
Трекер:  [ 25-Сен-2017 18:30 ]

  

Скачать .torrent

Размер .torrent файла 15 KB


Размер: 1.46 GB
Хэш (hash) релиза: c69f6ae511c44f2853f075ab1313756a648fe066
Подписка на обновления:

Еще никто не оставлял запись к записи скачать торрент Отряд самоубийц Suicide Squad . Будь первым!

!Обратная связь