Скачать через торрент Могучие рейнджеры Power Rangers Фильм бесплатно в хорошем качестве torrent

Скачивайте на UnionPeer.org фильмы через торрент без регистрации. Новинки кино в хорошем качестве через торрент. На UnionPeer.org можно скачать через торрент фильмы 2014 и 2015 годов. Самые новые фильмы.

Скачать торрент Могучие рейнджеры Power Rangers бесплатно через .torrent фильм мультфильм сериал

Статистика раздачи
Размер:  2.85 GB   |    Зарегистрирован:  6 лет 4 месяца   |    .torrent скачан:  92 раза   |   
Раздают:  1  
   
 
Автор Сообщение

Galfimbul

avatar Galfimbul


Могучие рейнджеры
Power Rangers

«Back to action!»

Страна: США, Гонконг, Япония, Мексика, Канада, Новая Зеландия
Жанр: фантастика, боевик, приключения

Год выпуска: 2017
Продолжительность: 02:03:58

Перевод: Профессиональный (полное дублирование) [iTunes]
Субтитры: русские (форсированные, полные), английские (полные, SDH, SDH цветные)
Оригинальная аудиодорожка: английский

Режиссер: Дин Израэлайт / Dean Israelite

В ролях: Дакре Монтгомери, Наоми Скотт, АрДжей Сайлер, Луди Линь, Бекки Джи, Элизабет Бэнкс, Брайан Крэнстон, Билл Хейдер, Мэтт Шайвли, Коуди Кирсли, Дэвид Денман, Роберт Молони

Описание:
Пять обычных старшеклассников узнают, что их маленький город Энджел Гроув и весь мир находятся на грани уничтожения инопланетной угрозой. Избранные судьбой наши герои быстро понимают, что они единственные, кто может спасти планету.



Автор рипа: stalkerok

Сэмпл

Качество видео: BDRip-AVC [Power Rangers (2017) Blu-ray Disc - BLUEBIRD]
Формат видео: MKV

Видео: 2465 Кбит/сек, 1104*460 (2,40:1), в 23,976 (24000/1001) кадра/сек, AVC
Аудио #1: русский, 384 Кбит/сек, 48,0 КГц, 6 каналов, AC-3
Аудио #2: английский, 448 Кбит/сек, 48,0 КГц, 6 каналов, AC-3
Навигация по главам: есть
x264 [info]: frame I:1312 Avg QP:14.93 size: 69604
x264 [info]: frame P:48545 Avg QP:18.65 size: 23646
x264 [info]: frame B:128492 Avg QP:20.94 size: 8113

Общее
Уникальный идентификатор : 247003502115923230339660518175072300030 (0xB9D324E459D071F09BBA3C7BB90BABFE)
Полное имя : M:\!Rips2017\Power Rangers\Power.Rangers.2017.BDRip-AVC.RUS.ENG.stalkerok.new-team.mkv
Формат : Matroska
Версия формата : Version 4 / Version 2
Размер файла : 2,85 Гбайт
Продолжительность : 2 ч. 3 м.
Общий поток : 3288 Кбит/сек
Название фильма : Power Rangers (2017) (Rip by stalkerok)
Дата кодирования : UTC 2017-09-26 21:13:52
Программа кодирования : mkvmerge v8.6.1 ('Flying') 64bit
Библиотека кодирования : libebml v1.3.3 + libmatroska v1.4.4

Видео
Идентификатор : 1
Формат : AVC
Формат/Информация : Advanced Video Codec
Профиль формата : [email protected]
Параметр CABAC формата : Да
Параметр ReFrames формата : 14 кадров
Идентификатор кодека : V_MPEG4/ISO/AVC
Продолжительность : 2 ч. 3 м.
Битрейт : 2465 Кбит/сек
Ширина : 1104 пикселя
Высота : 460 пикселей
Соотношение сторон : 2,40:1
Режим частоты кадров : Постоянный
Частота кадров : 23,976 (24000/1001) кадра/сек
Цветовое пространство : YUV
Субдискретизация насыщенности : 4:2:0
Битовая глубина : 8 бит
Тип развёртки : Прогрессивная
Бит/(Пиксели*Кадры) : 0.202
Размер потока : 2,13 Гбайт (75%)
Заголовок : Power Rangers (2017) (Rip by stalkerok)
Библиотека кодирования : x264 core 150 r2833kMod df79067
Настройки программы : cabac=1 / ref=14 / deblock=1:-3:-2 / analyse=0x3:0x133 / me=umh / subme=10 / psy=1 / fade_compensate=0.00 / psy_rd=1.00:0.00 / mixed_ref=1 / me_range=32 / chroma_me=1 / trellis=2 / 8x8dct=1 / cqm=0 / deadzone=21,11 / fast_pskip=0 / chroma_qp_offset=-2 / threads=12 / lookahead_threads=3 / sliced_threads=0 / nr=0 / decimate=0 / interlaced=0 / bluray_compat=0 / constrained_intra=0 / bframes=14 / b_pyramid=2 / b_adapt=2 / b_bias=0 / direct=3 / weightb=1 / open_gop=0 / weightp=2 / keyint=240 / keyint_min=23 / scenecut=40 / intra_refresh=0 / rc_lookahead=60 / rc=2pass / mbtree=0 / bitrate=2465 / ratetol=1.0 / qcomp=0.65 / qpmin=0 / qpmax=69 / qpstep=4 / cplxblur=20.0 / qblur=0.5 / vbv_maxrate=50000 / vbv_bufsize=62500 / nal_hrd=none / filler=0 / ip_ratio=1.40 / pb_ratio=1.30 / aq=3:0.80
Default : Да
Forced : Нет

Аудио #1
Идентификатор : 2
Формат : AC-3
Формат/Информация : Audio Coding 3
Расширение режима : CM (complete main)
Параметр Endianness формата : Big
Идентификатор кодека : A_AC3
Продолжительность : 2 ч. 3 м.
Вид битрейта : Постоянный
Битрейт : 384 Кбит/сек
Каналы : 6 каналов
Расположение каналов : Front: L C R, Side: L R, LFE
Частота : 48,0 КГц
Частота кадров : 31,250 кадров/сек (1536 spf)
Метод сжатия : С потерями
Размер потока : 340 Мбайт (12%)
Язык : Russian
Default : Да
Forced : Нет

Аудио #2
Идентификатор : 3
Формат : AC-3
Формат/Информация : Audio Coding 3
Расширение режима : CM (complete main)
Параметр Endianness формата : Big
Идентификатор кодека : A_AC3
Продолжительность : 2 ч. 3 м.
Вид битрейта : Постоянный
Битрейт : 448 Кбит/сек
Каналы : 6 каналов
Расположение каналов : Front: L C R, Side: L R, LFE
Частота : 48,0 КГц
Частота кадров : 31,250 кадров/сек (1536 spf)
Метод сжатия : С потерями
Размер потока : 397 Мбайт (14%)
Язык : English
Default : Нет
Forced : Нет

Текст #1
Идентификатор : 4
Формат : UTF-8
Идентификатор кодека : S_TEXT/UTF8
Идентификатор кодека/Информация : UTF-8 Plain Text
Продолжительность : 1 ч. 51 м.
Битрейт : 2 бит/сек
Count of elements : 42
Размер потока : 1,87 Кбайт (0%)
Заголовок : Forced
Язык : Russian
Default : Да
Forced : Нет

Текст #2
Идентификатор : 5
Формат : UTF-8
Идентификатор кодека : S_TEXT/UTF8
Идентификатор кодека/Информация : UTF-8 Plain Text
Продолжительность : 1 ч. 55 м.
Битрейт : 99 бит/сек
Count of elements : 1660
Размер потока : 83,8 Кбайт (0%)
Язык : Russian
Default : Нет
Forced : Нет

Текст #3
Идентификатор : 6
Формат : UTF-8
Идентификатор кодека : S_TEXT/UTF8
Идентификатор кодека/Информация : UTF-8 Plain Text
Продолжительность : 1 ч. 52 м.
Битрейт : 56 бит/сек
Count of elements : 1623
Размер потока : 46,7 Кбайт (0%)
Язык : English
Default : Нет
Forced : Нет

Текст #4
Идентификатор : 7
Формат : UTF-8
Идентификатор кодека : S_TEXT/UTF8
Идентификатор кодека/Информация : UTF-8 Plain Text
Продолжительность : 1 ч. 55 м.
Битрейт : 67 бит/сек
Count of elements : 1889
Размер потока : 56,9 Кбайт (0%)
Заголовок : SDH
Язык : English
Default : Нет
Forced : Нет

Текст #5
Идентификатор : 8
Формат : UTF-8
Идентификатор кодека : S_TEXT/UTF8
Идентификатор кодека/Информация : UTF-8 Plain Text
Продолжительность : 1 ч. 55 м.
Битрейт : 98 бит/сек
Count of elements : 1900
Размер потока : 82,7 Кбайт (0%)
Заголовок : SDH COLORED
Язык : English
Default : Нет
Forced : Нет

Меню
00:00:00.000 : en:Chapter 1
00:11:43.536 : en:Chapter 2
00:22:34.186 : en:Chapter 3
00:30:52.308 : en:Chapter 4
00:40:06.487 : en:Chapter 5
00:49:44.564 : en:Chapter 6
01:01:31.187 : en:Chapter 7
01:13:15.015 : en:Chapter 8
01:24:13.339 : en:Chapter 9
01:34:11.687 : en:Chapter 10
01:45:09.303 : en:Chapter 11
01:53:45.318 : en:Chapter 12


Внимание! AdBlock блокирует показ скриншотов, все вопросы к разработчикам )))
Трекер:  [ 30-Сен-2017 00:01 ]

  

Скачать .torrent

Размер .torrent файла 15 KB


Размер: 2.85 GB
Хэш (hash) релиза: 4cfb9c41b307635001530ad9074965be33f4383e
Подписка на обновления:

Торренты, похожие на Могучие рейнджеры Power Rangers скачать торрент

Форум Название Автор Размер S L Добавлен
Зарубежные фильмы 2016-2019 (Новинки зарубежного кино) ·%· Могучие рейнджеры / Power Rangers (2017) BDRip 720p от k.e.n & MegaPeer | D, A Galfimbul 51112566514.76 GB 0 0 1589188848

12:20

11-Май-20

Зарубежные фильмы 2016-2019 (Новинки зарубежного кино) ·%· Могучие рейнджеры / Power Rangers (2017) WEBRip 1080p | D | Open Matte | Локализованная версия Galfimbul 53964991155.03 GB 0 0 1554354608

08:10

4-Апр-19

Зарубежные фильмы 2016-2019 (Новинки зарубежного кино) ·· Могучие рейнджеры / Power Rangers (Дин Израэлайт / Dean Israelite) [2017, США, Гонконг, Япония, Мексика, Канада, Новая Зеландия, фантастика, боевик, приключения, BDRip] AVO (Володарский) Galfimbul 22220492802.07 GB 0 0 1524065410

18:30

18-Апр-18

Зарубежные фильмы 2016-2019 (Новинки зарубежного кино) ·· Могучие рейнджеры / Power Rangers (Дин Израэлайт) [2017 г., фантастика, боевик, приключения, DVD5] Galfimbul 46988533764.38 GB 0 0 1512040227

14:10

30-Ноя-17

Зарубежные фильмы 2016-2019 (Новинки зарубежного кино) ·· Могучие рейнджеры / Power Rangers (Дин Израэлайт) [2017 г., фантастика, боевик, приключения, HDRip] DUB | Лицензия Galfimbul 15599185921.45 GB 0 0 1509018574

14:49

26-Окт-17

Зарубежные фильмы 2016-2019 (Новинки зарубежного кино) ·· Могучие рейнджеры / Power Rangers (Дин Израэлайт / Dean Israelite) [2017, США, Фантастика, боевик, приключения, BDRip] Dub + Sub Rus, Eng + Original Eng Galfimbul 23441079182.18 GB 0 0 1506720622

00:30

30-Сен-17

Зарубежные фильмы 2016-2019 (Новинки зарубежного кино) ·· Могучие рейнджеры / Power Rangers (Дин Израэлайт / Dean Israelite) [2017, США, Гонконг, Япония, Мексика, Канада, Новая Зеландия, фантастика, боевик, приключения, BDRip-AVC] Dub + Sub Rus Galfimbul 781838951746 MB 0 0 1506688218

15:30

29-Сен-17

Зарубежные фильмы 2016-2019 (Новинки зарубежного кино) ·· Могучие рейнджеры / Power Rangers (Дин Израэлайт) [2017 г., фантастика, боевик, приключения, BDRip 720p] DUB | iTunes Galfimbul 71684204406.68 GB 0 0 1506410713

10:25

26-Сен-17

Зарубежные фильмы 2016-2019 (Новинки зарубежного кино) ·· Могучие рейнджеры / Power Rangers (Дин Израэлайт) [2017 г., фантастика, боевик, приключения, HDRip] DUB | iTunes Galfimbul 22045552642.05 GB 0 0 1506410712

10:25

26-Сен-17

Зарубежные фильмы 2016-2019 (Новинки зарубежного кино) ·· Могучие рейнджеры / Power Rangers (Дин Израэлайт) [2017 г., фантастика, боевик, приключения, HDRip] DUB | iTunes Galfimbul 14696509441.37 GB 0 0 1506410710

10:25

26-Сен-17

Зарубежные фильмы 2016-2019 (Новинки зарубежного кино) ·· Могучие рейнджеры / Power Rangers (Дин Израэлайт / Dean Israelite) [2017, США, Фантастика, боевик, приключения, BDRip] Dub + Sub Galfimbul 15694650131.46 GB 0 0 1506400216

07:30

26-Сен-17

Зарубежные фильмы до 2016 ·· Могучие рейнджеры / Power Rangers (Дин Израэлайт / Dean Israelite) [2017, США, Гонконг, Япония, Мексика, Канада, Новая Зеландия, фантастика, боевик, приключения, BDRip 720] (Reivahist) + Sub Rus + Original Eng Galfimbul 58662900545.46 GB 0 0 1505454015

08:40

15-Сен-17

Зарубежные фильмы 2016-2019 (Новинки зарубежного кино) ·· Могучие рейнджеры / Power Rangers (Дин Израэлайт) [2017 г., фантастика, боевик, приключения, BDRip 720p] DUB | Чистый звук Galfimbul 56089375355.22 GB 0 0 1497954040

13:20

20-Июн-17

Зарубежные фильмы 2016-2019 (Новинки зарубежного кино) ·· Могучие рейнджеры / Power Rangers (Дин Израэлайт) [2017 г., фантастика, боевик, приключения, HDRip] DUB | Чистый звук Galfimbul 22042910722.05 GB 0 0 1497954038

13:20

20-Июн-17

Зарубежные фильмы 2016-2019 (Новинки зарубежного кино) ·· Могучие рейнджеры / Power Rangers (Дин Израэлайт) [2017 г., фантастика, боевик, приключения, HDRip] DUB | Чистый звук Galfimbul 14672650241.37 GB 0 0 1497954033

13:20

20-Июн-17

Зарубежные фильмы 2016-2019 (Новинки зарубежного кино) ·· Могучие рейнджеры / Power Rangers (Дин Израэлайт) [2017 г., фантастика, боевик, приключения, WEB-DLRip] Galfimbul 790038724753 MB 0 0 1497655225

02:20

17-Июн-17

Зарубежные фильмы 2016-2019 (Новинки зарубежного кино) ·· Могучие рейнджеры / Power Rangers (Дин Израэлайт) [2017 г., фантастика, боевик, приключения, WEB-DL 720p] MVO | MUZOBOZ Galfimbul 42701628843.98 GB 0 0 1497615949

15:25

16-Июн-17

Зарубежные фильмы 2016-2019 (Новинки зарубежного кино) ·· Могучие рейнджеры / Power Rangers (Дин Израэлайт) [2017 г., фантастика, боевик, приключения, WEB-DLRip] MVO | MUZOBOZ Galfimbul 22038753282.05 GB 0 0 1497615944

15:25

16-Июн-17

Зарубежные фильмы 2016-2019 (Новинки зарубежного кино) ·· Могучие рейнджеры / Power Rangers (Дин Израэлайт) [2017 г., фантастика, боевик, приключения, WEB-DLRip] MVO | MUZOBOZ Galfimbul 14724362241.37 GB 0 0 1497615937

15:25

16-Июн-17

Еще никто не оставлял запись к записи скачать торрент Могучие рейнджеры Power Rangers . Будь первым!

!Обратная связь