Скачать через торрент Земля обетованная The Land Фильм бесплатно в хорошем качестве torrent

Скачивайте на UnionPeer.org фильмы через торрент без регистрации. Новинки кино в хорошем качестве через торрент. На UnionPeer.org можно скачать через торрент фильмы 2014 и 2015 годов. Самые новые фильмы.

Скачать торрент Земля обетованная The Land бесплатно через .torrent фильм мультфильм сериал

Статистика раздачи
Размер:  3.01 GB   |    Зарегистрирован:  6 лет 4 месяца   |    .torrent скачан:  28 раз   |   
Раздают:  1  
 

Скачать Земля обетованная / The Land (Стивен Кейпл мл.) [2016, драма, WEB-DLRip 720p] через torrent

 
 
Автор Сообщение

Galfimbul

avatar Galfimbul


Наименование: Земля обетованная
Оригинальное наименование: The Land
Произведено: США
Категория: драма
Режиссер постановщик: Стивен Кейпл мл.
В главных ролях: Хорхе Лендеборг мл., Мойзес Ариас, Рафи Гаврон, Эзри Уокер, Машин Ган Келли, Роберт Хантер, Мелвин Грегг, Кристофер Амитрано, Надя Симмс, Эшли Морган

О фильме:
История четверых подростков, которые одним летом решают оставить улицы Кливленда, чтобы начать жить своей мечтой — профессиональным скейтбордингом. Однако нарвавшись на местных наркоторговцев, их братству предстоит настоящее испытание, ведь это лето может стать для них последним.



Файл
Качество: WEB-DLRip 720p
Видео данные: MKV, 1280x536 (2.40:1), 23.976 fps, 4000 Кбит/с
Аудио данные: Русский (MP3, 2 ch, 320 Кбит/с)
Перевод: Любительский многоголосый (GreenРай Studio)
Продолжительность: 01:42:02
General
Unique ID : 235949511834576014773393064997694548886 (0xB1823917E06070C9B32AE340D6ED2B96)
Complete name : D:Рабочий столThe.Land.2016.P.WEB-DL.720p.mkv
Format : Matroska
Format version : Version 4 / Version 2
File size : 3.01 GiB
Duration : 1 h 42 min
Overall bit rate mode : Constant
Overall bit rate : 4 208 kb/s
Encoded date : UTC 2017-10-08 15:45:45
Writing application : mkvmerge v8.3.0 ('Over the Horizon') 64bit
Writing library : libebml v1.3.1 + libmatroska v1.4.2

Video
ID : 1
Format : AVC
Format/Info : Advanced Video Codec
Format profile : [email protected]
Format settings, CABAC : Yes
Format settings, ReFrames : 3 frames
Codec ID : V_MPEG4/ISO/AVC
Duration : 1 h 42 min
Bit rate mode : Constant
Bit rate : 4 000 kb/s
Width : 1 280 pixels
Height : 536 pixels
Display aspect ratio : 2.40:1
Frame rate mode : Constant
Frame rate : 23.976 (23976/1000) FPS
Standard : NTSC
Color space : YUV
Chroma subsampling : 4:2:0
Bit depth : 8 bits
Scan type : Progressive
Bits/(Pixel*Frame) : 0.243
Stream size : 2.78 GiB (92%)
Language : English
Default : Yes
Forced : No
Color range : Limited

Audio
ID : 2
Format : MPEG Audio
Format version : Version 1
Format profile : Layer 3
Mode : Joint stereo
Codec ID : A_MPEG/L3
Codec ID/Hint : MP3
Duration : 1 h 42 min
Bit rate mode : Constant
Bit rate : 320 kb/s
Channel(s) : 2 channels
Sampling rate : 48.0 kHz
Frame rate : 41.667 FPS (1152 spf)
Compression mode : Lossy
Stream size : 234 MiB (8%)
Default : Yes
Forced : No
ВНИМАНИЕ! Присутствует реклама! Релиз от:
Источник http://arutor.org

Внимание! AdBlock блокирует показ скриншотов, все вопросы к разработчикам )))
Трекер:  [ 09-Окт-2017 03:00 ]

  

Скачать .torrent

Размер .torrent файла 15 KB


Размер: 3.01 GB
Хэш (hash) релиза: 8b4c7814cbf2e22a753fd0443dc256fb7a200cd1
Подписка на обновления:

Торренты, похожие на Земля обетованная The Land скачать торрент

Форум Название Автор Размер S L Добавлен
Зарубежные фильмы 2016-2019 (Новинки зарубежного кино) ·· Земля обетованная / The Land (Стивен Кейпл мл.) [2016, драма, WEB-DLRip] Galfimbul 14677893121.37 GB 0 0 1471414491

09:14

17-Авг-16

Зарубежные фильмы 2016-2019 (Новинки зарубежного кино) ·· Земля обетованная / The Land (Стивен Кейпл мл.) [2016, драма, WEB-DL 720p] Galfimbul 33990104323.17 GB 0 0 1471414486

09:14

17-Авг-16

Еще никто не оставлял запись к записи скачать торрент Земля обетованная The Land . Будь первым!

!Обратная связь