Скачать порно через торрент [JugFuckers.com Brazzers.com] Gianna Michaels UnionPeer.org бесплатно онлайн HD качество

Скачать новое порно 2015, 2014 новинки через торрент UnionPeer.org

Порно торрент бесплатно ЮнионПир.орг

Статистика раздачи
Размер:  243 MB   |    Зарегистрирован:  6 лет 3 месяца   |    .torrent скачан:  653 раза   |   
Раздают:  1  
 

Скачать [JugFuckers.com / Brazzers.com] Gianna Michaels (Gianna Gets Her Juggs Fucked! / 09.06.2007) [2007 г., Big Ass, Big Tits, Big Tits Worship, Brunette, Gonzo, Natural Tits] через torrent

 
 
Автор Сообщение

Galfimbul

avatar Galfimbul


Имя актрисы: Gianna MichaelsНазвание ролика: Gianna Gets Her Juggs Fucked!Дата релиза: 09.06.2007Подсайт и сайт: JugFuckers.com / Brazzers.comГод производства: 2007 г.Жанр: Big Ass, Big Tits, Big Tits Worship, Brunette, Gonzo, Natural TitsПродолжительность: 00:27:34Описание: Holy shit look who it is!!!! Gianna Michaels!! This top notch bitch loves getting her juggs fucked and ravaged!!The best part is her tits are fucking perfect and ALL NATURAL!!! Her sweet bouncy ass just adds to the excitement!!! Come watch this sexy broad get juggfucked and watch the cum squirt all over her huge rack!!!Формат видео: MP4Видео: MPEG4 Video (H264) 640x480 29.97fps 1099kbpsАудио: AAC 48000Hz stereo 127kbps
[JugFuckers.com]Gianna Gets Her Juggs Fucked!480p.mp4
General
Complete name : [JugFuckers.com]Gianna Gets Her Juggs Fucked!480p.mp4
Format : MPEG-4
Format profile : Base Media
Codec ID : isom (isom/iso2/avc1/mp41)
File size : 243 MiB
Duration : 27 min 33 s
Overall bit rate mode : Variable
Overall bit rate : 1 233 kb/s
Encoded date : UTC 1970-01-01 00:00:00
Tagged date : UTC 1970-01-01 00:00:00
Video #1
ID : 1
Format : AVC
Format/Info : Advanced Video Codec
Format profile : [email protected]
Format settings, CABAC : No
Format settings, ReFrames : 1 frame
Codec ID : avc1
Codec ID/Info : Advanced Video Coding
Duration : 27 min 33 s
Bit rate : 1 100 kb/s
Width : 640 pixels
Height : 480 pixels
Display aspect ratio : 4:3
Frame rate mode : Constant
Frame rate : 29.970 (29970/1000) FPS
Color space : YUV
Chroma subsampling : 4:2:0
Bit depth : 8 bits
Scan type : Progressive
Bits/(Pixel*Frame) : 0.119
Stream size : 217 MiB (89%)
Encoded date : UTC 1970-01-01 00:00:00
Tagged date : UTC 1970-01-01 00:00:00
Audio #2
ID : 2
Format : AAC
Format/Info : Advanced Audio Codec
Format profile : LC
Codec ID : 40
Duration : 27 min 33 s
Bit rate mode : Variable
Bit rate : 128 kb/s
Channel(s) : 2 channels
Channel positions : Front: L R
Sampling rate : 48.0 kHz
Frame rate : 46.875 FPS (1024 spf)
Compression mode : Lossy
Stream size : 25.2 MiB (10%)
Encoded date : UTC 1970-01-01 00:00:00
Tagged date : UTC 1970-01-01 00:00:00


Внимание! AdBlock блокирует показ скриншотов, все вопросы к разработчикам )))
Трекер:  [ 06-Ноя-2017 22:40 ]

  

Скачать .torrent

Размер .torrent файла 19 KB


Размер: 243 MB
Хэш (hash) релиза: be29c2925758ceffb8abc8a1d54ef531ab768fc3

Торренты, похожие на [JugFuckers.com Brazzers.com] Gianna Michaels скачать торрент

Форум Название Автор Размер S L Добавлен
Сайтрипы 1991-2010 / SiteRip's 1991-2010 ·· [JugFuckers.com / Brazzers.com] Gianna Michaels (Holy Moly Look at Those Boobs! / 25.08.2006) [2006 г., Big Ass, Big Tits Worship, Brunette, Gonzo, Huge Tits, Natural Tits] Galfimbul 262485384250 MB 0 0 1509992467

21:21

6-Ноя-17

Еще никто не оставлял запись к записи скачать торрент [JugFuckers.com Brazzers.com] Gianna Michaels . Будь первым!

!Обратная связь