Скачать порно через торрент [PornstarsLikeitBig.com Brazzers.com] Cassidey UnionPeer.org бесплатно онлайн HD качество

Скачать новое порно 2015, 2014 новинки через торрент UnionPeer.org

Порно торрент бесплатно ЮнионПир.орг

Статистика раздачи
Размер:  348 MB   |    Зарегистрирован:  6 лет 3 месяца   |    .torrent скачан:  311 раз   |   
Раздают:  1   Качают:  2  
 

Скачать [PornstarsLikeitBig.com / Brazzers.com] Cassidey (Big Dick Neighbor / 09.06.2008) [2008 г., Big Dick Worship, Black Hair, Natural Tits] через torrent

 
 
Автор Сообщение

Galfimbul

avatar Galfimbul


Имя актрисы: CassideyНазвание ролика: Big Dick NeighborДата выхода: 09.06.2008Подсайт и сайт: PornstarsLikeitBig.com / Brazzers.comГод производства: 2008 г.Жанр: Big Dick Worship, Black Hair, Natural TitsПродолжительность: 00:42:45Описание: Cassidey got a tip from a friend that a big dick had just acquired a house in the neighborhood. Being the horny slut that she is , she decided to bring him by a house warming gift. When Ramon arrived to his house , he was more then happy to prove that Cassidey''s friend was right, he does have a HUGE cock..Формат видео: MP4Видео: MPEG4 Video (H264) 640x480 25fps 1000kbpsАудио: AAC 48000Hz stereo 131kbps
[PornstarsLikeitBig.com].Big Dick Neighbor.mp4
General
Complete name : [PornstarsLikeitBig.com].Big Dick Neighbor.mp4
Format : MPEG-4
Format profile : Base Media
Codec ID : isom (isom/iso2/avc1/mp41)
File size : 348 MiB
Duration : 42 min 45 s
Overall bit rate mode : Variable
Overall bit rate : 1 138 kb/s
Writing application : Lavf54.63.104
Video #1
ID : 1
Format : AVC
Format/Info : Advanced Video Codec
Format profile : High@L3
Format settings, CABAC : Yes
Format settings, ReFrames : 4 frames
Codec ID : avc1
Codec ID/Info : Advanced Video Coding
Duration : 42 min 45 s
Bit rate : 1 000 kb/s
Width : 640 pixels
Height : 480 pixels
Display aspect ratio : 4:3
Frame rate mode : Constant
Frame rate : 25.000 FPS
Color space : YUV
Chroma subsampling : 4:2:0
Bit depth : 8 bits
Scan type : Progressive
Bits/(Pixel*Frame) : 0.130
Stream size : 306 MiB (88%)
Writing library : x264 core 142 r2389 956c8d8
Encoding settings : cabac=1 / ref=3 / deblock=1:0:0 / analyse=0x3:0x113 / me=hex / subme=7 / psy=1 / psy_rd=1.00:0.00 / mixed_ref=1 / me_range=16 / chroma_me=1 / trellis=1 / 8x8dct=1 / cqm=0 / deadzone=21,11 / fast_pskip=1 / chroma_qp_offset=-2 / threads=2 / lookahead_threads=1 / sliced_threads=0 / nr=0 / decimate=1 / interlaced=0 / bluray_compat=0 / constrained_intra=0 / bframes=3 / b_pyramid=2 / b_adapt=1 / b_bias=0 / direct=1 / weightb=1 / open_gop=0 / weightp=2 / keyint=250 / keyint_min=25 / scenecut=40 / intra_refresh=0 / rc_lookahead=40 / rc=abr / mbtree=1 / bitrate=1000 / ratetol=1.0 / qcomp=0.60 / qpmin=0 / qpmax=69 / qpstep=4 / vbv_maxrate=1750 / vbv_bufsize=2000 / nal_hrd=none / filler=0 / ip_ratio=1.40 / aq=1:1.00
Audio #2
ID : 2
Format : AAC
Format/Info : Advanced Audio Codec
Format profile : LC
Codec ID : 40
Duration : 42 min 45 s
Bit rate mode : Variable
Bit rate : 132 kb/s
Maximum bit rate : 1 750 kb/s
Channel(s) : 2 channels
Channel positions : Front: L R
Sampling rate : 48.0 kHz
Frame rate : 46.875 FPS (1024 spf)
Compression mode : Lossy
Stream size : 40.4 MiB (12%)
Default : Yes
Alternate group : 1


Внимание! AdBlock блокирует показ скриншотов, все вопросы к разработчикам )))
Трекер:  [ 10-Ноя-2017 15:40 ]

  

Скачать .torrent

Размер .torrent файла 14 KB


Размер: 348 MB
Хэш (hash) релиза: 1201dc433d830c1ef2ced259215605b098d4ffe4

Еще никто не оставлял запись к записи скачать торрент [PornstarsLikeitBig.com Brazzers.com] Cassidey . Будь первым!

!Обратная связь