Скачать через торрент музыку Hans Zimmer - Live In Prague - 2017, FLAC бесплатно без регистрации torrent

Если у вас наблюдаются проблемы со скриншотами, переходом по ссылками, скачиванием торрентов - проблемы в блокировщике рекламы AdBlock. #хорошегоДня!


Статистика раздачи
Размер:  842 MB   |    Зарегистрирован:  2 месяца 8 дней   |    .torrent скачан:  28 раз   |   
Раздают:  1  
   
Загрузка...
 
Автор Сообщение

Galfimbul

avatar Galfimbul


Hans Zimmer - Live In Prague

Название альбома: Hans Zimmer - Live In Prague
Жанр: Score
Композитор: Michael Giacchino
Год выпуска диска: 2017
Год выпуска фильма: ~
Производитель диска: EU
Издатель (лейбл): Eagle Records
Номер по каталогу: EDGCD670
Аудиокодек: FLAC
Тип рипа: tracks+.cue
Битрейт аудио: lossless
Продолжительность: 01:02:28 + 01:01:51 = 02:04:19
Источник: Спасибо, Filex
Наличие сканов в содержимом раздачи: да
CD1
01. Hans Zimmer - Opening Medley: Driving (Driving Miss Daisy), Discombobulate (Sherlock Holmes), Zoosters Breakout (Madagascar) (7:37)
02. Hans Zimmer - Crimson Tide (Crimson Tide) / 160 BPM (Angels and Demons) (12:14)
03. Hans Zimmer - Gladiator: The Wheat / The Battle / Elysium / Now We Are Free (12:41)
04. Hans Zimmer - Chevaliers de Sangreal (The Da Vinci Code) (4:24)
05. Hans Zimmer - The Lion King: Circle of Life (Prelude) / King of Pride Rock (Reprise) (7:09)
06. Hans Zimmer - Pirates of the Caribbean: Captain Jack Sparrow / One Day / Up Is Down / He's a Pirate (11:57)
07. Hans Zimmer - You're So Cool (True Romance) (2:12)
08. Hans Zimmer - Main Theme (Rain Man) (4:14)

CD2
01. Hans Zimmer - What Are You Going To Do When You Are Not Saving the World (Man of Steel) (4:50)
02. Hans Zimmer - Journey To the Line (The Thin Red Line) (6:38)
03. Hans Zimmer - The Electro Suite (Themes From The Amazing Spider-Man 2) (5:15)
04. Hans Zimmer - The Dark Knight Trilogy: Why So Serious? / Like a Dog Chasing Cars / Why Do We Fall? / Introduce a Little Anarchy / The Fire Rises (13:10)
05. Hans Zimmer - Aurora (5:57)
06. Hans Zimmer - Interstellar: Day One / Cornfield Chase / No Time for Caution / Stay (12:19)
07. Hans Zimmer - Inception: Half Remembered Dream / Dream Is Collapsing / Mombasa / Time (13:42)[/pre]
<div class="sp-wrap">
<div class="sp-head folded">CD1:</div>
<div class="sp-body">

Exact Audio Copy V1.3 from 2. September 2016

EAC extraction logfile from 9. November 2017, 17:38

Hans Zimmer / Hans Zimmer - Live in Prague

Used drive : PLEXTOR CD-R PX-230A Adapter: 1 ID: 0

Read mode : SecureUtilize accurate stream : YesDefeat audio cache : YesMake use of C2 pointers : No

Read offset correction : 738Overread into Lead-In and Lead-Out : NoFill up missing offset samples with silence : YesDelete leading and trailing silent blocks : NoNull samples used in CRC calculations : YesUsed interface : Native Win32 interface for Win NT & 2000Gap handling : Appended to previous track

Used output format : User Defined EncoderSelected bitrate : 1024 kBit/sQuality : HighAdd ID3 tag : NoCommand line compressor : C:\Program Files\Exact Audio Copy\Flac\flac.exeAdditional command line options : -6 -V -T "ARTIST=%artist%" -T "TITLE=%title%" -T "ALBUM=%albumtitle%" -T "DATE=%year%" -T "TRACKNUMBER=%tracknr%" -T "GENRE=%genre%" -T "COMMENT=%comment%" -T "ALBUMARTIST=%albuminterpret%" -T "COMPOSER=%composer%" -T "DISCNUMBER=%cdnumber%" -T "TOTALDISCS=%totalcds%" -T "TOTALTRACKS=%numtracks%" %source% -o %dest%

TOC of the extracted CD

Track | Start | Length | Start sector | End sector --------------------------------------------------------- 1 | 0:00.00 | 7:37.20 | 0 | 34294 2 | 7:37.20 | 12:14.20 | 34295 | 89364 3 | 19:51.40 | 12:41.06 | 89365 | 146445 4 | 32:32.46 | 4:24.09 | 146446 | 166254 5 | 36:56.55 | 7:09.30 | 166255 | 198459 6 | 44:06.10 | 11:57.28 | 198460 | 252262 7 | 56:03.38 | 2:12.27 | 252263 | 262189 8 | 58:15.65 | 4:14.00 | 262190 | 281239

Track 1

Filename C:\Ripped by Filex\01 - Opening Medley.wav

Pre-gap length 0:00:02.00

Peak level 92.6 % Extraction speed 7.1 X Track quality 100.0 % Test CRC 5DA026D4 Copy CRC 5DA026D4 Track not present in AccurateRip database Copy OK

Track 2

Filename C:\Ripped by Filex\02 - Crimson Tide - 160 BPM.wav

Peak level 92.5 % Extraction speed 7.9 X Track quality 100.0 % Test CRC D9B0727A Copy CRC D9B0727A Track not present in AccurateRip database Copy OK

Track 3

Filename C:\Ripped by Filex\03 - Gladiator.wav

Peak level 92.4 % Extraction speed 8.5 X Track quality 100.0 % Test CRC 223CD68F Copy CRC 223CD68F Track not present in AccurateRip database Copy OK

Track 4

Filename C:\Ripped by Filex\04 - Chevaliers de Sangreal.wav

Peak level 89.9 % Extraction speed 8.7 X Track quality 100.0 % Test CRC 60AD7631 Copy CRC 60AD7631 Track not present in AccurateRip database Copy OK

Track 5

Filename C:\Ripped by Filex\05 - The Lion King.wav

Peak level 92.2 % Extraction speed 9.5 X Track quality 100.0 % Test CRC BA4807AD Copy CRC BA4807AD Track not present in AccurateRip database Copy OK

Track 6

Filename C:\Ripped by Filex\06 - Pirates of the Caribbean.wav

Peak level 92.4 % Extraction speed 10.1 X Track quality 100.0 % Test CRC 73190A99 Copy CRC 73190A99 Track not present in AccurateRip database Copy OK

Track 7

Filename C:\Ripped by Filex\07 - You're So Cool.wav

Peak level 90.6 % Extraction speed 9.6 X Track quality 100.0 % Test CRC ADFC41CA Copy CRC ADFC41CA Track not present in AccurateRip database Copy OK

Track 8

Filename C:\Ripped by Filex\08 - Main Theme Rain Man.wav

Peak level 92.2 % Extraction speed 8.9 X Track quality 99.9 % Test CRC B4166B72 Copy CRC B4166B72 Track not present in AccurateRip database Copy OK

None of the tracks are present in the AccurateRip database

No errors occurred

End of status report

---- CUETools DB Plugin V2.1.6

[CTDB TOCID: 5nkNC66wPEkCYz4JvfI0Rqi72sQ-] foundSubmit result: 5nkNC66wPEkCYz4JvfI0Rqi72sQ- has been confirmedTrack | CTDB Status 1 | (14/14) Accurately ripped 2 | (14/14) Accurately ripped 3 | (14/14) Accurately ripped 4 | (14/14) Accurately ripped 5 | (14/14) Accurately ripped 6 | (14/14) Accurately ripped 7 | (14/14) Accurately ripped 8 | (14/14) Accurately ripped

==== Log checksum AF384330ADA78C1FD04D0FB7EAEE3262537FF0B9854E9B8FE0453B41FD9EED7C ====
Exact Audio Copy V1.3 from 2. September 2016

EAC extraction logfile from 9. November 2017, 18:17

Hans Zimmer / Hans Zimmer - Live in Prague

Used drive : PLEXTOR CD-R PX-230A Adapter: 1 ID: 0

Read mode : SecureUtilize accurate stream : YesDefeat audio cache : YesMake use of C2 pointers : No

Read offset correction : 738Overread into Lead-In and Lead-Out : NoFill up missing offset samples with silence : YesDelete leading and trailing silent blocks : NoNull samples used in CRC calculations : YesUsed interface : Native Win32 interface for Win NT & 2000Gap handling : Appended to previous track

Used output format : User Defined EncoderSelected bitrate : 1024 kBit/sQuality : HighAdd ID3 tag : NoCommand line compressor : C:\Program Files\Exact Audio Copy\Flac\flac.exeAdditional command line options : -6 -V -T "ARTIST=%artist%" -T "TITLE=%title%" -T "ALBUM=%albumtitle%" -T "DATE=%year%" -T "TRACKNUMBER=%tracknr%" -T "GENRE=%genre%" -T "COMMENT=%comment%" -T "ALBUMARTIST=%albuminterpret%" -T "COMPOSER=%composer%" -T "DISCNUMBER=%cdnumber%" -T "TOTALDISCS=%totalcds%" -T "TOTALTRACKS=%numtracks%" %source% -o %dest%

TOC of the extracted CD

Track | Start | Length | Start sector | End sector --------------------------------------------------------- 1 | 0:00.00 | 4:50.08 | 0 | 21757 2 | 4:50.08 | 6:37.40 | 21758 | 51572 3 | 11:27.48 | 5:14.58 | 51573 | 75180 4 | 16:42.31 | 13:10.17 | 75181 | 134447 5 | 29:52.48 | 5:57.01 | 134448 | 161223 6 | 35:49.49 | 12:19.33 | 161224 | 216681 7 | 48:09.07 | 13:42.00 | 216682 | 278331

Track 1

Filename C:\Ripped by Filex\01 - Man of Steel.wav

Pre-gap length 0:00:02.00

Peak level 92.2 % Extraction speed 6.8 X Track quality 100.0 % Test CRC F71F82D0 Copy CRC F71F82D0 Track not present in AccurateRip database Copy OK

Track 2

Filename C:\Ripped by Filex\02 - The Thin Red Line.wav

Peak level 92.5 % Extraction speed 7.4 X Track quality 100.0 % Test CRC B7EC2F7D Copy CRC B7EC2F7D Track not present in AccurateRip database Copy OK

Track 3

Filename C:\Ripped by Filex\03 - The Amazing Spiderman 2.wav

Peak level 92.6 % Extraction speed 7.2 X Track quality 100.0 % Test CRC 1AED0AC5 Copy CRC 1AED0AC5 Track not present in AccurateRip database Copy OK

Track 4

Filename C:\Ripped by Filex\04 - The Dark Knight Trilogy.wav

Peak level 92.4 % Extraction speed 9.0 X Track quality 100.0 % Test CRC 70DD5B46 Copy CRC 70DD5B46 Track not present in AccurateRip database Copy OK

Track 5

Filename C:\Ripped by Filex\05 - Aurora.wav

Peak level 85.7 % Extraction speed 8.6 X Track quality 100.0 % Test CRC 3DAEBB0F Copy CRC 3DAEBB0F Track not present in AccurateRip database Copy OK

Track 6

Filename C:\Ripped by Filex\06 - Interstellar.wav

Peak level 93.4 % Extraction speed 9.7 X Track quality 100.0 % Test CRC 575E0FB7 Copy CRC 575E0FB7 Track not present in AccurateRip database Copy OK

Track 7

Filename C:\Ripped by Filex\07 - Inception.wav

Peak level 92.6 % Extraction speed 10.3 X Track quality 100.0 % Test CRC CA1F53B4 Copy CRC CA1F53B4 Track not present in AccurateRip database Copy OK

None of the tracks are present in the AccurateRip database

No errors occurred

End of status report

---- CUETools DB Plugin V2.1.6

[CTDB TOCID: ZuFatcFXRABsRgWuWYEs5adglYQ-] foundSubmit result: ZuFatcFXRABsRgWuWYEs5adglYQ- has been confirmedTrack | CTDB Status 1 | (14/14) Accurately ripped 2 | (14/14) Accurately ripped 3 | (14/14) Accurately ripped 4 | (14/14) Accurately ripped 5 | (14/14) Accurately ripped 6 | (14/14) Accurately ripped 7 | (14/14) Accurately ripped

==== Log checksum FB8E26200EA9C5D1751C70ACDC239F8002BA6735352DAD4557BBE69EFC95535F ====
</div>
</div>
<div class="sp-wrap">
<div class="sp-head folded">CD1:</div>
<div class="sp-body">

REM GENRE SoundtrackREM DATE 2017REM DISCID 7E0EA508REM COMMENT "ExactAudioCopy v1.3"PERFORMER "Hans Zimmer"TITLE "Live in Prague (CD 1)"FILE "01 - Opening Medley (Driving Miss Daisy - Sherlock Holmes - Madagascar).wav" WAVE TRACK 01 AUDIO TITLE "01 - Opening Medley (Driving Miss Daisy - Sherlock Holmes - Madagascar)" PERFORMER "Hans Zimmer" INDEX 01 00:00:00FILE "02 - Crimson Tide - 160 BPM (Angels and Demons).wav" WAVE TRACK 02 AUDIO TITLE "02 - Crimson Tide - 160 BPM (Angels and Demons)" PERFORMER "Hans Zimmer" INDEX 01 00:00:00FILE "03 - Gladiator.wav" WAVE TRACK 03 AUDIO TITLE "Gladiator" PERFORMER "Hans Zimmer" INDEX 01 00:00:00FILE "04 - Chevaliers de Sangreal (The Da Vinci Code).wav" WAVE TRACK 04 AUDIO TITLE "04 - Chevaliers de Sangreal (The Da Vinci Code)" PERFORMER "Hans Zimmer" INDEX 01 00:00:00FILE "05 - The Lion King.wav" WAVE TRACK 05 AUDIO TITLE "The Lion King" PERFORMER "Hans Zimmer" INDEX 01 00:00:00FILE "06 - Pirates of the Caribbean.wav" WAVE TRACK 06 AUDIO TITLE "Pirates of the Caribbean" PERFORMER "Hans Zimmer" INDEX 01 00:00:00FILE "07 - You're So Cool (True Romance).wav" WAVE TRACK 07 AUDIO TITLE "07 - You're So Cool (True Romance)" PERFORMER "Hans Zimmer" INDEX 01 00:00:00FILE "08 - Main Theme (Rain Man).wav" WAVE TRACK 08 AUDIO TITLE "08 - Main Theme (Rain Man)" PERFORMER "Hans Zimmer" INDEX 01 00:00:00
REM GENRE SoundtrackREM DATE 2017REM DISCID 5D0E7F07REM COMMENT "ExactAudioCopy v1.3"PERFORMER "Hans Zimmer"TITLE "Live in Prague (CD 2)"FILE "01 - Man of Steel.wav" WAVE TRACK 01 AUDIO TITLE "Man of Steel" PERFORMER "Hans Zimmer" INDEX 01 00:00:00FILE "02 - The Thin Red Line.wav" WAVE TRACK 02 AUDIO TITLE "The Thin Red Line" PERFORMER "Hans Zimmer" INDEX 01 00:00:00FILE "03 - The Amazing Spider-Man 2.wav" WAVE TRACK 03 AUDIO TITLE "03 - The Amazing Spider-Man 2" PERFORMER "Hans Zimmer" INDEX 01 00:00:00FILE "04 - The Dark Knight Trilogy.wav" WAVE TRACK 04 AUDIO TITLE "The Dark Knight Trilogy" PERFORMER "Hans Zimmer" INDEX 01 00:00:00FILE "05 - Aurora.wav" WAVE TRACK 05 AUDIO TITLE "Aurora" PERFORMER "Hans Zimmer" INDEX 01 00:00:00FILE "06 - Interstellar.wav" WAVE TRACK 06 AUDIO TITLE "Interstellar" PERFORMER "Hans Zimmer" INDEX 01 00:00:00FILE "07 - Inception.wav" WAVE TRACK 07 AUDIO TITLE "Inception" PERFORMER "Hans Zimmer" INDEX 01 00:00:00
</div>
</div>
RG SoundtracksВнимание! Торрент-файл перезалит 10.11.2017. Полностью заменен релиз. Просьба перекачать торрент-файл заново.

Трекер:  [ 10-Ноя-2017 20:06 ]

  

Скачать .torrent

Размер .torrent файла 19 KB


Размер: 842 MB
Хэш (hash) релиза: 68d2b73af2bfae7f33cd69797d26968deb3ed70c

Еще никто не оставлял запись к записи скачать торрент Hans Zimmer - Live In Prague - 2017, FLAC . Будь первым!

!Обратная связь