Скачать через торрент музыку (Soundtrack Disco бесплатно без регистрации torrent

Если у вас наблюдаются проблемы со скриншотами, переходом по ссылками, скачиванием торрентов - проблемы в блокировщике рекламы AdBlock. #хорошегоДня!


Статистика раздачи
Размер:  658 MB   |    Зарегистрирован:  2 месяца 7 дней   |    .torrent скачан:  15 раз   |   
Раздают:  1  
   
Загрузка...
 
Автор Сообщение

Galfimbul

avatar Galfimbul


VA - Лихорадка субботнего вечера / Saturday Night Fever (The Original Movie Sound Track) (2CD)

Жанр: Soundtrack, Disco
Носитель: CD
Страна-производитель диска: Netherlands
Год выпуска диска: ???
Дата выхода оригинального издания: 1977
Тип издания: 2CD, Album, Compilation
Издатель (лейбл): Polydor
Каталожный номер: 800 068-2
Страна: UK
Аудиокодек: FLAC (*.flac)
Тип рипа: tracks+.cue
Битрейт аудио: lossless
Продолжительность: 2 ~ 01:15:42
Источник (релизер): Собственный рип
Наличие сканов в содержимом раздачи: да, PNG 600dpi
<div style="margin-left: 4em" class="post-ul">Треклист</div>

01. Bee Gees - Stayin’ Alive [04:42]
02. Bee Gees - How Deep Is Your Love [04:02]
03. Bee Gees - Night Fever [03:32]
04. Bee Gees - More Than a Woman [03:15]
05. Yvonne Elliman - If I Can’t Have You [02:58]
06. Walter Murphy - A Fifth of Beethoven [03:02]
07. Tavares - More Than a Woman [03:16]
08. David Shire - Manhattan Skyline [04:44]
09. Ralph McDonald - Calypso Breakdown [07:49]

<div style="margin-left: 14em" class="post-ul">
<div class="post-box">
<div class="sp-wrap">
<div class="sp-head folded">Лог EAC</div>
<div class="sp-body">

Exact Audio Copy V1.3 from 2. September 2016

EAC extraction logfile from 6. November 2017, 19:28

Various Artists / Saturday Night Fever (The Original Movie Sound Track) CD1

Used drive : PIONEER BD-RW BDR-206 Adapter: 1 ID: 0

Read mode : SecureUtilize accurate stream : YesDefeat audio cache : YesMake use of C2 pointers : No

Read offset correction : 667Overread into Lead-In and Lead-Out : NoFill up missing offset samples with silence : YesDelete leading and trailing silent blocks : NoNull samples used in CRC calculations : YesUsed interface : Native Win32 interface for Win NT & 2000Gap handling : Appended to previous track

Used output format : User Defined EncoderSelected bitrate : 1024 kBit/sQuality : HighAdd ID3 tag : NoCommand line compressor : C:\Program Files (x86)\Exact Audio Copy\FLAC\FLAC.EXEAdditional command line options : -T "COMMENT=Ripped by SergeyJD for rutracker.org" -8 -V -T "ARTIST=%artist%" -T "TITLE=%title%" -T "ALBUM=%albumtitle%" -T "DATE=%year%" -T "TRACKNUMBER=%tracknr%" -T "GENRE=%genre%" %source%

TOC of the extracted CD

Track | Start | Length | Start sector | End sector --------------------------------------------------------- 1 | 0:00.32 | 4:45.05 | 32 | 21411 2 | 4:45.37 | 4:04.70 | 21412 | 39781 3 | 8:50.32 | 3:33.20 | 39782 | 55776 4 | 12:23.52 | 3:17.68 | 55777 | 70619 5 | 15:41.45 | 3:00.30 | 70620 | 84149 6 | 18:42.00 | 3:04.40 | 84150 | 97989 7 | 21:46.40 | 3:18.40 | 97990 | 112879 8 | 25:05.05 | 4:46.07 | 112880 | 134336 9 | 29:51.12 | 7:49.15 | 134337 | 169526

Track 1

Filename D:\РАЗДАЧИ!!!!\VA - Saturday Night Fever (The Original Movie Sound Track) (800 068-2 (2CD) - 1977\Disc 1\01 Stayin’ Alive.wav

Pre-gap length 0:00:02.32

Peak level 74.6 % Extraction speed 4.5 X Track quality 100.0 % Test CRC F254F0C7 Copy CRC F254F0C7 Accurately ripped (confidence 55) [EFC298D6] (AR v2) Copy OK

Track 2

Filename D:\РАЗДАЧИ!!!!\VA - Saturday Night Fever (The Original Movie Sound Track) (800 068-2 (2CD) - 1977\Disc 1\02 How Deep Is Your Love.wav

Pre-gap length 0:00:02.50

Peak level 51.5 % Extraction speed 4.9 X Track quality 100.0 % Test CRC 6C99018F Copy CRC 6C99018F Accurately ripped (confidence 55) [CB5666A1] (AR v2) Copy OK

Track 3

Filename D:\РАЗДАЧИ!!!!\VA - Saturday Night Fever (The Original Movie Sound Track) (800 068-2 (2CD) - 1977\Disc 1\03 Night Fever.wav

Pre-gap length 0:00:02.42

Peak level 68.7 % Extraction speed 5.2 X Track quality 100.0 % Test CRC 7AF9265E Copy CRC 7AF9265E Accurately ripped (confidence 56) [71E8638E] (AR v2) Copy OK

Track 4

Filename D:\РАЗДАЧИ!!!!\VA - Saturday Night Fever (The Original Movie Sound Track) (800 068-2 (2CD) - 1977\Disc 1\04 More Than a Woman.wav

Pre-gap length 0:00:01.45

Peak level 65.4 % Extraction speed 5.3 X Track quality 100.0 % Test CRC 3B5183C7 Copy CRC 3B5183C7 Accurately ripped (confidence 55) [22803243] (AR v2) Copy OK

Track 5

Filename D:\РАЗДАЧИ!!!!\VA - Saturday Night Fever (The Original Movie Sound Track) (800 068-2 (2CD) - 1977\Disc 1\05 If I Can’t Have You.wav

Pre-gap length 0:00:02.40

Peak level 69.4 % Extraction speed 5.6 X Track quality 100.0 % Test CRC 10DB4F3D Copy CRC 10DB4F3D Accurately ripped (confidence 55) [4F3FF33E] (AR v2) Copy OK

Track 6

Filename D:\РАЗДАЧИ!!!!\VA - Saturday Night Fever (The Original Movie Sound Track) (800 068-2 (2CD) - 1977\Disc 1\06 A Fifth of Beethoven.wav

Pre-gap length 0:00:02.45

Peak level 75.0 % Extraction speed 5.8 X Track quality 100.0 % Test CRC AB0EDBAA Copy CRC AB0EDBAA Accurately ripped (confidence 55) [6A46A785] (AR v2) Copy OK

Track 7

Filename D:\РАЗДАЧИ!!!!\VA - Saturday Night Fever (The Original Movie Sound Track) (800 068-2 (2CD) - 1977\Disc 1\07 More Than a Woman.wav

Pre-gap length 0:00:02.40

Peak level 75.6 % Extraction speed 5.3 X Track quality 99.9 % Test CRC ECC4A106 Copy CRC ECC4A106 Accurately ripped (confidence 56) [E54BFD3F] (AR v2) Copy OK

Track 8

Filename D:\РАЗДАЧИ!!!!\VA - Saturday Night Fever (The Original Movie Sound Track) (800 068-2 (2CD) - 1977\Disc 1\08 Manhattan Skyline.wav

Pre-gap length 0:00:02.53

Peak level 75.6 % Extraction speed 6.7 X Track quality 100.0 % Test CRC BA1FC66C Copy CRC BA1FC66C Accurately ripped (confidence 53) [F295589C] (AR v2) Copy OK

Track 9

Filename D:\РАЗДАЧИ!!!!\VA - Saturday Night Fever (The Original Movie Sound Track) (800 068-2 (2CD) - 1977\Disc 1\09 Calypso Breakdown.wav

Pre-gap length 0:00:02.44

Peak level 68.2 % Extraction speed 7.4 X Track quality 100.0 % Test CRC D79A346B Copy CRC D79A346B Accurately ripped (confidence 52) [87F40507] (AR v2) Copy OK

All tracks accurately ripped

No errors occurred

End of status report

---- CUETools DB Plugin V2.1.6

[CTDB TOCID: 6imWNW7gPjXHcSiMGb01MjEY.b0-] foundSubmit result: already submittedTrack | CTDB Status 1 | (176/180) Accurately ripped 2 | (177/180) Accurately ripped 3 | (179/180) Accurately ripped 4 | (177/180) Accurately ripped 5 | (179/180) Accurately ripped 6 | (178/180) Accurately ripped 7 | (179/180) Accurately ripped 8 | (178/180) Accurately ripped 9 | (174/180) Accurately ripped

==== Log checksum D6FE13A1BB5C6A0EC6E2F7FD660094FB36A4751364022F5B7E232E3E0500A159 ====
</div>
<div class="post-box">
REM GENRE SoundtrackREM DATE 1977REM DISCID 7208D409REM COMMENT "ExactAudioCopy v1.3"PERFORMER "Various Artists"TITLE "Saturday Night Fever (The Original Movie Sound Track) CD1"REM COMPOSER ""FILE "01 Stayin’ Alive.wav" WAVE TRACK 01 AUDIO TITLE "Stayin’ Alive" PERFORMER "Bee Gees" REM COMPOSER "" PREGAP 00:00:32 INDEX 01 00:00:00 TRACK 02 AUDIO TITLE "How Deep Is Your Love" PERFORMER "Bee Gees" REM COMPOSER "" INDEX 00 04:42:30FILE "02 How Deep Is Your Love.wav" WAVE INDEX 01 00:00:00 TRACK 03 AUDIO TITLE "Night Fever" PERFORMER "Bee Gees" REM COMPOSER "" INDEX 00 04:02:28FILE "03 Night Fever.wav" WAVE INDEX 01 00:00:00 TRACK 04 AUDIO TITLE "More Than a Woman" PERFORMER "Bee Gees" REM COMPOSER "" INDEX 00 03:31:50FILE "04 More Than a Woman.wav" WAVE INDEX 01 00:00:00 TRACK 05 AUDIO TITLE "If I Can’t Have You" PERFORMER "Yvonne Elliman" REM COMPOSER "" INDEX 00 03:15:28FILE "05 If I Can’t Have You.wav" WAVE INDEX 01 00:00:00 TRACK 06 AUDIO TITLE "A Fifth of Beethoven" PERFORMER "Walter Murphy" REM COMPOSER "" INDEX 00 02:57:60FILE "06 A Fifth of Beethoven.wav" WAVE INDEX 01 00:00:00 TRACK 07 AUDIO TITLE "More Than a Woman" PERFORMER "Tavares" REM COMPOSER "" INDEX 00 03:02:00FILE "07 More Than a Woman.wav" WAVE INDEX 01 00:00:00 TRACK 08 AUDIO TITLE "Manhattan Skyline" PERFORMER "David Shire" REM COMPOSER "" INDEX 00 03:15:62FILE "08 Manhattan Skyline.wav" WAVE INDEX 01 00:00:00 TRACK 09 AUDIO TITLE "Calypso Breakdown" PERFORMER "Ralph McDonald" REM COMPOSER "" INDEX 00 04:43:38FILE "09 Calypso Breakdown.wav" WAVE INDEX 01 00:00:00
</div>
<div class="post-box">
-----------------------

DON'T MODIFY THIS FILE

-----------------------

PERFORMER: auCDtect Task Manager, ver. 1.6.0 RC1 build 1.6.0.1Copyright (c) 2008-2010 y-soft. All rights reservedhttp://y-soft.org

ANALYZER: auCDtect: CD records authenticity detector, version 0.8.2Copyright (c) 2004 Oleg Berngardt. All rights reserved.Copyright (c) 2004 Alexander Djourik. All rights reserved.

FILE: 01 Stayin’ Alive.flac Size: 31213549 Hash: CF231445B921F4232494928D26C8AA16 Accuracy: -m0 Conclusion: MPEG 79% Signature: 2287E52E7B4CBA7092DDBC29CE39CFC70460AF2CFILE: 02 How Deep Is Your Love.flac Size: 23266401 Hash: B7F61BFC8E3211101A7246261F5BFB76 Accuracy: -m0 Conclusion: CDDA 99% Signature: BEB5ABF699FF07C753D383FF98EF32212C22E60EFILE: 03 Night Fever.flac Size: 23220101 Hash: 8BAABCA9877A8D36047B3FAFA806A44C Accuracy: -m0 Conclusion: MPEG 95% Signature: F83D5BF3A8DE63CF7DF9AFE9147BC0ADFE5996AFFILE: 04 More Than a Woman.flac Size: 19509082 Hash: BEB34025C9551CAA0DDABDD6A04D604F Accuracy: -m0 Conclusion: CDDA 100% Signature: AFBD79A75984ACD4BAA335611973761B80B5AA77FILE: 05 If I Can’t Have You.flac Size: 17646572 Hash: CDFC8B34F92930149583C7C9F13AECEB Accuracy: -m0 Conclusion: CDDA 100% Signature: 2EAE58F8935E71D599BAFB99A9F6A1F6A45DA9CCFILE: 06 A Fifth of Beethoven.flac Size: 19198352 Hash: 7FF5796551C2E023E95EB3F72719F134 Accuracy: -m0 Conclusion: CDDA 100% Signature: D38C0A878BCF114C86826ABD8B48D1D81F4EEC8AFILE: 07 More Than a Woman.flac Size: 19970795 Hash: 09AD6EAAD0C9E097E1E7A9F40F56C0D4 Accuracy: -m0 Conclusion: CDDA 100% Signature: 76AFF17F9B64D5113F9B183BD02FA814C2AA021DFILE: 08 Manhattan Skyline.flac Size: 31434925 Hash: D4C05CEAC66F2F2E7CBE6DE863A42E0F Accuracy: -m0 Conclusion: CDDA 100% Signature: 6CC4E77F759807F63907B1DCBF973315F3BD3E21FILE: 09 Calypso Breakdown.flac Size: 49920493 Hash: 385248B57E5F78885F5C642CD8F97D7B Accuracy: -m0 Conclusion: MPEG 95% Signature: 8ADB801CA7E5A2F67987FF048832BE2468D56209
</div>
<div class="post-box">
foobar2000 1.2.3 / Замер динамического диапазона (DR) 1.1.1Дата отчёта: 2017-11-11 13:24:40

--------------------------------------------------------------------------------Анализ: Bee Gees / Saturday Night Fever (The Original Movie Sound Track) CD1 (1-4) David Shire / Saturday Night Fever (The Original Movie Sound Track) CD1 (5) Ralph McDonald / Saturday Night Fever (The Original Movie Sound Track) CD1 (6) Tavares / Saturday Night Fever (The Original Movie Sound Track) CD1 (7) Walter Murphy / Saturday Night Fever (The Original Movie Sound Track) CD1 (8) Yvonne Elliman / Saturday Night Fever (The Original Movie Sound Track) CD1 (9)--------------------------------------------------------------------------------

DR Пики RMS Продолжительность трека--------------------------------------------------------------------------------DR14 -2.54 дБ -18.16 дБ 4:45 01-Stayin’ AliveDR11 -5.75 дБ -21.14 дБ 4:05 02-How Deep Is Your LoveDR13 -3.26 дБ -19.01 дБ 3:33 03-Night FeverDR12 -3.68 дБ -18.44 дБ 3:18 04-More Than a WomanDR12 -2.43 дБ -16.85 дБ 4:46 08-Manhattan SkylineDR14 -3.32 дБ -19.58 дБ 7:49 09-Calypso BreakdownDR12 -2.43 дБ -16.08 дБ 3:19 07-More Than a WomanDR13 -2.49 дБ -18.44 дБ 3:05 06-A Fifth of BeethovenDR12 -3.16 дБ -17.35 дБ 3:00 05-If I Can’t Have You--------------------------------------------------------------------------------

Количество треков: 9Реальные значения DR: DR13

Частота: 44100 ГцКаналов: 2Разрядность: 16Битрейт: 782 кбит/сКодек: FLAC================================================================================
</div>
<div class="post-box"> </div>
</div>
</div>
</div>
<div style="margin-left: 6em" class="post-ul">Треклист</div>

01. David Shire - Night on Disco Mountain [05:12]
02. Kool & The Gang - Open Sesame[04:00]
03. Bee Gees - Jive Talkin’ [03:43]
04. Bee Gees - You Should Be Dancing [04:14]
05. KC and The Sunshine Band - Boogie Shoes [02:16]
06. David Shire - Salsation [03:51]
07. M.F.S.B. - K-Jee [04:14]
08. The Trammps - Disco Inferno [10:51]

<div style="margin-left: 14em" class="post-ul">
<div class="post-box">
<div class="sp-wrap">
<div class="sp-head folded">Лог EAC</div>
<div class="sp-body">

Exact Audio Copy V1.3 from 2. September 2016

EAC extraction logfile from 6. November 2017, 20:38

Various Artists / Saturday Night Fever (The Original Movie Sound Track) CD2

Used drive : PIONEER BD-RW BDR-206 Adapter: 1 ID: 0

Read mode : SecureUtilize accurate stream : YesDefeat audio cache : YesMake use of C2 pointers : No

Read offset correction : 667Overread into Lead-In and Lead-Out : NoFill up missing offset samples with silence : YesDelete leading and trailing silent blocks : NoNull samples used in CRC calculations : YesUsed interface : Native Win32 interface for Win NT & 2000Gap handling : Appended to previous track

Used output format : User Defined EncoderSelected bitrate : 1024 kBit/sQuality : HighAdd ID3 tag : NoCommand line compressor : C:\Program Files (x86)\Exact Audio Copy\FLAC\FLAC.EXEAdditional command line options : -T "COMMENT=Ripped by SergeyJD for rutracker.org" -8 -V -T "ARTIST=%artist%" -T "TITLE=%title%" -T "ALBUM=%albumtitle%" -T "DATE=%year%" -T "TRACKNUMBER=%tracknr%" -T "GENRE=%genre%" %source%

TOC of the extracted CD

Track | Start | Length | Start sector | End sector --------------------------------------------------------- 1 | 0:00.33 | 5:14.70 | 33 | 23652 2 | 5:15.28 | 4:02.17 | 23653 | 41819 3 | 9:17.45 | 3:45.73 | 41820 | 58767 4 | 13:03.43 | 4:17.02 | 58768 | 78044 5 | 17:20.45 | 2:18.43 | 78045 | 88437 6 | 19:39.13 | 3:54.02 | 88438 | 105989 7 | 23:33.15 | 4:16.25 | 105990 | 125214 8 | 27:49.40 | 10:51.03 | 125215 | 174042

Track 1

Filename D:\РАЗДАЧИ!!!!\VA - Saturday Night Fever (The Original Movie Sound Track) (800 068-2 (2CD) - 1977\Disc 2\01 Night on Disco Mountain.wav

Pre-gap length 0:00:02.33

Peak level 73.9 % Extraction speed 4.6 X Track quality 100.0 % Test CRC BDE8C350 Copy CRC BDE8C350 Accurately ripped (confidence 50) [1F676BEC] (AR v2) Copy OK

Track 2

Filename D:\РАЗДАЧИ!!!!\VA - Saturday Night Fever (The Original Movie Sound Track) (800 068-2 (2CD) - 1977\Disc 2\02 Open Sesame.wav

Pre-gap length 0:00:02.48

Peak level 73.7 % Extraction speed 5.0 X Track quality 100.0 % Test CRC 5DEF70ED Copy CRC 5DEF70ED Accurately ripped (confidence 54) [F834EC2F] (AR v2) Copy OK

Track 3

Filename D:\РАЗДАЧИ!!!!\VA - Saturday Night Fever (The Original Movie Sound Track) (800 068-2 (2CD) - 1977\Disc 2\03 Jive Talkin’.wav

Pre-gap length 0:00:02.47

Peak level 80.1 % Extraction speed 5.3 X Track quality 100.0 % Test CRC 994A8B1C Copy CRC 994A8B1C Accurately ripped (confidence 56) [F161ADB8] (AR v2) Copy OK

Track 4

Filename D:\РАЗДАЧИ!!!!\VA - Saturday Night Fever (The Original Movie Sound Track) (800 068-2 (2CD) - 1977\Disc 2\04 You Should Be Dancing.wav

Pre-gap length 0:00:02.48

Peak level 68.7 % Extraction speed 5.8 X Track quality 100.0 % Test CRC D5C11D66 Copy CRC D5C11D66 Accurately ripped (confidence 54) [BF327DDB] (AR v2) Copy OK

Track 5

Filename D:\РАЗДАЧИ!!!!\VA - Saturday Night Fever (The Original Movie Sound Track) (800 068-2 (2CD) - 1977\Disc 2\05 Boogie Shoes.wav

Pre-gap length 0:00:02.42

Peak level 60.9 % Extraction speed 5.4 X Track quality 100.0 % Test CRC 38E1E9AE Copy CRC 38E1E9AE Accurately ripped (confidence 53) [FEC0C709] (AR v2) Copy OK

Track 6

Filename D:\РАЗДАЧИ!!!!\VA - Saturday Night Fever (The Original Movie Sound Track) (800 068-2 (2CD) - 1977\Disc 2\06 Salsation.wav

Pre-gap length 0:00:02.13

Peak level 80.9 % Extraction speed 5.4 X Track quality 99.9 % Test CRC C240C79E Copy CRC C240C79E Accurately ripped (confidence 51) [27D41534] (AR v2) Copy OK

Track 7

Filename D:\РАЗДАЧИ!!!!\VA - Saturday Night Fever (The Original Movie Sound Track) (800 068-2 (2CD) - 1977\Disc 2\07 K Jee.wav

Pre-gap length 0:00:02.51

Peak level 79.1 % Extraction speed 6.5 X Track quality 100.0 % Test CRC 5425F6CC Copy CRC 5425F6CC Accurately ripped (confidence 53) [01A7BE4F] (AR v2) Copy OK

Track 8

Filename D:\РАЗДАЧИ!!!!\VA - Saturday Night Fever (The Original Movie Sound Track) (800 068-2 (2CD) - 1977\Disc 2\08 Disco Inferno.wav

Pre-gap length 0:00:02.45

Peak level 78.3 % Extraction speed 7.6 X Track quality 100.0 % Test CRC 1EFD3697 Copy CRC 1EFD3697 Accurately ripped (confidence 54) [F9E49840] (AR v2) Copy OK

All tracks accurately ripped

No errors occurred

End of status report

---- CUETools DB Plugin V2.1.6

[CTDB TOCID: Q96z9SbBkjzQYVfYWE6rD5uzG18-] foundSubmit result: already submittedTrack | CTDB Status 1 | (100/100) Accurately ripped 2 | ( 98/100) Accurately ripped 3 | ( 98/100) Accurately ripped 4 | ( 96/100) Accurately ripped 5 | ( 97/100) Accurately ripped 6 | ( 95/100) Accurately ripped 7 | ( 95/100) Accurately ripped 8 | ( 97/100) Accurately ripped

==== Log checksum B37DD6411AE697E564B0C69F2B8126DDAF71499AF816061303A5EFBF76BE9624 ====
</div>
<div class="post-box">
REM GENRE SoundtrackREM DATE 1977REM DISCID 60091008REM COMMENT "ExactAudioCopy v1.3"PERFORMER "Various Artists"TITLE "Saturday Night Fever (The Original Movie Sound Track) CD2"REM COMPOSER ""FILE "01 Night on Disco Mountain.wav" WAVE TRACK 01 AUDIO TITLE "Night on Disco Mountain" PERFORMER "David Shire" REM COMPOSER "" PREGAP 00:00:33 INDEX 01 00:00:00 TRACK 02 AUDIO TITLE "Open Sesame" PERFORMER "Kool & The Gang" REM COMPOSER "" INDEX 00 05:12:22FILE "02 Open Sesame.wav" WAVE INDEX 01 00:00:00 TRACK 03 AUDIO TITLE "Jive Talkin’" PERFORMER "Bee Gees" REM COMPOSER "" INDEX 00 03:59:45FILE "03 Jive Talkin’.wav" WAVE INDEX 01 00:00:00 TRACK 04 AUDIO TITLE "You Should Be Dancing" PERFORMER "Bee Gees" REM COMPOSER "" INDEX 00 03:43:25FILE "04 You Should Be Dancing.wav" WAVE INDEX 01 00:00:00 TRACK 05 AUDIO TITLE "Boogie Shoes" PERFORMER "KC and The Sunshine Band" REM COMPOSER "" INDEX 00 04:14:35FILE "05 Boogie Shoes.wav" WAVE INDEX 01 00:00:00 TRACK 06 AUDIO TITLE "Salsation" PERFORMER "David Shire" REM COMPOSER "" INDEX 00 02:16:30FILE "06 Salsation.wav" WAVE INDEX 01 00:00:00 TRACK 07 AUDIO TITLE "K Jee" PERFORMER "M.F.S.B." REM COMPOSER "" INDEX 00 03:51:26FILE "07 K Jee.wav" WAVE INDEX 01 00:00:00 TRACK 08 AUDIO TITLE "Disco Inferno" PERFORMER "The Trammps" REM COMPOSER "" INDEX 00 04:13:55FILE "08 Disco Inferno.wav" WAVE INDEX 01 00:00:00
</div>
<div class="post-box">
-----------------------

DON'T MODIFY THIS FILE

-----------------------

PERFORMER: auCDtect Task Manager, ver. 1.6.0 RC1 build 1.6.0.1Copyright (c) 2008-2010 y-soft. All rights reservedhttp://y-soft.org

ANALYZER: auCDtect: CD records authenticity detector, version 0.8.2Copyright (c) 2004 Oleg Berngardt. All rights reserved.Copyright (c) 2004 Alexander Djourik. All rights reserved.

FILE: 01 Night on Disco Mountain.flac Size: 32578257 Hash: F71FAD178444761633C6C01642BF6CEF Accuracy: -m0 Conclusion: CDDA 100% Signature: 672BB21B87533BCB65C0F5AE0CFF1D91C22DB54EFILE: 02 Open Sesame.flac Size: 24299985 Hash: 0A5EF68BB72B1B77DD4C41EC15EB3CFC Accuracy: -m0 Conclusion: CDDA 100% Signature: CEA89A4F22ECF461195C80C53E5852BA07213D77FILE: 03 Jive Talkin’.flac Size: 20828623 Hash: 0EFBFAADC0EE5744F9A95F18FC19E20D Accuracy: -m0 Conclusion: CDDA 100% Signature: B844FF6F0A0413A13DAA46DF662CA429916C3CFDFILE: 04 You Should Be Dancing.flac Size: 27716137 Hash: 62A8EB281C38FEBAFB102AFD2DFCBD2C Accuracy: -m0 Conclusion: CDDA 99% Signature: 708CCF4454D9E1EA32E4D787F81A8B804CD687B2FILE: 05 Boogie Shoes.flac Size: 14031656 Hash: 9A8B248EC4B1CADEEE587F07A47077E4 Accuracy: -m0 Conclusion: CDDA 100% Signature: D8EBC0EF05AD3A724CA2C7E3A4D1F7E872468151FILE: 06 Salsation.flac Size: 23846045 Hash: 3646B5577B0B0CC4274FF83D88DB3D7A Accuracy: -m0 Conclusion: CDDA 100% Signature: 3745B10B5E7019A626BDA8113328A74D4D4536BBFILE: 07 K Jee.flac Size: 26239524 Hash: 61BF43EA1567C1D2CA462790FC6AA07D Accuracy: -m0 Conclusion: CDDA 99% Signature: 27CBFE67200DF5D757EE21EE58E308EE6DBC00B8FILE: 08 Disco Inferno.flac Size: 68803796 Hash: 43A7C0E7BB8B4DD3266782DA572308F9 Accuracy: -m0 Conclusion: CDDA 99% Signature: 502702B3CEB7252B8AD667A8E01C30B1CC8DB972
</div>
<div class="post-box">
foobar2000 1.2.3 / Замер динамического диапазона (DR) 1.1.1Дата отчёта: 2017-11-11 13:25:07

--------------------------------------------------------------------------------Анализ: Bee Gees / Saturday Night Fever (The Original Movie Sound Track) CD2 (1-2) David Shire / Saturday Night Fever (The Original Movie Sound Track) CD2 (3-4) KC and The Sunshine Band / Saturday Night Fever (The Original Movie Sound Track) CD2 (5) Kool & The Gang / Saturday Night Fever (The Original Movie Sound Track) CD2 (6) M.F.S.B. / Saturday Night Fever (The Original Movie Sound Track) CD2 (7) The Trammps / Saturday Night Fever (The Original Movie Sound Track) CD2 (8)--------------------------------------------------------------------------------

DR Пики RMS Продолжительность трека--------------------------------------------------------------------------------DR15 -1.92 дБ -19.83 дБ 3:46 03-Jive Talkin’DR13 -3.25 дБ -19.67 дБ 4:17 04-You Should Be DancingDR13 -2.62 дБ -18.31 дБ 5:15 01-Night on Disco MountainDR12 -1.83 дБ -16.98 дБ 3:54 06-SalsationDR13 -4.31 дБ -19.21 дБ 2:19 05-Boogie ShoesDR13 -2.64 дБ -18.62 дБ 4:02 02-Open SesameDR12 -2.04 дБ -16.08 дБ 4:16 07-K JeeDR13 -2.12 дБ -18.01 дБ 10:51 08-Disco Inferno--------------------------------------------------------------------------------

Количество треков: 8Реальные значения DR: DR13

Частота: 44100 ГцКаналов: 2Разрядность: 16Битрейт: 845 кбит/сКодек: FLAC================================================================================
</div>
</div>
</div>
</div> Релиз для:

Трекер:  [ 11-Ноя-2017 09:36 ]

  

Скачать .torrent

Размер .torrent файла 15 KB


Размер: 658 MB
Хэш (hash) релиза: 74aff2ccd44a3db19570ce98ab050ae61c8dfdf3

Торренты, похожие на (Soundtrack Disco скачать торрент

Форум Название Автор Размер S L Добавлен
Саундтреки к фильмам и мультфильмам (lossless) ·· (Soundtrack, Disco, Electro)[CD] Giorgio Moroder - American Gigolo / Американский жиголо - 1999, FLAC (image+.cue), lossless Galfimbul 293778640280 MB 0 0 1427640883

17:54

29-Мар-15

Саундтреки ·· (Soundtrack / Disco) Лихорадка субботнего вечера / Saturday Night Fever [1-st press, 2CD] (by Bee Gees & VA) - 1977, FLAC (image+.cue), lossless Galfimbul 692687997661 MB 0 0 1336334160

22:56

6-Май-12

Саундтреки к фильмам и мультфильмам (lossless) ·· (Soundtrack/Disco) Fame - Слава - 2003, APE (image+.cue), lossless Galfimbul 293435611280 MB 0 0 1292270380

22:59

13-Дек-10

Саундтреки к фильмам и мультфильмам (lossless) ·· (Soundtrack/Disco/Funk/Soul/Pop) VA - Getting Off! - The Seductive Sounds Of 70's Adult Cinema - 2007, FLAC (tracks+.cue), lossless Galfimbul 271218369259 MB 0 0 1292270286

22:58

13-Дек-10

Саундтреки к фильмам и мультфильмам (mp3) ·· (Soundtrack, Disco) Saturday Night Fever / Лихорадка субботнего вечера - 1996 (1977), MP3 (tracks), 320kbps AqvaGen 182593518174 MB 0 0 1292265429

21:37

13-Дек-10

Саундтреки к фильмам и мультфильмам (mp3) ·· (Soundtrack / Score / Disco) Танцор Диско. Аэробика для любимых / Disco Dancer. Aerobics for favorite (by Bappi Lahiri) - 1987, MP3 (tracks), 320 kbps Galfimbul 194187152185 MB 0 0 1292265413

21:36

13-Дек-10

Саундтреки к фильмам и мультфильмам (mp3) ·· (Soundtrack/House/Disco/Big Band/Swing/Downtempo/Funk/Classic Rock) The Ultimate Gangster Movie Soundtrack (2 CD) - 2002, MP3 (tracks), 192 kbps Galfimbul 225819864215 MB 0 0 1496137011

12:36

30-Май-17

Саундтреки к фильмам и мультфильмам (lossless) ·· (Italo-Disco, Dream-Pop, Electronic, Soundtrack, Twin Peaks) [WEB] Johnny Jewel - Windswept - 2017, FLAC (tracks), lossless Galfimbul 243515689232 MB 0 0 1500298992

16:43

17-Июл-17

Саундтреки к фильмам и мультфильмам (lossless) ·· (Score, Pop Rock, Synth-pop, Disco, Soul) [CD] VA - Film Hits - Original Soundtrack Hits (2-CD) - 1992, FLAC (tracks+.cue), lossless Galfimbul 760550746725 MB 0 0 1451923778

19:09

4-Янв-16

Саундтреки к фильмам и мультфильмам (lossless) ·· (Score, Disco) Марсианин / The Martian (Deluxe Soundtrack: Songs & Score) (Harry Gregson-Williams + Vicki Sue Robinson, Donna Summer, Hues Corporation, Thelma Houston, David Bowie, ABBA, O'Jays, Gloria Gaynor) - 2015, FLAC (tracks+.cue), lossless Galfimbul 627113729598 MB 0 0 1449313295

14:01

5-Дек-15

Саундтреки к фильмам и мультфильмам (lossless) ·· (Soundtrack, Alternative) Тело Дженнифер / Jennifer's Body (Panic! At The Disco, Paramore, Cobra Starship, All Time Low) - 2009, FLAC (tracks+.cue), lossless Galfimbul 399058306381 MB 0 0 1292268949

22:35

13-Дек-10

Саундтреки к фильмам и мультфильмам (mp3) ·· (Soundtrack) Танцор Disco (Любимые песни и хиты индийского кино) - 2005, MP3 (tracks), 192 kbps Galfimbul 113481746108 MB 0 0 1292266090

21:48

13-Дек-10

Саундтреки к фильмам и мультфильмам (mp3) ·· (Soundtrack) Танцор диско / Disco Dancer - 1982, MP3, VBR 128-224 kbps Galfimbul 4400441442 MB 0 0 1292265329

21:35

13-Дек-10

Еще никто не оставлял запись к записи скачать торрент (Soundtrack Disco . Будь первым!

!Обратная связь