A Monster Calls torrent

UnionPeer.org . . UnionPeer.org 2014 2015 . .

A Monster Calls .torrent

9.13 GB   |    :  6 3    |    .torrent :  90    |   
1  
   
 

Galfimbul

avatar Galfimbul



/ A Monster Calls

: 2016
: , ,
: ,
: 01:48:36
: ( ) |
: ,

:
: , , , , , , , , ,

: . , . , , , .

: BDRip 1080p
: mkv
: AVC
: AC3, DTS
: 1920804, 23.976 fps, 9457 /
#1: AC3, 640 kb/s, 6 ch, 48.0 KHz [Russian]
#2: DTS, 1509 kb/s, 6 ch, 48.0 KHz [Russian]
#1: AC3, 448 kb/s, 6 ch, 48.0 KHz [English]
<div class="code_wrap"> <div class="code_head"> <p style="float: left;">:</p> <script type="text/javascript"> copyText_writeLink('this.parentNode.parentNode.nextSibling.nextSibling'); </script> </div><!--/code_head--> <div class="code">General
Unique ID : 251559235487822257035935685714654672940 (0xBD408BE393FC26F7A887C3D6A2B2382C)
Complete name : G:\VideoSSD\A.Monster.Calls.2016.BDRip.1080p.ExKinoRay.mkv
Format : Matroska
Format version : Version 4 / Version 2
File size : 9.13 GiB
Duration : 1 h 48 min
Overall bit rate : 12.1 Mb/s
Encoded date : UTC 2017-11-12 04:19:09
Writing application : mkvmerge v17.0.0 ('Be Ur Friend') 64-bit
Writing library : libebml v1.3.5 + libmatroska v1.4.8

Video
ID : 1
Format : AVC
Format/Info : Advanced Video Codec
Format profile : <a href="/cdn-cgi/l/email-protection" class="__cf_email__" data-cfemail="4a02232d220a067e647b">[emailprotected]</a>
Format settings : CABAC / 5 Ref Frames
Format settings, CABAC : Yes
Format settings, RefFrames : 5 frames
Codec ID : V_MPEG4/ISO/AVC
Duration : 1 h 48 min
Bit rate : 9 457 kb/s
Width : 1 920 pixels
Height : 804 pixels
Display aspect ratio : 2.40:1
Frame rate mode : Constant
Frame rate : 23.976 (24000/1001) FPS
Color space : YUV
Chroma subsampling : 4:2:0
Bit depth : 8 bits
Scan type : Progressive
Bits/(Pixel*Frame) : 0.256
Stream size : 7.16 GiB (78%)
Writing library : x264 core 148 r2692+46 0f71ed5 7mod [<a href="/cdn-cgi/l/email-protection" class="__cf_email__" data-cfemail="7840551a110c38191414">[emailprotected]</a> X86_64]
Encoding settings : cabac=1 / ref=5 / deblock=1:-3:-3 / analyse=0x3:0x113 / me=umh / subme=11 / psy=1 / fade_compensate=0.00 / psy_rd=1.00:0.00 / mixed_ref=1 / me_range=48 / chroma_me=1 / trellis=2 / 8x8dct=1 / cqm=0 / deadzone=11,6 / fast_pskip=0 / chroma_qp_offset=-2 / threads=25 / lookahead_threads=4 / sliced_threads=0 / nr=0 / decimate=0 / interlaced=0 / bluray_compat=0 / constrained_intra=0 / fgo=0 / bframes=8 / b_pyramid=2 / b_adapt=2 / b_bias=0 / direct=3 / weightb=1 / open_gop=0 / weightp=2 / keyint=250 / keyint_min=23 / scenecut=40 / intra_refresh=0 / rc_lookahead=60 / rc=crf / mbtree=0 / crf=17.5000 / qcomp=0.65 / qpmin=0:0:0 / qpmax=32:32:32 / qpstep=4 / vbv_maxrate=40000 / vbv_bufsize=30000 / crf_max=0.0 / nal_hrd=none / filler=0 / ip_ratio=1.30 / pb_ratio=1.20 / aq=4:0.75 / aq-sensitivity=10.00 / aq-factor=1.00:1.00:1.00 / aq2=0 / aq3=0
Language : English
Default : Yes
Forced : No
Color range : Limited
Color primaries : BT.709
Transfer characteristics : BT.709
Matrix coefficients : BT.709

Audio #1
ID : 2
Format : DTS
Format/Info : Digital Theater Systems
Mode : 16
Format settings, Endianness : Big
Codec ID : A_DTS
Duration : 1 h 48 min
Bit rate mode : Constant
Bit rate : 1 509 kb/s
Channel(s) : 6 channels
Channel positions : Front: L C R, Side: L R, LFE
Sampling rate : 48.0 kHz
Frame rate : 93.750 FPS (512 SPF)
Bit depth : 24 bits
Compression mode : Lossy
Stream size : 1.14 GiB (13%)
Title : Dub [License]
Language : Russian
Default : Yes
Forced : No

Audio #2
ID : 3
Format : AC-3
Format/Info : Audio Coding 3
Format settings, Endianness : Big
Codec ID : A_AC3
Duration : 1 h 48 min
Bit rate mode : Constant
Bit rate : 640 kb/s
Channel(s) : 6 channels
Channel positions : Front: L C R, Side: L R, LFE
Sampling rate : 48.0 kHz
Frame rate : 31.250 FPS (1536 SPF)
Bit depth : 16 bits
Compression mode : Lossy
Stream size : 496 MiB (5%)
Title : Dub [License]
Language : Russian
Service kind : Complete Main
Default : No
Forced : No

Audio #3
ID : 4
Format : AC-3
Format/Info : Audio Coding 3
Format settings, Endianness : Big
Codec ID : A_AC3
Duration : 1 h 48 min
Bit rate mode : Constant
Bit rate : 448 kb/s
Channel(s) : 6 channels
Channel positions : Front: L C R, Side: L R, LFE
Sampling rate : 48.0 kHz
Frame rate : 31.250 FPS (1536 SPF)
Bit depth : 16 bits
Compression mode : Lossy
Stream size : 347 MiB (4%)
Title : Original
Language : English
Service kind : Complete Main
Default : No
Forced : No

Text #1
ID : 5
Format : UTF-8
Codec ID : S_TEXT/UTF8
Codec ID/Info : UTF-8 Plain Text
Duration : 1 h 35 min
Bit rate : 72 b/s
Count of elements : 878
Stream size : 51.0 KiB (0%)
Title : Full [iTunes]
Language : Russian
Default : No
Forced : No

Text #2
ID : 6
Format : UTF-8
Codec ID : S_TEXT/UTF8
Codec ID/Info : UTF-8 Plain Text
Duration : 1 h 35 min
Bit rate : 42 b/s
Count of elements : 939
Stream size : 29.6 KiB (0%)
Title : Full
Language : English
Default : No
Forced : No

Menu
00:00:00.000 : en:00:00:00.000
00:08:12.659 : en:00:08:12.659
00:15:35.601 : en:00:15:35.601
00:24:41.480 : en:00:24:41.480
00:31:50.909 : en:00:31:50.909
00:38:50.703 : en:00:38:50.703
00:50:10.925 : en:00:50:10.925
00:55:48.095 : en:00:55:48.095
01:03:51.661 : en:01:03:51.661
01:13:11.679 : en:01:13:11.679
01:19:19.296 : en:01:19:19.296
01:28:52.494 : en:01:28:52.494
01:40:36.030 : en:01:40:36.030 </div><!--/code--></div><!--/code_wrap-->
: $43 000 000
: $3 740 823
: + $43 564 417 = $47 305 240
: $643 893

: 9 2016
: 2 2017,


! AdBlock , )))
 ·  , , FAQ-
:  [ 13--2017 12:07 ]

  

.torrent

.torrent 46 KB


: 9.13 GB
(hash) : 43bbe480c4972340e346d9569593a42cde3b7429
:
··
...

, A Monster Calls

S L
2016 ··  / A Monster Calls ( / Juan Antonio Bayona) [2016, , , , , , DVD9] R5 Dub + Sub Rus + Original Eng Galfimbul 83456798727.77 GB 0 0 1526920227

19:30

21--18

2016-2019 ( ) ··  / A Monster Calls ( / Juan Antonio Bayona) [2016, , , , , HDRip] AVO () Galfimbul 15684853761.46 GB 0 0 1512316899

19:01

3--17

2016-2019 ( ) ··  / A Monster Calls ( ) [2016 ., , , BDRip 720p] DUB | Galfimbul 52857247034.92 GB 0 0 1510563923

12:05

13--17

2016-2019 ( ) ··  / A Monster Calls ( ) [2016 ., , , BDRip] DUB | Galfimbul 15646638081.46 GB 0 0 1510563922

12:05

13--17

2016-2019 ( ) ··  / A Monster Calls ( / Juan Antonio Bayona) [2016, , , , , BDRip] Dub + Original Eng + Sub Rus, Eng Galfimbul 23293514852.17 GB 0 0 1510504213

19:30

12--17

2016 ··  / A Monster Calls ( / Juan Antonio Bayona) [2016, , , , , BDRip 720p] Dub (iTunes) + Sub Rus, Eng + Original Eng Galfimbul 38500473523.59 GB 0 0 1489145304

14:28

10--17

2016-2019 ( ) ··  / A Monster Calls ( / Juan Antonio Bayona) [2016, , , , , BDRip-AVC] Dub (iTunes) Galfimbul 15156615811.41 GB 0 0 1488887852

14:57

7--17

2016-2019 ( ) ··  / A Monster Calls ( / Juan Antonio Bayona) [2016, , , , , BDRip] Dub (iTunes) Galfimbul 781293268745 MB 0 0 1488867824

09:23

7--17

2016-2019 ( ) ··  / A Monster Calls ( / Juan Antonio Bayona) [2016, , , , BDRip] Dub (iTunes) Galfimbul 15649505281.46 GB 0 0 1488862499

07:54

7--17

2016-2019 ( ) ··  / A Monster Calls ( / Juan Antonio Bayona) [2016, , , , , BDRip-AVC] Dub (Line) + Original + Sub (rus, eng) Galfimbul 20844838011.94 GB 0 0 1488016555

12:55

25--17

2016-2019 ( ) ··  / A Monster Calls ( / Juan Antonio Bayona) [2016, , , , BDRip] Dub (Line) + Original (Eng) + Subs (Rus, Eng) Galfimbul 15692195261.46 GB 0 0 1487410454

12:34

18--17

2016-2019 ( ) ··  / A Monster Calls ( / Juan Antonio Bayona) [2016, , , , , BDRip 720p] Line Galfimbul 61381857365.72 GB 0 0 1487371577

01:46

18--17

2016-2019 ( ) ··  / A Monster Calls ( / Juan Antonio Bayona) [2016, , , , , BDRip 1080p] Line Galfimbul 1149926141310.71 GB 0 0 1487371570

01:46

18--17

2016 ··  / A Monster Calls ( / Juan Antonio Bayona) [2016, , , , , WEB-DL 1080p] Sub Rus (" ") + Original Eng Galfimbul 41681968593.88 GB 0 0 1487260020

18:47

16--17

2016-2019 ( ) ··  / A Monster Calls ( / Juan Antonio Bayona) [2016, , , , , BDRip] VO (Solod) Galfimbul 781313020745 MB 0 0 1486891750

12:29

12--17

2016-2019 ( ) ··  / A Monster Calls ( / Juan Antonio Bayona) [2016, , , , WEB-DLRip] VO (Solod) + Original (Eng) Galfimbul 15692042241.46 GB 0 0 1486054032

19:47

2--17

2016-2019 ( ) ··  / A Monster Calls ( ) [2016, , , DVDScr] Galfimbul 15644098561.46 GB 0 0 1484898735

10:52

20--17

A Monster Calls . !

!