Скачать через торрент музыку Kaisermuhlen Blues бесплатно без регистрации torrent

Если у вас наблюдаются проблемы со скриншотами, переходом по ссылками, скачиванием торрентов - проблемы в блокировщике рекламы AdBlock. #хорошегоДня!


Статистика раздачи
Размер:  218 MB   |    Зарегистрирован:  2 месяца   |    .torrent скачан:  5 раз   |   
Раздают:  1  
   
Загрузка...
 
Автор Сообщение

Galfimbul

avatar Galfimbul


Kaisermühlen Blues

Название альбома: Kaisermühlen Blues
Жанр: Soundtrack
Год выпуска диска: 2006
Год выпуска фильма: 1992-1999
Страна-производитель диска: Austria
Издатель (лейбл): Warner Music
Номер по каталогу: ADD93414
Аудиокодек: FLAC (*.flac)
Тип рипа: tracks+.cue
Битрейт аудио: lossless
Продолжительность: 0:38:54.
Источник: собственный рип
Наличие сканов в содержимом раздачи: да
Треклист:
1 Kaisermuhlen Blues /Marianne Mendt & Adi Hirschal 4:10
2 Bezirksrate Blues /Gotz Kauffmann & Peter Frohlich 3:14
3 Hausmeister Blues /Brigitte Neumeister 2:44
4 Pizza Blues (instrumental) /Kaisermuhlen Combo 2:27
5 Kaffeehaus Blues /Adi Hirschal 4:13
6 Jeder Ratz liebt sein Kanau /Roland Neuwirth 3:52
7 Bullen Blues /Christoph Falbl & Stephan Paryla 3:16
8 Kaiserwasser Blues (instrumental) /Kaisermuhlen Combo 4:03
9 Aber du bist mei Kittlfaltn /Roland Neuwirth 3:46
10 5er Blues /Gerald Pichowetz 3:34
11 Kaisermuhlen Blues (instrumental) /Kaisermuhlen Combo 3:27
Exact Audio Copy V1.0 beta 3 from 29. August 2011

Отчёт EAC об извлечении, выполненном 4. ноября 2017, 19:44

VA / Kaisermuhlen Blues

Дисковод: ASUS DRW-1814BLT Adapter: 4 ID: 0

Режим чтения : ДостоверностьИспользование точного потока : ДаОтключение кэша аудио : ДаИспользование указателей C2 : Нет

Коррекция смещения при чтении : 6Способность читать области Lead-in и Lead-out : НетЗаполнение пропущенных сэмплов тишиной : ДаУдаление блоков с тишиной в начале и конце : НетПри вычислениях CRC использовались нулевые сэмплы : ДаИнтерфейс : Встроенный Win32-интерфейс для Win NT/2000Обработка зазоров : Добавлено к предыдущему треку

Выходной формат : Пользовательский кодировщикВыбранный битрейт : 128 kBit/sКачество : ВысокийДобавление ID3-тега : НетУтилита сжатия : C:\Program Files\Exact Audio Copy\Flac\flac.exeДополнительные параметры : -V -8 -T "Genre=%genre%" -T "Artist=%artist%" -T "Title=%title%" -T "Album=%albumtitle%" -T "Date=%year%" -T "Tracknumber=%tracknr%" -T "Comment=EAC1.0b2 FLAC -8" %source%

TOC извлечённого CD

Трек | Старт | Длительность | Начальный сектор | Конечный сектор --------------------------------------------------------------------- 1 | 0:00.00 | 4:10.25 | 0 | 18774 2 | 4:10.25 | 3:14.67 | 18775 | 33391 3 | 7:25.17 | 2:44.08 | 33392 | 45699 4 | 10:09.25 | 2:28.00 | 45700 | 56799 5 | 12:37.25 | 4:14.00 | 56800 | 75849 6 | 16:51.25 | 3:53.00 | 75850 | 93324 7 | 20:44.25 | 3:17.00 | 93325 | 108099 8 | 24:01.25 | 4:04.00 | 108100 | 126399 9 | 28:05.25 | 3:47.00 | 126400 | 143424 10 | 31:52.25 | 3:35.00 | 143425 | 159549 11 | 35:27.25 | 3:27.32 | 159550 | 175106

Трек 1

Имя файла R:\Раздача 75\Kaisermuhlen Blues - 2006 - Die Musik aus der legendaren TV-Serie\01 Kaisermuhlen Blues .wav

Длина предзазора 0:00:02.00

Пиковый уровень 98.9 % Скорость извлечения 3.9 X Качество трека 99.9 % CRC теста 247B6AC8 CRC копии 247B6AC8 Трек не обнаружен в базе AccurateRip Копирование... OK

Трек 2

Имя файла R:\Раздача 75\Kaisermuhlen Blues - 2006 - Die Musik aus der legendaren TV-Serie\02 Bezirksrate Blues .wav

Длина предзазора 0:00:04.50

Пиковый уровень 99.0 % Скорость извлечения 4.0 X Качество трека 99.9 % CRC теста DF317A92 CRC копии DF317A92 Трек не обнаружен в базе AccurateRip Копирование... OK

Трек 3

Имя файла R:\Раздача 75\Kaisermuhlen Blues - 2006 - Die Musik aus der legendaren TV-Serie\03 Hausmeister Blues .wav

Длина предзазора 0:00:01.65

Пиковый уровень 98.9 % Скорость извлечения 5.6 X Качество трека 100.0 % CRC теста 948C39FE CRC копии 948C39FE Трек не обнаружен в базе AccurateRip Копирование... OK

Трек 4

Имя файла R:\Раздача 75\Kaisermuhlen Blues - 2006 - Die Musik aus der legendaren TV-Serie\04 Pizza Blues (Instrumental) .wav

Длина предзазора 0:00:03.27

Пиковый уровень 100.0 % Скорость извлечения 5.7 X Качество трека 100.0 % CRC теста 1C0190DC CRC копии 1C0190DC Трек не обнаружен в базе AccurateRip Копирование... OK

Трек 5

Имя файла R:\Раздача 75\Kaisermuhlen Blues - 2006 - Die Musik aus der legendaren TV-Serie\05 Kaffeehaus Blues .wav

Длина предзазора 0:00:02.74

Пиковый уровень 92.8 % Скорость извлечения 6.6 X Качество трека 100.0 % CRC теста 0013C4B1 CRC копии 0013C4B1 Трек не обнаружен в базе AccurateRip Копирование... OK

Трек 6

Имя файла R:\Раздача 75\Kaisermuhlen Blues - 2006 - Die Musik aus der legendaren TV-Serie\06 Jeder Ratz Liebt Sein' Kanau .wav

Длина предзазора 0:00:03.25

Пиковый уровень 72.4 % Скорость извлечения 7.0 X Качество трека 100.0 % CRC теста EA06E257 CRC копии EA06E257 Трек не обнаружен в базе AccurateRip Копирование... OK

Трек 7

Имя файла R:\Раздача 75\Kaisermuhlen Blues - 2006 - Die Musik aus der legendaren TV-Serie\07 Bullen Blues .wav

Длина предзазора 0:00:03.33

Пиковый уровень 99.0 % Скорость извлечения 7.2 X Качество трека 100.0 % CRC теста C8880E85 CRC копии C8880E85 Трек не обнаружен в базе AccurateRip Копирование... OK

Трек 8

Имя файла R:\Раздача 75\Kaisermuhlen Blues - 2006 - Die Musik aus der legendaren TV-Serie\08 Kaiserwasser Blues (Instrumental) .wav

Длина предзазора 0:00:03.40

Пиковый уровень 90.1 % Скорость извлечения 5.8 X Качество трека 99.9 % CRC теста 52DA95C1 CRC копии 52DA95C1 Трек не обнаружен в базе AccurateRip Копирование... OK

Трек 9

Имя файла R:\Раздача 75\Kaisermuhlen Blues - 2006 - Die Musik aus der legendaren TV-Serie\09 Aber Du Bist Mei Kittlfaltn .wav

Длина предзазора 0:00:03.10

Пиковый уровень 81.1 % Скорость извлечения 7.9 X Качество трека 100.0 % CRC теста 6FC6BEF8 CRC копии 6FC6BEF8 Трек не обнаружен в базе AccurateRip Копирование... OK

Трек 10

Имя файла R:\Раздача 75\Kaisermuhlen Blues - 2006 - Die Musik aus der legendaren TV-Serie\10 5er Blues .wav

Длина предзазора 0:00:03.18

Пиковый уровень 100.0 % Скорость извлечения 8.1 X Качество трека 100.0 % CRC теста AAD17441 CRC копии AAD17441 Трек не обнаружен в базе AccurateRip Копирование... OK

Трек 11

Имя файла R:\Раздача 75\Kaisermuhlen Blues - 2006 - Die Musik aus der legendaren TV-Serie\11 Kaisermuhlen Blues (Instrumental) .wav

Длина предзазора 0:00:03.49

Пиковый уровень 99.9 % Скорость извлечения 8.3 X Качество трека 100.0 % CRC теста 708AB83E CRC копии 708AB83E Трек не обнаружен в базе AccurateRip Копирование... OK

Ни одного трека нет в базе AccurateRip

Ошибок не произошло

Конец отчёта

==== Контрольная сумма отчёта E540DBCD713DA65FF380657DBAAABB5463FE7F22874111934CDAE529F9001462 ====
REM GENRE SoundtrackREM DATE 2006REM DISCID 88091E0BREM COMMENT "ExactAudioCopy v1.0b3"CATALOG 0000000000000PERFORMER "VA"TITLE "Kaisermuhlen Blues"FILE "01 Kaisermuhlen Blues .wav" WAVE TRACK 01 AUDIO TITLE "Kaisermuhlen Blues" PERFORMER "Marianne Mendt & Adi Hirschal" INDEX 01 00:00:00 TRACK 02 AUDIO TITLE "Bezirksrate Blues" PERFORMER "Gotz Kauffmann & Peter Frohlich" INDEX 00 04:05:50FILE "02 Bezirksrate Blues .wav" WAVE INDEX 01 00:00:00 TRACK 03 AUDIO TITLE "Hausmeister Blues" PERFORMER "Brigitte Neumeister" INDEX 00 03:13:02FILE "03 Hausmeister Blues .wav" WAVE INDEX 01 00:00:00 TRACK 04 AUDIO TITLE "Pizza Blues (Instrumental)" PERFORMER "Kaisermuhlen Combo" INDEX 00 02:40:56FILE "04 Pizza Blues (Instrumental) .wav" WAVE INDEX 01 00:00:00 TRACK 05 AUDIO TITLE "Kaffeehaus Blues" PERFORMER "Adi Hirschal" INDEX 00 02:25:01FILE "05 Kaffeehaus Blues .wav" WAVE INDEX 01 00:00:00 TRACK 06 AUDIO TITLE "Jeder Ratz Liebt Sein' Kanau" PERFORMER "Roland Neuwirth" INDEX 00 04:10:50FILE "06 Jeder Ratz Liebt Sein' Kanau .wav" WAVE INDEX 01 00:00:00 TRACK 07 AUDIO TITLE "Bullen Blues" PERFORMER "Christoph Falbl & Stephan Paryla" INDEX 00 03:49:42FILE "07 Bullen Blues .wav" WAVE INDEX 01 00:00:00 TRACK 08 AUDIO TITLE "Kaiserwasser Blues (Instrumental)" PERFORMER "Kaisermuhlen Combo" INDEX 00 03:13:35FILE "08 Kaiserwasser Blues (Instrumental) .wav" WAVE INDEX 01 00:00:00 TRACK 09 AUDIO TITLE "Aber Du Bist Mei Kittlfaltn" PERFORMER "Roland Neuwirth" INDEX 00 04:00:65FILE "09 Aber Du Bist Mei Kittlfaltn .wav" WAVE INDEX 01 00:00:00 TRACK 10 AUDIO TITLE "5er Blues" PERFORMER "Gerald Pichowetz" INDEX 00 03:43:57FILE "10 5er Blues .wav" WAVE INDEX 01 00:00:00 TRACK 11 AUDIO TITLE "Kaisermuhlen Blues (Instrumental)" PERFORMER "Kaisermuhlen Combo" INDEX 00 03:31:26FILE "11 Kaisermuhlen Blues (Instrumental) .wav" WAVE INDEX 01 00:00:00
Доп. информация: Редкий сборник саундтрека к легендарному сериалу ORF (1992-1999: Kaisermühlen Blues) от Эрнста Хинтербергера (Ernst Hinterberger).

Трекер:  [ 20-Ноя-2017 16:36 ]

  

Скачать .torrent

Размер .torrent файла 18 KB


Размер: 218 MB
Хэш (hash) релиза: d86bd2ffda71ead4efe16f8eeab4ce39b401c7e6

Еще никто не оставлял запись к записи скачать торрент Kaisermuhlen Blues . Будь первым!

!Обратная связь