Скачать через торрент музыку Покемон Pokemon бесплатно без регистрации torrent

Если у вас наблюдаются проблемы со скриншотами, переходом по ссылками, скачиванием торрентов - проблемы в блокировщике рекламы AdBlock. #хорошегоДня!


Статистика раздачи
Размер:  328 MB   |    Зарегистрирован:  2 месяца   |    .torrent скачан:  10 раз   |   
Раздают:  1  
   
Загрузка...
 
Автор Сообщение

Galfimbul

avatar Galfimbul


Покемон / Pokemon

Название альбома: Pokémon 2.B.A. Master
Жанр: Soundtrack
Композитор: John Loeffler
Год выпуска диска: 1999
Год выпуска фильма: 1999
Страна-производитель диска: USA
Издатель (лейбл): Koch Records
Номер по каталогу: KOC-MC-8901 / KOC-CD-8901
Аудиокодек: FLAC (*.flac)
Тип рипа: tracks+.cue
Битрейт аудио: lossless
Продолжительность: 00:48:27
Источник: скачано с
сайт-источник/ник/другое: RED
Наличие сканов в содержимом раздачи: да
Треклист:
1. "Pokémon Theme" (Jason Paige)
2. "2B A Master" (Russell Velázquez)
3. "Viridian City" (Jason Paige)
4. "What Kind of Pokémon Are You?" (Joshua Tyler)
5. "My Best Friends" (Ray Greene)
6. "Everything Changes" (Sheila Brody)
7. "The Time Has Come (Pikachu's Goodbye)" (Marti Lebow)
8. "Pokémon (Dance Mix)" (Vicki Sue Robinson)
9. "Double Trouble (Team Rocket)" (Rachael Lillis, Eric Stuart, Adam Blaustein & Ted Lewis)
10. "Together Forever" (J. P. Hartmann)
11. "Misty's Song" (Yvette Laboy)
12. "PokéRAP" (James "D Train" Williams & Babi Floyd)
13. "You Can Do It (If You Really Try)" (John Loeffler)
Exact Audio Copy V1.0 beta 6 from 9. April 2015

EAC extraction logfile from 17. April 2016, 17:28

Pokémon / Pokémon: 2.B.A. Master

Used drive : ATAPI iHBS112 2 Adapter: 1 ID: 0

Read mode : SecureUtilize accurate stream : YesDefeat audio cache : YesMake use of C2 pointers : No

Read offset correction : 6Overread into Lead-In and Lead-Out : NoFill up missing offset samples with silence : YesDelete leading and trailing silent blocks : NoNull samples used in CRC calculations : YesUsed interface : Native Win32 interface for Win NT & 2000Gap handling : Appended to previous track

Used output format : User Defined EncoderSelected bitrate : 1024 kBit/sQuality : HighAdd ID3 tag : NoCommand line compressor : D:\software\flac\win64\flac.exeAdditional command line options : -8 -V -T "ARTIST=%artist%" -T "TITLE=%title%" -T "ALBUM=%albumtitle%" -T "DATE=%year%" -T "TRACKNUMBER=%tracknr%" -T "GENRE=%genre%" -T "PERFORMER=%albuminterpret%" -T "COMPOSER=%composer%" %haslyrics%--tag-from-file=LYRICS="%lyricsfile%"%haslyrics% -T "ALBUMARTIST=%albumartist%" -T "DISCNUMBER=%cdnumber%" -T "TOTALDISCS=%totalcds%" -T "TOTALTRACKS=%numtracks%" -T "COMMENT=%comment%" %source% -o %dest%

TOC of the extracted CD

Track | Start | Length | Start sector | End sector --------------------------------------------------------- 1 | 0:00.00 | 3:18.14 | 0 | 14863 2 | 3:18.14 | 4:03.74 | 14864 | 33162 3 | 7:22.13 | 3:29.35 | 33163 | 48872 4 | 10:51.48 | 3:41.04 | 48873 | 65451 5 | 14:32.52 | 3:29.39 | 65452 | 81165 6 | 18:02.16 | 4:40.65 | 81166 | 102230 7 | 22:43.06 | 3:05.38 | 102231 | 116143 8 | 25:48.44 | 3:53.51 | 116144 | 133669 9 | 29:42.20 | 3:52.73 | 133670 | 151142 10 | 33:35.18 | 3:55.34 | 151143 | 168801 11 | 37:30.52 | 4:43.10 | 168802 | 190036 12 | 42:13.62 | 3:03.04 | 190037 | 203765 13 | 45:16.66 | 3:09.59 | 203766 | 217999 14 | 50:58.50 | 7:09.03 | 229400 | 261577

Track 1

Filename C:\EAC rips\Pokémon - 1999 - Pokémon 2.B.A. Master\01 Pokémon Theme.wav

Pre-gap length 0:00:02.00

Peak level 99.7 % Extraction speed 1.3 X Track quality 99.9 % Test CRC 7CD27B2E Copy CRC 7CD27B2E Accurately ripped (confidence 15) [8F0EEB3F] (AR v2) Copy OK

Track 2

Filename C:\EAC rips\Pokémon - 1999 - Pokémon 2.B.A. Master\02 2.B.A. Master.wav

Pre-gap length 0:00:02.00

Peak level 99.9 % Extraction speed 1.6 X Track quality 99.9 % Test CRC 4EE6E838 Copy CRC 4EE6E838 Accurately ripped (confidence 15) [68B83624] (AR v2) Copy OK

Track 3

Filename C:\EAC rips\Pokémon - 1999 - Pokémon 2.B.A. Master\03 Viridian City.wav

Pre-gap length 0:00:02.00

Peak level 100.0 % Extraction speed 1.6 X Track quality 99.9 % Test CRC 828F442F Copy CRC 828F442F Accurately ripped (confidence 15) [96B3779E] (AR v2) Copy OK

Track 4

Filename C:\EAC rips\Pokémon - 1999 - Pokémon 2.B.A. Master\04 What Kind of Pokémon Are You.wav

Pre-gap length 0:00:01.98

Peak level 100.0 % Extraction speed 2.4 X Track quality 100.0 % Test CRC F496507C Copy CRC F496507C Accurately ripped (confidence 14) [A7BC4352] (AR v2) Copy OK

Track 5

Filename C:\EAC rips\Pokémon - 1999 - Pokémon 2.B.A. Master\05 My Best Friends.wav

Pre-gap length 0:00:02.00

Peak level 100.0 % Extraction speed 2.5 X Track quality 100.0 % Test CRC E3DD9987 Copy CRC E3DD9987 Accurately ripped (confidence 13) [7368B92B] (AR v2) Copy OK

Track 6

Filename C:\EAC rips\Pokémon - 1999 - Pokémon 2.B.A. Master\06 Everything Changes.wav

Pre-gap length 0:00:02.00

Peak level 99.9 % Extraction speed 2.2 X Track quality 99.9 % Test CRC 0E0F34F0 Copy CRC 0E0F34F0 Accurately ripped (confidence 14) [EDD2AAD1] (AR v2) Copy OK

Track 7

Filename C:\EAC rips\Pokémon - 1999 - Pokémon 2.B.A. Master\07 The Time Has Come (Pikachu's Goodbye).wav

Pre-gap length 0:00:02.00

Peak level 99.7 % Extraction speed 2.8 X Track quality 100.0 % Test CRC 8CE49AA7 Copy CRC 8CE49AA7 Accurately ripped (confidence 14) [ACA79DF3] (AR v2) Copy OK

Track 8

Filename C:\EAC rips\Pokémon - 1999 - Pokémon 2.B.A. Master\08 Pokémon (Dance Mix).wav

Pre-gap length 0:00:02.00

Peak level 100.0 % Extraction speed 2.2 X Track quality 99.9 % Test CRC A8706E7B Copy CRC A8706E7B Accurately ripped (confidence 14) [651E9759] (AR v2) Copy OK

Track 9

Filename C:\EAC rips\Pokémon - 1999 - Pokémon 2.B.A. Master\09 Double Trouble (Team Rocket).wav

Pre-gap length 0:00:02.00

Peak level 99.9 % Extraction speed 3.1 X Track quality 100.0 % Test CRC EB7B38B7 Copy CRC EB7B38B7 Accurately ripped (confidence 14) [5BF43EE5] (AR v2) Copy OK

Track 10

Filename C:\EAC rips\Pokémon - 1999 - Pokémon 2.B.A. Master\10 Together Forever.wav

Pre-gap length 0:00:01.98

Peak level 99.9 % Extraction speed 3.3 X Track quality 100.0 % Test CRC 6040589E Copy CRC 6040589E Accurately ripped (confidence 13) [D4D208F7] (AR v2) Copy OK

Track 11

Filename C:\EAC rips\Pokémon - 1999 - Pokémon 2.B.A. Master\11 Misty's Song.wav

Pre-gap length 0:00:01.98

Peak level 99.9 % Extraction speed 3.5 X Track quality 100.0 % Test CRC 60BCFCD6 Copy CRC 60BCFCD6 Accurately ripped (confidence 14) [BC1795CC] (AR v2) Copy OK

Track 12

Filename C:\EAC rips\Pokémon - 1999 - Pokémon 2.B.A. Master\12 PokéRAP.wav

Pre-gap length 0:00:02.00

Peak level 100.0 % Extraction speed 3.4 X Track quality 100.0 % Test CRC 18F82E46 Copy CRC 18F82E46 Accurately ripped (confidence 13) [8F169F2C] (AR v2) Copy OK

Track 13

Filename C:\EAC rips\Pokémon - 1999 - Pokémon 2.B.A. Master\13 You Can Do It (If You Really Try).wav

Pre-gap length 0:00:02.00

Peak level 99.3 % Extraction speed 3.5 X Track quality 100.0 % Test CRC 53F4B4C3 Copy CRC 53F4B4C3 Accurately ripped (confidence 13) [8DDCCD6B] (AR v2) Copy OK

All tracks accurately ripped

No errors occurred

End of status report

---- CUETools DB Plugin V2.1.6

[CTDB TOCID: 2.L24oQBQ6zqx0BYd1T9Fe_z0KQ-] foundSubmit result: 2.L24oQBQ6zqx0BYd1T9Fe_z0KQ- has been confirmedTrack | CTDB Status 1 | (57/61) Accurately ripped 2 | (56/61) Accurately ripped 3 | (56/61) Accurately ripped 4 | (57/61) Accurately ripped 5 | (57/61) Accurately ripped 6 | (52/61) Accurately ripped, or (2/61) differs in 3 samples @04:17:40 7 | (57/61) Accurately ripped 8 | (57/61) Accurately ripped 9 | (57/61) Accurately ripped 10 | (57/61) Accurately ripped 11 | (53/61) Accurately ripped 12 | (57/61) Accurately ripped 13 | (59/61) Accurately ripped

==== Log checksum D9E5197220919B43630CCE40540746ACC21E0B67EC0D6801F83C35FBABBAD2C2 ====
REM GENRE SoundtrackREM DATE 1999REM DISCID AB0D9F0EREM COMMENT "ExactAudioCopy v1.0b6"PERFORMER "Pokémon"TITLE "Pokémon: 2.B.A. Master"FILE "01 Pokémon Theme.wav" WAVE TRACK 01 AUDIO TITLE "Pokémon Theme" PERFORMER "Pokémon" INDEX 01 00:00:00 TRACK 02 AUDIO TITLE "2.B.A. Master" PERFORMER "Pokémon" INDEX 00 03:16:14FILE "02 2.B.A. Master.wav" WAVE INDEX 01 00:00:00 TRACK 03 AUDIO TITLE "Viridian City" PERFORMER "Pokémon" INDEX 00 04:01:74FILE "03 Viridian City.wav" WAVE INDEX 01 00:00:00 TRACK 04 AUDIO TITLE "What Kind of Pokémon Are You?" PERFORMER "Pokémon" INDEX 00 03:27:36FILE "04 What Kind of Pokémon Are You.wav" WAVE INDEX 01 00:00:00 TRACK 05 AUDIO TITLE "My Best Friends" PERFORMER "Pokémon" INDEX 00 03:39:04FILE "05 My Best Friends.wav" WAVE INDEX 01 00:00:00 TRACK 06 AUDIO TITLE "Everything Changes" PERFORMER "Pokémon" INDEX 00 03:27:39FILE "06 Everything Changes.wav" WAVE INDEX 01 00:00:00 TRACK 07 AUDIO TITLE "The Time Has Come (Pikachu's Goodbye)" PERFORMER "Pokémon" INDEX 00 04:38:65FILE "07 The Time Has Come (Pikachu's Goodbye).wav" WAVE INDEX 01 00:00:00 TRACK 08 AUDIO TITLE "Pokémon (Dance Mix)" PERFORMER "Pokémon" INDEX 00 03:03:38FILE "08 Pokémon (Dance Mix).wav" WAVE INDEX 01 00:00:00 TRACK 09 AUDIO TITLE "Double Trouble (Team Rocket)" PERFORMER "Pokémon" INDEX 00 03:51:51FILE "09 Double Trouble (Team Rocket).wav" WAVE INDEX 01 00:00:00 TRACK 10 AUDIO TITLE "Together Forever" PERFORMER "Pokémon" INDEX 00 03:50:74FILE "10 Together Forever.wav" WAVE INDEX 01 00:00:00 TRACK 11 AUDIO TITLE "Misty's Song" PERFORMER "Pokémon" INDEX 00 03:53:35FILE "11 Misty's Song.wav" WAVE INDEX 01 00:00:00 TRACK 12 AUDIO TITLE "PokéRAP" PERFORMER "Pokémon" INDEX 00 04:41:10FILE "12 PokéRAP.wav" WAVE INDEX 01 00:00:00 TRACK 13 AUDIO TITLE "You Can Do It (If You Really Try)" PERFORMER "Pokémon" INDEX 00 03:01:04FILE "13 You Can Do It (If You Really Try).wav" WAVE INDEX 01 00:00:00 TRACK 14 MODEx/2xxx TITLE "[data track]" PERFORMER "Pokémon" INDEX 00 03:09:59


Трекер:  [ 20-Ноя-2017 19:06 ]

  

Скачать .torrent

Размер .torrent файла 14 KB


Размер: 328 MB
Хэш (hash) релиза: 9c09aaf92da64567a8ce6a01b667846d7c702437

Торренты, похожие на Покемон Pokemon скачать торрент

Форум Название Автор Размер S L Добавлен
Саундтреки к фильмам и мультфильмам (lossless) ·· (Soundtrack) Покемон / Pokemon (Pokémon 2.B.A. Master) (John Loeffler) - 1999, FLAC (tracks), lossless Galfimbul 339464159324 MB 0 0 1417322129

07:35

30-Ноя-14

Еще никто не оставлял запись к записи скачать торрент Покемон Pokemon . Будь первым!

!Обратная связь