Скачать через торрент Хикок Hickok Фильм бесплатно в хорошем качестве torrent

Скачивайте на UnionPeer.org фильмы через торрент без регистрации. Новинки кино в хорошем качестве через торрент. На UnionPeer.org можно скачать через торрент фильмы 2014 и 2015 годов. Самые новые фильмы.

Скачать торрент Хикок Hickok бесплатно через .torrent фильм мультфильм сериал

Статистика раздачи
Размер:  10.65 GB   |    Зарегистрирован:  6 лет 3 месяца   |    .torrent скачан:  66 раз   |   
Раздают:  1  
 

Скачать Хикок / Hickok (Тимоти Вудворд мл. / Timothy Woodward Jr.) [2017, США, вестерн, BDRip 1080p] через torrent

 
 
Автор Сообщение

Galfimbul

avatar Galfimbul


Хикок / Hickok

Год выпуска: 2017
Жанр: Вестерн
Режиссер: Тимоти Вудворд мл.
В ролях: Люк Хемсворт, Трэйси Эдкинс, Крис Кристофферсон, Брюс Дерн, Кэмерон Ричардсон, Каиви Лайман, Хантер Фишер, Роберт Катрини, Бритен Саймонс, Шона Крэйг

О фильме:
Известный герой Джеймс Батлер Хикок по прозвищу «Дикий Билл» родился в небольшом городке Гомер, штат Иллинойс. Через эти места бежали чернокожие рабы с юга на север. Поэтому в городке всегда было крайне неспокойно и Хикок с юности мог постоять за себя. Парень великолепно стрелял, а в драке был просто неистовым. Потом он уехал в Канзас, где вместе с генералом Лейном сражался против рабовладельцев. Когда началась гражданская война Джейм был одним из лучших разведчиков северян. Интриги, предательство, погони и перестрелки - все это постоянно сопровождает деятельность Джеймса, который больше всего уважал справедливость.


Страна: США
Студия: Avery Productions (II), Status Media & Entertainment, Vision Tree
Продолжительность: 01:28:19
Перевод: Любительский многоголосый [студия Paradox & Omskbird records]

Файл
Кодек: MPEG-4 AVC
Качество: BDRip (1080p)
Видео: 11.7 Мбит/с, 1920x808
Звук: Русский (AC3, 2 ch, 384 Кбит/с), (AC3, 6 ch, 640 Кбит/с), английский (DTS-HD MA, 6 ch, 4516 Кбит/с)
Субтитры: Английские

Без рекламы!

Инфо-файл
Общее
Уникальный идентификатор : 230723507292031238647604361978204371203 (0xAD93BB2D172D58F4AE45B8CF481BB903)
Полное имя : G:Hickok.2017.1080p.BluRay.x264.DTS-HD.MA.5.1 (rus,eng).mkv
Формат : Matroska
Версия формата : Version 4 / Version 2
Размер файла : 10,7 Гбайт
Продолжительность : 1 ч. 28 м.
Общий поток : 17,3 Мбит/сек
Название фильма : Hickok
Дата кодирования : UTC 2017-11-21 04:29:45
Программа кодирования : mkvmerge v17.0.0 ('Be Ur Friend') 64-bit
Библиотека кодирования : libebml v1.3.5 + libmatroska v1.4.8

Видео
Идентификатор : 1
Формат : AVC
Формат/Информация : Advanced Video Codec
Профиль формата : High@L4
Настройки формата : CABAC / 5 Ref Frames
Параметр CABAC формата : Да
Параметр RefFrames формата : 5 кадров
Идентификатор кодека : V_MPEG4/ISO/AVC
Продолжительность : 1 ч. 28 м.
Битрейт : 11,7 Мбит/сек
Ширина : 1920 пикселей
Высота : 808 пикселей
Соотношение сторон : 2,40:1
Режим частоты кадров : Постоянный
Частота кадров : 23,976 (24000/1001) кадра/сек
Цветовое пространство : YUV
Субдискретизация насыщенности : 4:2:0
Битовая глубина : 8 бит
Тип развёртки : Прогрессивная
Бит/(Пиксели*Кадры) : 0.315
Размер потока : 7,23 Гбайт (68%)
Заголовок : Hickok.2017.1080p.BluRay.x264.DTS-HD.MA.5.1-FGT
Библиотека кодирования : x264 core 148 r2795M aaa9aa8
Настройки программы : cabac=1 / ref=5 / deblock=1:0:0 / analyse=0x3:0x113 / me=hex / subme=8 / psy=1 / psy_rd=1.00:0.00 / mixed_ref=1 / me_range=16 / chroma_me=1 / trellis=2 / 8x8dct=1 / cqm=0 / deadzone=21,11 / fast_pskip=1 / chroma_qp_offset=-2 / threads=48 / lookahead_threads=6 / sliced_threads=0 / nr=0 / decimate=1 / interlaced=0 / bluray_compat=0 / constrained_intra=0 / bframes=3 / b_pyramid=2 / b_adapt=1 / b_bias=0 / direct=3 / weightb=1 / open_gop=0 / weightp=2 / keyint=250 / keyint_min=23 / scenecut=40 / intra_refresh=0 / rc_lookahead=50 / rc=crf / mbtree=1 / crf=17.0 / qcomp=0.60 / qpmin=0 / qpmax=69 / qpstep=4 / ip_ratio=1.40 / aq=1:1.00
Default : Да
Forced : Нет

Аудио #1
Идентификатор : 2
Формат : AC-3
Формат/Информация : Audio Coding 3
Параметр Endianness формата : Big
Идентификатор кодека : A_AC3
Продолжительность : 1 ч. 28 м.
Вид битрейта : Постоянный
Битрейт : 384 Кбит/сек
Каналы : 2 канала
Расположение каналов : Front: L R
Частота : 48,0 КГц
Частота кадров : 31,250 кадров/сек (1536 SPF)
Битовая глубина : 16 бит
Метод сжатия : С потерями
Размер потока : 243 Мбайт (2%)
Заголовок : Rus 2.0 Paradox
Язык : Russian
ServiceKind/String : Complete Main
Default : Нет
Forced : Нет

Аудио #2
Идентификатор : 3
Формат : AC-3
Формат/Информация : Audio Coding 3
Параметр Endianness формата : Big
Идентификатор кодека : A_AC3
Продолжительность : 1 ч. 28 м.
Вид битрейта : Постоянный
Битрейт : 640 Кбит/сек
Каналы : 6 каналов
Расположение каналов : Front: L C R, Side: L R, LFE
Частота : 48,0 КГц
Частота кадров : 31,250 кадров/сек (1536 SPF)
Битовая глубина : 16 бит
Метод сжатия : С потерями
Размер потока : 404 Мбайт (4%)
Заголовок : Rus 5.1 Paradox
Язык : Russian
ServiceKind/String : Complete Main
Default : Да
Forced : Нет

Аудио #3
Идентификатор : 4
Формат : DTS
Формат/Информация : Digital Theater Systems
Профиль формата : MA / Core
Режим : 16
Параметр Endianness формата : Big
Идентификатор кодека : A_DTS
Продолжительность : 1 ч. 28 м.
Вид битрейта : Переменный / Постоянный
Битрейт : 4516 Кбит/сек / 1509 Кбит/сек
Каналы : 6 каналов
Расположение каналов : Front: L C R, Side: L R, LFE
Частота : 48,0 КГц
Частота кадров : 93,750 кадра/сек (512 SPF)
Битовая глубина : 24 бит
Метод сжатия : Без потерь / Lossy
Размер потока : 2,79 Гбайт (26%)
Язык : English
Default : Нет
Forced : Нет

Текст #1
Идентификатор : 5
Формат : PGS
Режим смешивания : zlib
Идентификатор кодека : S_HDMV/PGS
Идентификатор кодека/Информация : Picture based subtitle format used on BDs/HD-DVDs
Продолжительность : 1 ч. 27 м.
Битрейт : 41,4 Кбит/сек
ElementCount : 2637
Размер потока : 25,8 Мбайт (0%)
Язык : English
Default : Нет
Forced : Нет

Текст #2
Идентификатор : 6
Формат : UTF-8
Идентификатор кодека : S_TEXT/UTF8
Идентификатор кодека/Информация : UTF-8 Plain Text
Продолжительность : 1 ч. 22 м.
Битрейт : 46 бит/сек
ElementCount : 999
Размер потока : 27,8 Кбайт (0%)
Язык : English
Default : Да
Forced : Нет

Меню
00:00:00.000 : en:Chapter 1
00:11:43.577 : en:Chapter 2
00:23:52.681 : en:Chapter 3
00:32:37.121 : en:Chapter 4
00:45:34.565 : en:Chapter 5
00:57:54.429 : en:Chapter 6
01:11:23.696 : en:Chapter 7
01:23:59.909 : en:Chapter 8
Источник http://arutor.org

Внимание! AdBlock блокирует показ скриншотов, все вопросы к разработчикам )))
Трекер:  [ 21-Ноя-2017 12:30 ]

  

Скачать .torrent

Размер .torrent файла 107 KB


Размер: 10.65 GB
Хэш (hash) релиза: dec40dadb9b5d433f19502bacb45a14f20e5f469
Подписка на обновления:

Торренты, похожие на Хикок Hickok скачать торрент

Форум Название Автор Размер S L Добавлен
Зарубежные фильмы 2016-2019 (Новинки зарубежного кино) ·· Хикок / Hickok (Тимоти Вудворд мл. / Timothy Woodward Jr.) [2017, США, вестерн, WEB-DLRip] MVO Galfimbul 15521464321.45 GB 0 0 1507975277

13:01

14-Окт-17

Зарубежные фильмы 2016-2019 (Новинки зарубежного кино) ·· Хикок / Hickok (Тимоти Вудворд мл.) [2017 г., Вестерн, WEB-DLRip] MVO | "Paradox" & Omskbird records Galfimbul 14695546881.37 GB 0 0 1507798680

11:58

12-Окт-17

Зарубежные фильмы 2016-2019 (Новинки зарубежного кино) ·· Хикок / Hickok (Тимоти Вудворд мл.) [2017 г., Вестерн, WEB-DL 1080p] MVO | "Paradox" & Omskbird records Galfimbul 35719071413.33 GB 0 0 1507798678

11:57

12-Окт-17

Зарубежные фильмы 2016-2019 (Новинки зарубежного кино) ·· Хикок / Hickok (Тимоти Вудворд мл) [2017, вестерн, WEB-DLRip 1080р] Galfimbul 35719071413.33 GB 0 0 1507714218

12:30

11-Окт-17

Зарубежные фильмы 2016-2019 (Новинки зарубежного кино) ·· Хикок / Hickok (Тимоти Вудворд мл) [2017, вестерн, WEB-DLRip 720p] Galfimbul 28311313622.64 GB 0 0 1502422207

06:30

11-Авг-17

Зарубежные фильмы 2016-2019 (Новинки зарубежного кино) ·· Хикок / Hickok (Тимоти Вудворд мл) [2017, вестерн, WEB-DL 720p] Galfimbul 27491074152.56 GB 0 0 1499973614

22:20

13-Июл-17

Зарубежные фильмы 2016-2019 (Новинки зарубежного кино) ·· Хикок / Hickok (Тимоти Вудворд мл) [2017, вестерн, WEB-DL 1080p] Galfimbul 30758485202.86 GB 0 0 1499935210

11:40

13-Июл-17

Зарубежные фильмы 2016-2019 (Новинки зарубежного кино) ·· Хикок / Hickok (Тимоти Вудворд мл) [2017, вестерн, WEB-DLRip] Galfimbul 14662041601.37 GB 0 0 1499520035

16:20

8-Июл-17

Еще никто не оставлял запись к записи скачать торрент Хикок Hickok . Будь первым!

!Обратная связь