Скачать через торрент Матрица времени Before I Fall Фильм бесплатно в хорошем качестве torrent

Скачивайте на UnionPeer.org фильмы через торрент без регистрации. Новинки кино в хорошем качестве через торрент. На UnionPeer.org можно скачать через торрент фильмы 2014 и 2015 годов. Самые новые фильмы.

Скачать торрент Матрица времени Before I Fall бесплатно через .torrent фильм мультфильм сериал

Статистика раздачи
Размер:  2.16 GB   |    Зарегистрирован:  6 лет 3 месяца   |    .torrent скачан:  85 раз   |   
Раздают:  1  
 

Скачать Матрица времени / Before I Fall (Ри Руссо-Янг / Ry Russo-Young) [2017, США, триллер, драма, детектив, BDRip] [US-Transfer] Dub + Ukr MVO + Original Eng + Sub Rus, Eng через torrent

 
 
Автор Сообщение

Galfimbul

avatar Galfimbul


Матрица времени / Before I Fall / US-Transfer
Год выпуска: 2017
Страна: США / Awesomeness Films, Jon Shestack Productions
Жанр: триллер, драма, детектив
Продолжительность: 01:38:47
Перевод: Профессиональный (дублированный) BD RUS
+ Профессиональный (многоголосый закадровый) Украинский MEGOGO
Субтитры: русские, английские
Оригинальная аудиодорожка: английскийРежиссер: Ри Руссо-Янг / Ry Russo-YoungВ ролях: Зои Дойч, Холстон Сейдж, Логан Миллер, Киан Лоули, Елена Кампурис, Синти У, Медальон Рахими, Эрика Тремблэй, Лив Хьюсон, Николас Ли.Описание: Саманта — крутая девчонка, которой всегда и во всем везло. Но в тот день, в пятницу, 12 февраля, что-то пошло не так, а потом та авария на трассе... Саманта оказалась в заколдованном круге проклятого дня, и теперь она вынуждена проживать ужас той пятницы снова и снова. Чтобы распутать петлю времени, она должна вычислить ошибку и исправить неверный шаг. Но каждый раз что-то не срабатывает...Рейтинг
kinopoisk.ru 6.147 (12 744)
imdb.com 6.40 (24 212)Качество видео: BDRip (исходник: ExKinoRay / BD-Remux / US-Transfer / 1080р)
Формат видео: AVI | Sample
Видео: 720x304 (2.37:1), 23.976 fps, XviD build 73 ~2011 kbps avg, 0.38 bit/pixel
Аудио 1: 48 kHz, AC3 Dolby Digital, 3/2 (L,C,R,l,r) + LFE ch, ~448.00 kbps avg | RUS
Аудио 2: 48 kHz, AC3 Dolby Digital, 3/2 (L,C,R,l,r) + LFE ch, ~448.00 kbps avg | ENG
Аудио 3: 48 kHz, AC3 Dolby Digital, 2/0 (L,R) ch, ~192.00 kbps avg | UKR
Формат : AVI
Формат/Информация : Audio Video Interleave
Профиль формата : OpenDML
Размер файла : 2,16 Гбайт
Продолжительность : 1 ч. 38 м.
Общий поток : 3123 Кбит/сек
Название фильма : Матрица времени / Before I Fall (2017) US-Transfer
Программа кодирования : VirtualDubMod 1.5.10.2 (build 2540/release)
Библиотека кодирования : VirtualDubMod build 2540/release
Примечание : BDRip by Seven

Видео
Идентификатор : 0
Формат : MPEG-4 Visual
Профиль формата : Advanced Simple@L5
Параметр BVOP формата : 1
Параметр QPel формата : Нет
Параметр GMC формата : Без точки перехода
Параметр матрицы формата : Выборочная
Идентификатор кодека : XVID
Идентификатор кодека/Подсказка : XviD
Продолжительность : 1 ч. 38 м.
Битрейт : 2011 Кбит/сек
Ширина : 720 пикселей
Высота : 304 пикселя
Соотношение сторон : 2,35:1
Частота кадров : 23,976 (24000/1001) кадра/сек
Цветовое пространство : YUV
Субдискретизация насыщенности : 4:2:0
Битовая глубина : 8 бит
Тип развёртки : Прогрессивная
Метод сжатия : С потерями
Бит/(Пиксели*Кадры) : 0.383
Размер потока : 1,39 Гбайт (64%)
Библиотека кодирования : XviD 73

Аудио #1
Идентификатор : 1
Формат : AC-3
Формат/Информация : Audio Coding 3
Параметр Endianness формата : Big
Идентификатор кодека : 2000
Продолжительность : 1 ч. 38 м.
Вид битрейта : Постоянный
Битрейт : 448 Кбит/сек
Каналы : 6 каналов
Расположение каналов : Front: L C R, Side: L R, LFE
Частота : 48,0 КГц
Частота кадров : 31,250 кадров/сек (1536 SPF)
Битовая глубина : 16 бит
Метод сжатия : С потерями
Размер потока : 317 Мбайт (14%)
Выравнивание : Разделение по промежуткам
Продолжительность промежутка : 42 мс. (1,00 видеокадр)
Время предзагрузки промежутка : 500 мс.

Аудио #2
Идентификатор : 2
Формат : AC-3
Формат/Информация : Audio Coding 3
Параметр Endianness формата : Big
Идентификатор кодека : 2000
Продолжительность : 1 ч. 38 м.
Вид битрейта : Постоянный
Битрейт : 448 Кбит/сек
Каналы : 6 каналов
Расположение каналов : Front: L C R, Side: L R, LFE
Частота : 48,0 КГц
Частота кадров : 31,250 кадров/сек (1536 SPF)
Битовая глубина : 16 бит
Метод сжатия : С потерями
Размер потока : 317 Мбайт (14%)
Выравнивание : Разделение по промежуткам
Продолжительность промежутка : 42 мс. (1,00 видеокадр)
Время предзагрузки промежутка : 500 мс.

Аудио #3
Идентификатор : 3
Формат : AC-3
Формат/Информация : Audio Coding 3
Параметр Endianness формата : Big
Идентификатор кодека : 2000
Продолжительность : 1 ч. 38 м.
Вид битрейта : Постоянный
Битрейт : 192 Кбит/сек
Каналы : 2 канала
Расположение каналов : Front: L R
Частота : 48,0 КГц
Частота кадров : 31,250 кадров/сек (1536 SPF)
Битовая глубина : 16 бит
Метод сжатия : С потерями
Размер потока : 136 Мбайт (6%)
Выравнивание : Разделение по промежуткам
Продолжительность промежутка : 42 мс. (1,00 видеокадр)
Время предзагрузки промежутка : 500 мс.


Внимание! AdBlock блокирует показ скриншотов, все вопросы к разработчикам )))
Трекер:  [ 21-Ноя-2017 21:30 ]

  

Скачать .torrent

Размер .torrent файла 11 KB


Размер: 2.16 GB
Хэш (hash) релиза: e9f5e8980e834cc0ac076008a3180d24373b15ac
Подписка на обновления:

Торренты, похожие на Матрица времени Before I Fall скачать торрент

Форум Название Автор Размер S L Добавлен
Зарубежные фильмы 2016-2019 (Новинки зарубежного кино) ·· Матрица времени / Before I Fall (Ри Руссо-Янг) [2017 г., Триллер, драма, детектив, BDRip 1080p] US Transfer | Лицензия Galfimbul 1614312446115.03 GB 0 0 1519203014

11:50

21-Фев-18

Зарубежные фильмы до 2016 ·· Матрица времени / Before I Fall (Ри Руссо-Янг / Ry Russo-Young) [2017, США, триллер, драма, детектив, BDRip 1080p] Dub + Ukr + Sub Rus, Eng + Original Eng Galfimbul 1614312446115.03 GB 0 0 1519124664

14:04

20-Фев-18

Зарубежные фильмы до 2016 ·· Матрица времени / Before I Fall (Ри Руссо-Янг / Ry Russo-Young) [2017, США, триллер, драма, детектив, Blu-ray disc 1080p] [RUS] Galfimbul 2042912699619.03 GB 0 0 1509719858

17:37

3-Ноя-17

Зарубежные фильмы 2016-2019 (Новинки зарубежного кино) ·· Матрица времени / Before I Fall (Ри Руссо-Янг) [2017 г., Триллер, драма, детектив, BDRip 1080p] DUB | Лицензия Galfimbul 99958055569.31 GB 0 0 1509285976

17:06

29-Окт-17

Зарубежные фильмы 2016-2019 (Новинки зарубежного кино) ·· Матрица времени / Before I Fall (Ри Руссо-Янг) [2017 г., Триллер, драма, детектив, BDRip 720p] DUB | Лицензия Galfimbul 60329038665.62 GB 0 0 1509285967

17:06

29-Окт-17

Зарубежные фильмы 2016-2019 (Новинки зарубежного кино) ·· Матрица времени / Before I Fall (2017) BDRemux 1080p | RUS Transfer | Лицензия Galfimbul 1719352833016.01 GB 0 0 1509283811

16:30

29-Окт-17

Зарубежные фильмы 2016-2019 (Новинки зарубежного кино) ·· Матрица времени / Before I Fall (Ри Руссо-Янг / Ry Russo-Young) [2017, США, триллер, драма, детектив, BDRip] Dub Galfimbul 779601920743 MB 0 0 1503041415

10:30

18-Авг-17

Зарубежные фильмы 2016-2019 (Новинки зарубежного кино) ·· Матрица времени / Before I Fall (Ри Руссо-Янг / Ry Russo-Young) [2017, США, триллер, драма, детектив, BDRip-AVC] Dub Galfimbul 15608961781.45 GB 0 0 1503039680

10:01

18-Авг-17

Зарубежные фильмы до 2016 ·· Матрица времени / Before I Fall (Ри Руссо-Янг / Ry Russo-Young) [2017, США, Триллер, драма, детектив, BDRip 720p] Dub (iTunes) + Sub Rus, Eng + Original Eng Galfimbul 73394952856.84 GB 0 0 1502802562

16:09

15-Авг-17

Зарубежные фильмы 2016-2019 (Новинки зарубежного кино) ·· Матрица времени / Before I Fall (Ри Руссо-Янг) [2017, триллер, драма, детектив, BDRip 720p] Galfimbul 43433809244.05 GB 0 0 1495083140

07:52

18-Май-17

Зарубежные фильмы 2016-2019 (Новинки зарубежного кино) ·· Матрица времени / Before I Fall (Ри Руссо-Янг) [2017, триллер, драма, детектив, HDRip] Galfimbul 14708285441.37 GB 0 0 1495083135

07:52

18-Май-17

Зарубежные фильмы 2016-2019 (Новинки зарубежного кино) ·· Матрица времени / Before I Fall (Ри Руссо-Янг) [2017, триллер, драма, детектив, BDRip 1080p] Galfimbul 82513180627.68 GB 0 0 1495083124

07:52

18-Май-17

Зарубежные фильмы 2016-2019 (Новинки зарубежного кино) ·· Матрица времени / Before I Fall (Ри Руссо-Янг) [2017, триллер, драма, детектив, CAMRip] Galfimbul 14677217281.37 GB 0 0 1492605656

15:40

19-Апр-17

Еще никто не оставлял запись к записи скачать торрент Матрица времени Before I Fall . Будь первым!

!Обратная связь