Скачать через торрент Операция «Хромит» Operation Chromite Фильм бесплатно в хорошем качестве torrent

Скачивайте на UnionPeer.org фильмы через торрент без регистрации. Новинки кино в хорошем качестве через торрент. На UnionPeer.org можно скачать через торрент фильмы 2014 и 2015 годов. Самые новые фильмы.

Скачать торрент Операция «Хромит» Operation Chromite бесплатно через .torrent фильм мультфильм сериал

Статистика раздачи
Размер:  3.57 GB   |    Зарегистрирован:  6 лет 2 месяца   |    .torrent скачан:  61 раз   |   
Раздают:  1  
 

Скачать Операция «Хромит» / Operation Chromite / Incheonsangryookjakjun (Джон Х. Ли) [2016, боевик, драма, военный, история, BDRip 720p] через torrent

 
 
Автор Сообщение

Galfimbul

avatar Galfimbul


Наименование: Операция «Хромит»
Оригинальное наименование: Operation Chromite / Incheonsangryookjakjun
Произведено: Корея Южная
Категория: боевик, драма, военный, история
Режиссер постановщик: Джон Х. Ли
В главных ролях: Ли Джон-джэ, Ли Бом-су, Лиам Нисон, Чин Сэ-ён, Дин Доусон, Ким Джин-у, Ким Бён-ок

О фильме:Лето 1950 года. Самый разгар Корейской войны. Армия северян вторглась через границу, захватила Сеул и оттеснила остатки южнокорейских войск и сил ООН за Пусанский периметр. 95% полуострова уже принадлежит солдатам Ким Ир Сена, но в Пусан прибывает 70-летний генерал США Дуглас Макартур, получивший от ООН все полномочия на ведение наземных операций.
Макартур разрабатывает отчаянный план Инчхонской десантной операции (или операции «Хромит»), согласно которому южнокорейские и американские морпехи должны высадиться в самом тылу врага и переломить ход войны. В центре сюжета этой картины — история предшествующей десанту разведоперации «X-Ray», о цели которой знали только генерал Макартур и восемь южнокорейских добровольцев. «Я отдаю себе отчёт в том, что шансы на удачу в Инчхоне составляют один к пяти тысячам, — сказал Макартур, — но мне не привыкать. Мы высадимся в Инчхоне, и я их разобью.»



Файл
Качество: BDRip 720p
Видео данные: MKV, 1280x536 (2.40:1), 23.976 fps, 4000 Кбит/с
Аудио данные: AC3, 2 ch, 640 Кбит/с
Перевод: Любительский многоголосый (GreenРай Studio)
Продолжительность: 01:51:03

Над релизом работали:
Состав дикторов: Илья Кочетков, Богдан Иванчук и Нана Саркисян
Руководитель проекта и координатор: Евгений Овчаренко
Организатор и координатор: Никита Марков
Пиар менеджер студии: Игорь Обухов
Техническая поддержка: Александр Методий
General
Unique ID : 197828418124937589113557534444187538250 (0x94D45E1001F65B86AF5CBB94C21BD34A)
Complete name : D:Операция ХромитOperation.Chromite.2016.P.BDRip.720p.mkv
Format : Matroska
Format version : Version 4 / Version 2
File size : 3.57 GiB
Duration : 1 h 51 min
Overall bit rate mode : Constant
Overall bit rate : 4 576 kb/s
Encoded date : UTC 2017-11-24 07:11:43
Writing application : mkvmerge v8.3.0 ('Over the Horizon') 64bit
Writing library : libebml v1.3.1 + libmatroska v1.4.2

Video
ID : 1
Format : AVC
Format/Info : Advanced Video Codec
Format profile : [email protected]
Format settings, CABAC : Yes
Format settings, ReFrames : 3 frames
Codec ID : V_MPEG4/ISO/AVC
Duration : 1 h 51 min
Bit rate mode : Constant
Bit rate : 4 000 kb/s
Width : 1 280 pixels
Height : 536 pixels
Display aspect ratio : 2.40:1
Frame rate mode : Constant
Frame rate : 23.976 (23976/1000) FPS
Standard : NTSC
Color space : YUV
Chroma subsampling : 4:2:0
Bit depth : 8 bits
Scan type : Progressive
Bits/(Pixel*Frame) : 0.243
Stream size : 3.07 GiB (86%)
Language : English
Default : Yes
Forced : No
Color range : Limited

Audio
ID : 2
Format : AC-3
Format/Info : Audio Coding 3
Mode extension : CM (complete main)
Format settings, Endianness : Big
Codec ID : A_AC3
Duration : 1 h 51 min
Bit rate mode : Constant
Bit rate : 640 kb/s
Channel(s) : 2 channels
Channel positions : Front: L R
Sampling rate : 48.0 kHz
Frame rate : 31.250 FPS (1536 spf)
Compression mode : Lossy
Stream size : 511 MiB (14%)
Default : Yes
Forced : No
ВНИМАНИЕ! Присутствует реклама! Релиз от:
Источник http://arutor.org

Внимание! AdBlock блокирует показ скриншотов, все вопросы к разработчикам )))
Трекер:  [ 25-Ноя-2017 13:10 ]

  

Скачать .torrent

Размер .torrent файла 18 KB


Размер: 3.57 GB
Хэш (hash) релиза: cb1265089e4ca46e1726a3962cde3045b493bb32
Подписка на обновления:

Торренты, похожие на Операция «Хромит» Operation Chromite скачать торрент

Форум Название Автор Размер S L Добавлен
Зарубежные фильмы 2016-2019 (Новинки зарубежного кино) ·· Операция «Хромит» / Operation Chromite / Incheonsangryookjakjun (Джон Х. Ли) [2016, боевик, драма, военный, история, HDRip] Galfimbul 14683136001.37 GB 0 0 1511604617

13:10

25-Ноя-17

Еще никто не оставлял запись к записи скачать торрент Операция «Хромит» Operation Chromite . Будь первым!

!Обратная связь