Скачать через торрент Одаренные The Gifted Фильм бесплатно в хорошем качестве torrent

Скачивайте на UnionPeer.org фильмы через торрент без регистрации. Новинки кино в хорошем качестве через торрент. На UnionPeer.org можно скачать через торрент фильмы 2014 и 2015 годов. Самые новые фильмы.

Скачать торрент Одаренные The Gifted бесплатно через .torrent фильм мультфильм сериал

Статистика раздачи
Размер:  1.12 GB   |    Зарегистрирован:  6 лет 2 месяца   |    .torrent скачан:  61 раз   |   
Раздают:  1  
 

Скачать Одаренные / The Gifted / Сезон: 1 / Серии: 1 из 10 (Брайан Сингер) [2017, США, Фантастика, боевик, WEB-DL 720p] MVO (Jaskier) + Original + Sub Eng через torrent

 
 
Автор Сообщение

Galfimbul

avatar Galfimbul


Одаренные | The Gifted
Год выпуска: 2017
Страна: США
Жанр: Фантастика, боевик
Продолжительность: ~ 00:43:00Перевод: Профессиональный (многоголосый закадровый) | JaskierРежиссёр: Брайан СингерВ ролях: Колин Битон, Эми Акер, Стеффан Аргус, Билли Блэр, Джейсон Бремер, Пол Каревей, Эмма Дюмон, Дэйл Годбольдо и др. и другие.Описание: В центре сюжета сериала «Одаренные» оказываются самые обычные родители, которые даже представить не могли, что их дети особенные. У детей стали проявляться необычайные способности, сверхъестественные возможности. Для кого – то они покажутся даром, но для этих людей они обернулись серьезными проблемами. Родители пребывают в страхе за жизни своих детей, они стремятся не привлекать внимание к своей семье, чтобы обезопасить детей. Правительство настроено негативно по отношению к тем, кто отличается от большинства, поэтому они обращаются к подпольной организации, в которой состоят суперлюди. |

Качество: WEB-DL 720p
Формат: MKV
Видео: 1280x720 (16:9) | X264/MPEG4-AVC | ~3000 kbps | 23.976 fps
Аудио 1: AC3 | 48 KHz | 5.1 (Front: L С R Side: L R) + LFE | ~384 kbps [RUS]
Аудио 2: AC3 | 48 KHz | 5.1 (Front: L С R Side: L R) + LFE | ~384 kbps [ENG]
Субтитры: английскиеРеклама: Присутствует звуковая (два раза в начале и конце по 12 сек.)
Перевод и озвучивание Студия Jaskier
Общее
Уникальный идентификатор                 : 175359654983114134335543536545984935289 (0x83ED0A82B523F10A8A6EF15C777BF579)
Полное имя                               : E:\JASKiER\The Gifted. Season 1 (WEB-DL l 720p l Jaskier)\The.Gifted.S01E01.720p.AMZN.WEB-DL.H.264-Jaskier.mkv
Формат                                   : Matroska
Версия формата                           : Version 2
Размер файла                             : 1,12 Гбайт
Продолжительность                        : 47 м. 18 с.
Режим общего битрейта                    : Переменный
Общий поток                              : 3376 Кбит/сек
Дата кодирования                         : UTC 2017-12-01 11:31:48
Программа кодирования                    : mkvmerge v7.8.0 ('River Man') 32bit built on Apr  3 2015 12:11:22
Библиотека кодирования                   : libebml v1.3.1 + libmatroska v1.4.2

Видео
Идентификатор                            : 1
Формат                                   : AVC
Формат/Информация                        : Advanced Video Codec
Профиль формата                          : [email protected]
Настройки формата                        : CABAC / 5 Ref Frames
Параметр CABAC формата                   : Да
Параметр RefFrames формата               : 5 кадров
Идентификатор кодека                     : V_MPEG4/ISO/AVC
Продолжительность                        : 47 м. 18 с.
Вид битрейта                             : Переменный
Битрейт                                  : 2541 Кбит/сек
Максимальный битрейт                     : 4500 Кбит/сек
Ширина                                   : 1280 пикселей
Высота                                   : 720 пикселей
Соотношение сторон                       : 16:9
Режим частоты кадров                     : Постоянный
Частота кадров                           : 23,976 (24000/1001) кадра/сек
Цветовое пространство                    : YUV
Субдискретизация насыщенности            : 4:2:0
Битовая глубина                          : 8 бит
Тип развёртки                            : Прогрессивная
Бит/(Пиксели*Кадры)                      : 0.115
Размер потока                            : 860 Мбайт (75%)
Язык                                     : English
Default                                  : Да
Forced                                   : Нет
Цветовой диапазон                        : Limited
Основные цвета                           : BT.709
Характеристики трансфера                 : BT.709
Коэффициенты матрицы                     : BT.709

Аудио #1
Идентификатор                            : 2
Формат                                   : AC-3
Формат/Информация                        : Audio Coding 3
Идентификатор кодека                     : A_AC3
Продолжительность                        : 47 м. 18 с.
Вид битрейта                             : Постоянный
Битрейт                                  : 384 Кбит/сек
Каналы                                   : 6 каналов
Расположение каналов                     : Front: L C R, Side: L R, LFE
Частота                                  : 48,0 КГц
Частота кадров                           : 31,250 кадров/сек (1536 SPF)
Битовая глубина                          : 16 бит
Метод сжатия                             : С потерями
Размер потока                            : 130 Мбайт (11%)
Заголовок                                : Jaskier
Язык                                     : Russian
ServiceKind/String                       : Complete Main
Default                                  : Да
Forced                                   : Нет

Аудио #2
Идентификатор                            : 3
Формат                                   : AC-3
Формат/Информация                        : Audio Coding 3
Идентификатор кодека                     : A_AC3
Продолжительность                        : 47 м. 18 с.
Вид битрейта                             : Постоянный
Битрейт                                  : 384 Кбит/сек
Каналы                                   : 6 каналов
Расположение каналов                     : Front: L C R, Side: L R, LFE
Частота                                  : 48,0 КГц
Частота кадров                           : 31,250 кадров/сек (1536 SPF)
Битовая глубина                          : 16 бит
Метод сжатия                             : С потерями
Размер потока                            : 130 Мбайт (11%)
Язык                                     : English
ServiceKind/String                       : Complete Main
Default                                  : Нет
Forced                                   : Нет

Текст
Идентификатор                            : 4
Формат                                   : UTF-8
Идентификатор кодека                     : S_TEXT/UTF8
Идентификатор кодека/Информация          : UTF-8 Plain Text
Язык                                     : English
Default                                  : Нет
Forced                                   : Нет
Когда раздача ведётся путём добавления новых серий, при каждом добавлении создётся новый торрент. Чтобы начать докачку новой серии, пользователям необходимо сделать следующее:
(1) остановить скачивание,
(2) удалить старый торрент у себя из клиента (старые серии удалять не надо),
(3) скачать новый торрент и запустить его у себя в клиенте вместо старого, при этом указать клиенту путь в старую папку, куда и должно происходить скачивание новых серий.
Ваш клиент при этом должен произвести хеширование (проверку) старой папки (если не производит сам - помогите ему сделать это), и будет докачивать только те серии, которых у вас ещё нет. Старые серии при этом не удаляются, а продолжают раздаваться!
Eсли вы уже удалили старые серии, то предотвратить повторную закачку старых серий можно, отжав галочку в соответсвующих местах при запуске нового торрента. По возможности, желательно не удалять старые серии как можно дольше, чтобы релизёр не столько продолжал раздавать старые серии, а смог сконцентрироваться на новых.


Внимание! AdBlock блокирует показ скриншотов, все вопросы к разработчикам )))
Трекер:  [ 01-Дек-2017 14:54 ]

  

Скачать .torrent

Размер .torrent файла 11 KB


Размер: 1.12 GB
Хэш (hash) релиза: 3d86058c0ee29f6801a15be291a41e775dfa1f9a
Подписка на обновления:

Торренты, похожие на Одаренные The Gifted скачать торрент

Форум Название Автор Размер S L Добавлен
Зарубежные сериалы ·· Одаренные / The Gifted / Сезон: 1 / Серии: 1 из 10 (Брайан Сингер) [2017, США, Фантастика, боевик, WEB-DLRip] MVO (Jaskier) + Original Galfimbul 577456128551 MB 0 0 1512129106

14:51

1-Дек-17

Зарубежные сериалы ·· Одаренные / The Gifted / Сезон: 1 / Серии: 1 из 10 (Брайан Сингер / Bryan Singer) [2017, США, Фантастика, фэнтези, боевик, WEB-DL 1080p] MVO (LostFilm) + Original + Subs (Eng) Galfimbul 38179806613.56 GB 0 0 1507458272

13:24

8-Окт-17

Зарубежные сериалы ·· Одаренные / The Gifted / Сезон: 1 / Серии: 1 из 10 (Брайан Сингер) [2017, США, Фантастика, фэнтези, боевик, WEB-DLRip] MVO (LostFilm) + Original + Subs (Eng) Galfimbul 917568278875 MB 0 0 1507379029

15:23

7-Окт-17

Зарубежные сериалы ·· Одаренные / The Gifted / Сезон: 1 / Серии: 1 из 10 (Брайан Сингер) [2017, США, Фантастика, фэнтези, боевик, WEB-DLRip] MVO (LostFilm) + Original Galfimbul 577456128551 MB 0 0 1507373604

13:53

7-Окт-17

Зарубежные сериалы ·· Одаренные / The Gifted / Сезон: 1 / Серии: 1 из 10 (Брайан Сингер / Bryan Singer) [2017, США, Фантастика, фэнтези, боевик, WEB-DL 1080p] MVO (Alternative Production) + Original Galfimbul 35456356483.3 GB 0 0 1507292712

15:25

6-Окт-17

Зарубежные сериалы ·· Одаренные / The Gifted / Сезон: 1 / Серии: 1 из 10 (Брайан Сингер) [2017, США, Marvel Television, Twentieth Century Fox Tele, Фантастика, фэнтези, боевик, HDTVRip 720p] Original + Rus Sub (SFI) + Original Galfimbul 13211003951.23 GB 0 0 1507055152

21:25

3-Окт-17

Зарубежные сериалы ·· Одаренные / The Gifted / Сезон: 1 / Серии: 1-10 из 13 (Крэйг Сибельс, Джеримайя С. Чечик, Карен Гавиола) [2017, США, фантастика, фэнтези, боевик, WEBRip] MVO (Good People) + Original + Subs (Eng) Galfimbul 64539835836.01 GB 0 0 1514920976

22:22

2-Янв-18

Зарубежные сериалы ·· Одаренные / The Gifted / Сезон: 1 / Серии: 1-5 из 10 (Крэйг Сибельс, Джеримайя С. Чечик, Карен Гавиола) [2017, США, фантастика, фэнтези, боевик, WEBRip] Good People + Original + Subs (Eng) Galfimbul 32124328152.99 GB 0 0 1510307593

12:53

10-Ноя-17

Зарубежные сериалы ·· Одаренные / The Gifted / Сезон: 1 / Серии: 1-4 из 10 (Брайан Сингер) [2017, США, Фантастика, боевик, WEB-DL 720p] MVO (Good People, LostFilm, Profix Media) Galfimbul 62810208885.85 GB 0 0 1509281705

15:55

29-Окт-17

Зарубежные сериалы ·· Одаренные / The Gifted / Сезон: 1 / Серии: 1-4 из 10 (Брайан Сингер) [2017, США, Фантастика, фэнтези, боевик, WEB-DLRip] MVO (FOX) + Original Galfimbul 23086755842.15 GB 0 0 1508921592

11:53

25-Окт-17

Еще никто не оставлял запись к записи скачать торрент Одаренные The Gifted . Будь первым!

!Обратная связь