Скачать через торрент Операция «Хромит» In-cheon sang-ryuk jak-jeon Фильм бесплатно в хорошем качестве torrent

Скачивайте на UnionPeer.org фильмы через торрент без регистрации. Новинки кино в хорошем качестве через торрент. На UnionPeer.org можно скачать через торрент фильмы 2014 и 2015 годов. Самые новые фильмы.

Скачать торрент Операция «Хромит» In-cheon sang-ryuk jak-jeon бесплатно через .torrent фильм мультфильм сериал

Статистика раздачи
Размер:  1.46 GB   |    Зарегистрирован:  6 лет 2 месяца   |    .torrent скачан:  38 раз   |   
Раздают:  1  
 

Скачать Операция «Хромит» / In-cheon sang-ryuk jak-jeon / Battle for Incheon: Operation Chromite (Джон Х. Ли / John H. Lee) [2016, Южная Корея, боевик, драма, военный, HDRip-AVC] MVO через torrent

 
 
Автор Сообщение

Galfimbul

avatar Galfimbul


Операция «Хромит» / In-cheon sang-ryuk jak-jeon / Battle for Incheon: Operation Chromite«The odds were 5000 to 1. One was all they needed»
Страна: Южная Корея
Жанр: боевик, драма, военный
Год выпуска: 2016
Продолжительность: 01:51:01Перевод: Любительский (многоголосый закадровый) студия "Колобок"
Субтитры: нет
Оригинальная аудиодорожка: нетРежиссер: Джон Х. Ли / John H. LeeВ ролях: Ли Джон-джэ, Ли Бом-су, Лиам Нисон, Чин Сэ-ён, Чон Джун-хо, Пак Чхоль-мин, Ким Бён-ок, Киль Гым-сон, Шон Дюлейк, Дин ДоусонОписание: Лето 1950 года. Самый разгар Корейской войны. Армия северян вторглась через границу, захватила Сеул и оттеснила остатки южнокорейских войск и сил ООН за Пусанский периметр. 95% полуострова уже принадлежит солдатам Ким Ир Сена, но в Пусан прибывает 70-летний генерал США Дуглас Макартур, получивший от ООН все полномочия на ведение наземных операций.
Макартур разрабатывает отчаянный план Инчхонской десантной операции (или операции «Хромит»), согласно которому южнокорейские и американские морпехи должны высадиться в самом тылу врага и переломить ход войны. В центре сюжета этой картины — история предшествующей десанту разведоперации «X-Ray», о цели которой знали только генерал Макартур и восемь южнокорейских добровольцев. Качество видео: HDRip-AVC / Operation.Chromite.2016.BDRip 1080p
Формат видео: MKVВидео: MPEG-4 AVC, 998x420 (2.40:1), 23.976 fps, ~1684 kbps avg, 0.168 bit/pixel
Аудио: 48 kHz, AC3 Dolby Digital, 2/0 (L,R) ch, ~192 kbps avg
Complete name : D:\Раздачи\Операция «Хромит» (2016) HDRip-AVC_ivanes20031987.mkvFormat : MatroskaFormat version : Version 2File size : 1.46 GiBDuration : 1 h 51 minOverall bit rate : 1 876 kb/sEncoded date : UTC 2017-12-02 14:57:38Writing application : mkvmerge v4.4.0 ('Die Wiederkehr') сборка от Jan 3 2011 21:40:45Writing library : libebml v1.0.0 + libmatroska v1.0.0Cover : YesAttachments : cover.jpg

VideoID : 1Format : AVCFormat/Info : Advanced Video CodecFormat profile : [email protected] settings, CABAC : YesFormat settings, RefFrames : 14 framesCodec ID : V_MPEG4/ISO/AVCDuration : 1 h 51 minBit rate : 1 684 kb/sWidth : 998 pixelsHeight : 420 pixelsDisplay aspect ratio : 2.40:1Frame rate mode : ConstantFrame rate : 23.976 (24000/1001) FPSColor space : YUVChroma subsampling : 4:2:0Bit depth : 8 bitsScan type : ProgressiveBits/(Pixel*Frame) : 0.168Stream size : 1.28 GiB (88%)Writing library : x264 core 152 r2851kMod ba24899Encoding settings : cabac=1 / ref=14 / deblock=1:-2:-1 / analyse=0x3:0x113 / me=umh / subme=10 / psy=1 / fade_compensate=0.00 / psy_rd=1.00:0.00 / mixed_ref=1 / me_range=32 / chroma_me=1 / trellis=2 / 8x8dct=1 / cqm=0 / deadzone=21,11 / fast_pskip=0 / chroma_qp_offset=-2 / threads=13 / lookahead_threads=3 / sliced_threads=0 / nr=0 / decimate=0 / interlaced=0 / bluray_compat=0 / constrained_intra=0 / bframes=14 / b_pyramid=2 / b_adapt=2 / b_bias=0 / direct=1 / weightb=1 / open_gop=0 / weightp=2 / keyint=240 / keyint_min=23 / scenecut=40 / intra_refresh=0 / rc_lookahead=60 / rc=2pass / mbtree=0 / bitrate=1684 / ratetol=1.0 / qcomp=0.60 / qpmin=0 / qpmax=69 / qpstep=4 / cplxblur=20.0 / qblur=0.5 / vbv_maxrate=50000 / vbv_bufsize=62500 / nal_hrd=none / filler=0 / ip_ratio=1.40 / pb_ratio=1.30 / aq=1:1.00Default : YesForced : No

AudioID : 2Format : AC-3Format/Info : Audio Coding 3Format settings, Endianness : BigCodec ID : A_AC3Duration : 1 h 51 minBit rate mode : ConstantBit rate : 192 kb/sChannel(s) : 2 channelsChannel positions : Front: L RSampling rate : 48.0 kHzFrame rate : 31.250 FPS (1536 SPF)Bit depth : 16 bitsCompression mode : LossyStream size : 152 MiB (10%)Title : студия "Колобок"Language : RussianService kind : Complete MainDefault : YesForced : No


Внимание! AdBlock блокирует показ скриншотов, все вопросы к разработчикам )))
Трекер:  [ 02-Дек-2017 20:01 ]

  

Скачать .torrent

Размер .torrent файла 15 KB


Размер: 1.46 GB
Хэш (hash) релиза: 0c414d955cb6816f0aea2b6dcb668c998ab88597
Подписка на обновления:

Торренты, похожие на Операция «Хромит» In-cheon sang-ryuk jak-jeon скачать торрент

Форум Название Автор Размер S L Добавлен
Азиатские фильмы ·· Операция «Хромит» / In-cheon sang-ryuk jak-jeon / Battle for Incheon: Operation Chromite (Джон Х. Ли / John H. Lee) [2016, Южная Корея, боевик, драма, военный, HDRip] MVO (студия "Колобок") + Original Kor Galfimbul 23391764482.18 GB 0 0 1512235849

20:30

2-Дек-17

Еще никто не оставлял запись к записи скачать торрент Операция «Хромит» In-cheon sang-ryuk jak-jeon . Будь первым!

!Обратная связь