Скачать через торрент Марджори Прайм Marjorie Prime Фильм бесплатно в хорошем качестве torrent

Скачивайте на UnionPeer.org фильмы через торрент без регистрации. Новинки кино в хорошем качестве через торрент. На UnionPeer.org можно скачать через торрент фильмы 2014 и 2015 годов. Самые новые фильмы.

Скачать торрент Марджори Прайм Marjorie Prime бесплатно через .torrent фильм мультфильм сериал

Статистика раздачи
Размер:  3.16 GB   |    Зарегистрирован:  7 месяцев   |    .torrent скачан:  35 раз   |   
Раздают:  1  
   
загрузка...
 
Автор Сообщение

Galfimbul

avatar Galfimbul


Наименование: Марджори Прайм
Оригинальное наименование: Marjorie Prime
Произведено: США
Категория: фантастика, драма, комедия, детектив
Режиссер постановщик: Майкл Алмерейда
В главных ролях: Джон Хэмм, Джина Дэвис, Тим Роббинс, Лоис Смит, Стефани Андухар, Ханна Гросс, Лесли Лайлс, Уильям Уолтерс, Адзуми Тсутсуи,

О фильме: Главной героиней фильма является немолодая и страдающая артритом бывшая скрипачка Марджори, у который начинаются провалы в памяти. Не желая смириться с потерей мужа, Марджори обзаводится голограммой, досконально похожей на более молодую версию своего супруга, и пытается жить счастливо в обществе ненастоящего мужа и настоящей дочери и зятя.



Файл
Качество: BDRip 720p
Видео данные: MKV, 1280x720 (16:9), 23.976 fps, 4000 Кбит/с
Аудио данные: AC3, 2 ch, 640 Кбит/с
Перевод: Любительский многоголосый (GreenРай Studio)
Продолжительность: 01:39:52

Над релизом работали:
Состав дикторов: Илья Кочетков и Анастасия Гайдаржи, Анна Кириленко
Руководитель проекта и координатор: Евгений Овчаренко
Организатор и координатор: Никита Марков
Пиар менеджер студии: Игорь Обухов
Техническая поддержка: Александр Методий
General
Unique ID : 234514264413041553747874299242177136601 (0xB06DCDEE9802695D82EADDC5B6C887D9)
Complete name : D:ПраймMarjorie.Prime.2017.P.BDRip.720p.mkv
Format : Matroska
Format version : Version 4 / Version 2
File size : 3.16 GiB
Duration : 1 h 39 min
Overall bit rate mode : Constant
Overall bit rate : 4 538 kb/s
Encoded date : UTC 2017-12-08 08:27:25
Writing application : mkvmerge v8.3.0 ('Over the Horizon') 64bit
Writing library : libebml v1.3.1 + libmatroska v1.4.2

Video
ID : 1
Format : AVC
Format/Info : Advanced Video Codec
Format profile : Main@L3.2
Format settings, CABAC : Yes
Format settings, ReFrames : 3 frames
Codec ID : V_MPEG4/ISO/AVC
Duration : 1 h 39 min
Bit rate mode : Constant
Bit rate : 4 000 kb/s
Width : 1 280 pixels
Height : 720 pixels
Display aspect ratio : 16:9
Frame rate mode : Constant
Frame rate : 23.976 (23976/1000) FPS
Standard : NTSC
Color space : YUV
Chroma subsampling : 4:2:0
Bit depth : 8 bits
Scan type : Progressive
Bits/(Pixel*Frame) : 0.181
Stream size : 2.72 GiB (86%)
Language : English
Default : Yes
Forced : No
Color range : Limited

Audio
ID : 2
Format : AC-3
Format/Info : Audio Coding 3
Mode extension : CM (complete main)
Format settings, Endianness : Big
Codec ID : A_AC3
Duration : 1 h 39 min
Bit rate mode : Constant
Bit rate : 640 kb/s
Channel(s) : 2 channels
Channel positions : Front: L R
Sampling rate : 48.0 kHz
Frame rate : 31.250 FPS (1536 spf)
Compression mode : Lossy
Stream size : 457 MiB (14%)
Default : Yes
Forced : No
ВНИМАНИЕ! Присутствует реклама! Релиз от:
Источник http://arutor.org

Трекер:  [ 09-Дек-2017 12:50 ]

  

Скачать .torrent

Размер .torrent файла 16 KB


Размер: 3.16 GB
Хэш (hash) релиза: 86b173c4dd1262b70c685a211c094af799e222d2
Подписка на обновления:

Еще никто не оставлял запись к записи скачать торрент Марджори Прайм Marjorie Prime . Будь первым!

!Обратная связь